<?xml version="1.0" encoding="UTF-8" standalone="no"?>
<!DOCTYPE svg  PUBLIC '-//W3C//DTD SVG 1.1//EN'  'http://www.w3.org/Graphics/SVG/1.1/DTD/svg11.dtd'>
<svg version="1.1" xmlns="http://www.w3.org/2000/svg">
<defs>
<font id="Axiforma-Heavy" horiz-adv-x="840">
<font-face font-weight="950" underline-thickness="50" x-height="555" panose-1="0 0 10 0 0 0 0 0 0 0" font-family="Axiforma Heavy" ascent="775" units-per-em="1000" bbox="-137 -289 1110 1094" unicode-range="U+0020-00FE" underline-position="-150" cap-height="739" descent="-225"/>
<missing-glyph/>
<glyph horiz-adv-x="247" unicode=" " glyph-name="space"/>
<glyph horiz-adv-x="337" unicode="!" d="M260 236h-174l-12 533h200zM175 -13q-45 0 -75.5 29.5t-30.5 74.5q0 43 31 72.5t75 29.5q41 0 71 -30q30 -29 30 -72q0 -44 -29.5 -74t-71.5 -30z" glyph-name="exclam"/>
<glyph horiz-adv-x="658" unicode='&quot;' d="M216 405h-193l96 330h221zM531 405h-193l96 330h221z" glyph-name="quotedbl"/>
<glyph horiz-adv-x="796" unicode="#" d="M768 599l-32 -166h-94l-24 -127h94l-31 -166h-95l-27 -140h-201l29 140h-75l-29 -140h-201l31 140h-83l34 166h85l29 127h-90l32 166h94l31 140h191l-29 -140h74l29 140h191l-27 -140h94zM346 306h75l26 127h-74z" glyph-name="numbersign"/>
<glyph horiz-adv-x="623" unicode="$" d="M588 229q0 -83 -46.5 -143t-126.5 -85v-113h-192v109q-119 28 -196 137l127 137q29 -38 72 -63.5t83 -25.5q48 0 48 34q0 15 -10.5 24.5t-37.5 21.5q-103 48 -150 81q-97 69 -97 181q0 79 42.5 134t118.5 79v106h192v-100q74 -17 158 -80l-98 -157q-88 55 -149 55 q-50 0 -50 -33q0 -19 27 -34q7 -4 29.5 -14.5t29.5 -13.5q1 0 30 -14t55.5 -27.5t42.5 -24.5q98 -65 98 -171z" glyph-name="dollar"/>
<glyph horiz-adv-x="931" unicode="%" d="M27 564q0 78 56 132q56 55 138 55t137 -55q57 -56 57 -132t-57 -130q-56 -53 -137 -53q-80 0 -138 53q-56 54 -56 130zM288 0h-183l532 739h183zM221 622q-22 0 -38.5 -16t-16.5 -40q0 -23 16.5 -39.5t38.5 -16.5t39 16.5t17 39.5t-17 39.5t-39 16.5zM516 172 q0 77 56 131q55 55 137 55q83 0 138 -55q57 -54 57 -131q0 -76 -57 -130t-138 -54q-82 0 -137 54q-56 54 -56 130zM709 117q23 0 40 16t17 41q0 23 -17.5 39t-39.5 16t-38.5 -16t-16.5 -39q0 -25 16.5 -41t38.5 -16z" glyph-name="percent"/>
<glyph horiz-adv-x="709" unicode="&amp;" d="M617 167l88 -80l-110 -114l-89 83q-88 -67 -214 -67q-124 0 -195 62q-70 61 -70 156q0 123 126 206q-43 70 -43 143q0 75 60 135q60 61 170 61q88 0 147 -52q60 -52 60 -124q0 -64 -39.5 -109.5t-120.5 -91.5q12 -12 16 -15l98 -88q14 14 18 19q5 5 66 77l115 -99 q-42 -54 -83 -102zM327 604q-24 0 -37.5 -16t-13.5 -40q0 -28 17 -60q41 22 59.5 38.5t18.5 36.5q0 17 -12 29t-32 12zM302 156q44 0 80 17l-102 96q-14 14 -25 23q-32 -30 -32 -66q0 -31 21 -50.5t58 -19.5z" glyph-name="ampersand"/>
<glyph horiz-adv-x="343" unicode="&apos;" d="M217 405h-193l96 330h221z" glyph-name="quotesingle"/>
<glyph horiz-adv-x="451" unicode="(" d="M449 -64l-93 -157q-162 83 -245.5 213.5t-83.5 301.5q0 350 338 515l85 -161q-207 -126 -207 -353q0 -113 50 -199.5t156 -159.5z" glyph-name="parenleft"/>
<glyph horiz-adv-x="451" unicode=")" d="M95 -221l-93 157q106 73 156 159.5t50 199.5q0 227 -207 353l85 161q338 -165 338 -515q0 -171 -83.5 -301.5t-245.5 -213.5z" glyph-name="parenright"/>
<glyph horiz-adv-x="539" unicode="*" d="M270 454l-96 -113l-104 94l88 97l-129 54l54 127l120 -56l-7 138h148l-7 -138l120 56l53 -126l-128 -55l87 -97l-104 -94z" glyph-name="asterisk"/>
<glyph horiz-adv-x="624" unicode="+" d="M405 438h188v-184h-188v-188l-184 -3v191h-190v184h190v189h184v-189z" glyph-name="plus"/>
<glyph horiz-adv-x="287" unicode="," d="M141 190q49 0 81 -34.5t32 -87.5q0 -137 -191 -265l-55 72q26 20 49 39q47 37 69 74h-2q-37 0 -65 28q-27 29 -27 67q0 45 32 76t77 31z" glyph-name="comma"/>
<glyph horiz-adv-x="546" unicode="-" d="M494 186h-442v182h442v-182z" glyph-name="hyphen"/>
<glyph horiz-adv-x="267" unicode="." d="M136 -16q-45 0 -75.5 29.5t-30.5 74.5q0 43 31 72.5t75 29.5q42 0 71.5 -30t29.5 -72q0 -44 -29.5 -74t-71.5 -30z" glyph-name="period"/>
<glyph horiz-adv-x="750" unicode="/" d="M243 -123h-228l491 948h228z" glyph-name="slash"/>
<glyph horiz-adv-x="699" unicode="0" d="M349 -12q-145 0 -229 102q-83 103 -83 280t83 280q84 102 229 102q147 0 229 -102q84 -102 84 -280t-84 -280q-82 -102 -229 -102zM350 183q51 0 79 50.5t28 136.5q0 85 -28.5 136t-78.5 51q-51 0 -79.5 -51t-28.5 -136q0 -88 28 -137.5t80 -49.5z" glyph-name="zero"/>
<glyph horiz-adv-x="457" unicode="1" d="M-11 549l253 190h147v-739h-200v470l-99 -70z" glyph-name="one"/>
<glyph horiz-adv-x="605" unicode="2" d="M375 220l-31 -31h216v-190h-507v173l221 225l34 34q31 35 31 66q0 26 -18 41.5t-45 15.5q-62 0 -151 -79l-111 150q130 127 287 127q110 0 183 -67t73 -164q0 -75 -46 -142q-46 -69 -136 -159z" glyph-name="two"/>
<glyph horiz-adv-x="579" unicode="3" d="M261 -12q-134 0 -258 73l83 165q85 -47 158 -47q84 0 84 52q0 20 -18 32.5t-49 12.5h-97v185h69q37 0 57.5 13t20.5 35q0 21 -18.5 34t-48.5 13q-50 0 -128 -48l-96 150q109 94 254 94q102 0 173 -55q72 -54 72 -136q0 -56 -34 -98.5t-87 -62.5v-4q70 -15 108 -65 t38 -118q0 -100 -79 -163q-80 -62 -204 -62z" glyph-name="three"/>
<glyph horiz-adv-x="642" unicode="4" d="M531 322h76v-168h-76v-154h-190v154h-302l-40 138l366 447h166v-417zM341 485l-130 -163h130v163z" glyph-name="four"/>
<glyph horiz-adv-x="608" unicode="5" d="M325 469q105 0 177 -63q73 -61 73 -166q0 -108 -79 -180q-78 -72 -214 -72q-137 0 -261 73l73 167q97 -49 177 -49q48 0 72.5 17.5t24.5 44.5q0 25 -24 41t-59 16q-56 0 -106 -38l-110 108l36 371h419v-193h-266l-9 -87q36 10 76 10z" glyph-name="five"/>
<glyph horiz-adv-x="656" unicode="6" d="M372 477q109 0 179 -67q71 -66 71 -168q0 -107 -79 -179q-78 -72 -204 -72q-148 0 -225 100t-77 256q0 163 81 279q42 59 109 92.5t149 33.5q120 0 223 -69l-92 -155q-57 36 -121 36q-133 0 -154 -137q50 50 140 50zM283 185q23 -20 56 -20t55 21t22 52t-22 50 q-21 20 -54 20t-57 -19q-23 -19 -23 -51t23 -53z" glyph-name="six"/>
<glyph horiz-adv-x="550" unicode="7" d="M22 544v195h502v-154l-235 -585h-214l220 544h-273z" glyph-name="seven"/>
<glyph horiz-adv-x="649" unicode="8" d="M325 -12q-133 0 -212 61t-79 160q0 62 35.5 112.5t95.5 71.5v2q-46 22 -73 62t-27 94q0 88 71 144q70 57 189 57q117 0 188 -56q72 -56 72 -145q0 -108 -102 -156v-3q60 -20 96 -70t36 -113q0 -98 -80 -160q-79 -61 -210 -61zM271 484q19 -16 53 -16q33 0 52 16 q20 17 20 42t-20 42t-52 17q-33 0 -53 -17t-20 -42t20 -42zM405 232q0 28 -22.5 45.5t-58.5 17.5t-58 -17.5t-22 -44.5q0 -28 22.5 -45.5t58.5 -17.5t58 17.5t22 44.5z" glyph-name="eight"/>
<glyph horiz-adv-x="646" unicode="9" d="M313 752q143 0 219 -100q78 -99 78 -253q0 -111 -36 -203t-114 -150q-76 -58 -186 -58q-124 0 -219 69l75 151q62 -38 128 -38q116 0 147 126q-49 -31 -129 -31q-106 0 -173 66q-68 66 -68 169q0 111 76 181q77 71 202 71zM310 435q33 0 54.5 20.5t21.5 51.5t-21.5 51 t-54.5 20t-54.5 -19.5t-21.5 -51.5t21.5 -52t54.5 -20z" glyph-name="nine"/>
<glyph horiz-adv-x="299" unicode=":" d="M152 331q-45 0 -75.5 29.5t-30.5 74.5q0 43 31 72.5t75 29.5q42 0 71.5 -29.5t29.5 -72.5q0 -44 -29.5 -74t-71.5 -30zM152 -16q-45 0 -75.5 29.5t-30.5 74.5q0 43 31 72.5t75 29.5q42 0 71.5 -30t29.5 -72q0 -44 -29.5 -74t-71.5 -30z" glyph-name="colon"/>
<glyph horiz-adv-x="314" unicode=";" d="M162 329q-48 0 -80 31t-32 78q0 45 32.5 76t79.5 31q44 0 75 -31t31 -76q0 -47 -30.5 -78t-75.5 -31zM152 190q49 0 81 -34.5t32 -87.5q0 -137 -191 -265l-55 72q26 20 49 39q47 37 69 74h-2q-37 0 -65 28q-27 29 -27 67q0 45 32 76t77 31z" glyph-name="semicolon"/>
<glyph horiz-adv-x="539" unicode="&lt;" d="M484 224v-194l-456 208v161l456 206v-190l-246 -94z" glyph-name="less"/>
<glyph horiz-adv-x="574" unicode="=" d="M518 359h-462v156h462v-156zM518 141h-462v155h462v-155z" glyph-name="equal"/>
<glyph horiz-adv-x="539" unicode="&gt;" d="M511 238l-456 -208v194l246 97l-246 94v190l456 -206v-161z" glyph-name="greater"/>
<glyph horiz-adv-x="599" unicode="?" d="M376 230h-193v56q0 91 57 146q10 10 44.5 39.5t47.5 48t13 40.5q0 24 -16.5 38t-41.5 14q-65 0 -145 -96l-122 135q113 146 284 146q122 0 189 -64q68 -65 68 -158q0 -88 -66 -150q-7 -7 -38.5 -34.5t-42.5 -39.5t-24.5 -35.5t-13.5 -45.5v-40zM283 -13q-43 0 -74 29.5 t-31 73.5q0 43 30.5 73t74.5 30q43 0 72.5 -30t29.5 -73q0 -44 -30 -73.5t-72 -29.5z" glyph-name="question"/>
<glyph horiz-adv-x="957" unicode="@" d="M551 460v29h143v-237q0 -49 30 -49q24 0 46 37q23 38 23 92q0 126 -90 207q-91 81 -216 77q-136 -4 -229 -99q-92 -95 -92 -228q0 -139 98 -237q97 -97 233 -97q64 0 132 23t121 61l59 -106q-45 -39 -133 -71t-181 -32q-95 0 -181 36.5t-148 100.5q-61 63 -96 148.5 t-35 176.5q0 187 132 317q133 131 326 131q192 0 314 -116q121 -115 121 -281q0 -121 -66 -198q-65 -77 -162 -77q-83 0 -121 65q-53 -65 -143 -65q-87 0 -145 61t-58 156q0 92 56 156q57 63 145 63q71 0 117 -44zM407 228q25 -24 59 -24t58 23q24 24 24 59t-24 60t-58 25 t-59 -25q-24 -24 -24 -59t24 -59z" glyph-name="at"/>
<glyph horiz-adv-x="723" unicode="A" d="M721 0h-213l-35 121h-223l-37 -121h-213l263 739h203zM300 300h126l-62 204z" glyph-name="A"/>
<glyph horiz-adv-x="716" unicode="B" d="M545 406q68 -15 104.5 -65.5t36.5 -121.5q0 -97 -67 -158t-174 -61h-377v739h359q103 0 162 -54q58 -54 58 -128q0 -50 -28.5 -92.5t-73.5 -58.5zM387 565h-115v-105h106q32 0 48.5 14.5t16.5 37.5q0 22 -15.5 37.5t-40.5 15.5zM272 176h127q36 0 54.5 17.5t18.5 43.5 t-17.5 43t-48.5 17h-134v-121z" glyph-name="B"/>
<glyph horiz-adv-x="751" unicode="C" d="M413 -11q-163 0 -272 105q-108 106 -108 273q0 168 110 276q110 109 271 109q98 0 180.5 -38t135.5 -104l-130 -141q-80 84 -172 84q-75 0 -128 -53q-51 -52 -51 -131q0 -77 51 -130q52 -52 127 -52q100 0 176 88l137 -133q-48 -66 -137 -110q-86 -43 -190 -43z" glyph-name="C"/>
<glyph horiz-adv-x="785" unicode="D" d="M374 0h-306v739h308q178 0 275 -99q99 -99 99 -271q0 -171 -100 -270q-99 -99 -276 -99zM276 539v-339h108q73 0 111 50q39 50 39 120t-39 119q-38 50 -111 50h-108z" glyph-name="D"/>
<glyph horiz-adv-x="671" unicode="E" d="M619 0h-551v739h553v-192h-343v-82h317v-191h-317v-82h341v-192z" glyph-name="E"/>
<glyph horiz-adv-x="641" unicode="F" d="M276 0h-208v739h543v-194h-335v-99h297v-192h-297v-254z" glyph-name="F"/>
<glyph horiz-adv-x="808" unicode="G" d="M427 -11q-173 0 -285 107q-110 108 -110 273q0 169 114 275q114 108 286 108q168 0 287 -101l-130 -157q-73 59 -159 59q-81 0 -134 -53q-51 -52 -51 -128q0 -75 50 -131q49 -54 135 -54q43 0 84.5 14t64.5 34v44h-149v176h336v-329q-149 -137 -339 -137z" glyph-name="G"/>
<glyph horiz-adv-x="786" unicode="H" d="M276 0h-208v739h208v-274h232v274h210v-739h-210v265h-232v-265z" glyph-name="H"/>
<glyph horiz-adv-x="346" unicode="I" d="M68 0v739h210v-739h-210z" glyph-name="I"/>
<glyph horiz-adv-x="617" unicode="J" d="M242 -12q-148 0 -248 86l85 169q70 -55 139 -55q62 0 97 38t35 103v410h208v-417q0 -178 -98 -260q-87 -74 -218 -74z" glyph-name="J"/>
<glyph horiz-adv-x="733" unicode="K" d="M746 0h-254l-143 250l-73 -91v-159h-208v739h208v-278l207 278h253l-249 -321z" glyph-name="K"/>
<glyph horiz-adv-x="640" unicode="L" d="M627 0h-559v739h210v-541h349v-198z" glyph-name="L"/>
<glyph horiz-adv-x="963" unicode="M" d="M272 0h-204v739h160l253 -358l252 358h162v-739h-206v320l-168 -231h-81l-168 231v-320z" glyph-name="M"/>
<glyph horiz-adv-x="812" unicode="N" d="M540 369v370h204v-739h-163l-309 365v-365h-204v739h156z" glyph-name="N"/>
<glyph unicode="O" d="M421 -12q-166 0 -278 110q-111 111 -111 272q0 162 111 271q111 111 277 111t277 -111q111 -109 111 -272q0 -161 -111 -271q-110 -110 -276 -110zM420 194q73 0 123 50q50 52 49 126q-1 77 -51 127q-49 49 -121 49t-122 -50t-50 -126t50 -126t122 -50z" glyph-name="O"/>
<glyph horiz-adv-x="678" unicode="P" d="M68 739h306q147 0 217 -76q70 -74 70 -188t-73 -184q-73 -71 -228 -71h-84v-220h-208v739zM276 406h94q36 0 56.5 20t20.5 51t-21 51.5t-54 20.5h-96v-143z" glyph-name="P"/>
<glyph unicode="Q" d="M809 7l30 -168q-84 -28 -166 -28q-216 0 -327 184q-137 25 -227 130q-87 103 -87 245q0 162 111 271q111 111 277 111t277 -111q111 -109 111 -272q0 -117 -62 -212t-165 -138q38 -32 105 -32q54 0 123 20zM242 369q0 -77 51 -129q52 -51 127 -51t126 51q52 52 52 129 q0 78 -52 130q-51 52 -126 52t-127 -52q-51 -53 -51 -130z" glyph-name="Q"/>
<glyph horiz-adv-x="716" unicode="R" d="M694 0h-237l-117 231h-64v-231h-208v739h322q139 0 209 -70q71 -71 71 -181q0 -72 -32 -130.5t-95 -90.5zM388 550h-112v-139h107q35 0 54 19.5t19 50.5t-18 50t-50 19z" glyph-name="R"/>
<glyph horiz-adv-x="658" unicode="S" d="M323 -13q-186 0 -314 122l100 155q104 -86 217 -86q71 0 71 39q0 26 -56 46q-24 8 -46 14q-78 24 -115 42q-124 61 -124 195q0 102 81 169q80 67 207 67q152 0 274 -90l-92 -161q-31 23 -86 40q-54 17 -93 17q-34 0 -51.5 -10t-17.5 -26q0 -17 14 -26.5t44 -18.5 q105 -32 142 -47q150 -58 150 -199q0 -105 -83 -174q-83 -68 -222 -68z" glyph-name="S"/>
<glyph horiz-adv-x="641" unicode="T" d="M216 0v539h-202v200h613v-200h-201v-539h-210z" glyph-name="T"/>
<glyph horiz-adv-x="748" unicode="U" d="M374 -13q-120 0 -214 67q-100 77 -100 242v443h210v-443q0 -53 28.5 -81t75.5 -28q46 0 75 28t29 81v443h210v-443q0 -83 -27 -145t-73 -96.5t-99.5 -51t-114.5 -16.5z" glyph-name="U"/>
<glyph horiz-adv-x="774" unicode="V" d="M388 297l145 442h241l-289 -739h-194l-293 739h242z" glyph-name="V"/>
<glyph horiz-adv-x="1109" unicode="W" d="M443 0h-210l-234 739h232l112 -442l134 442h155l134 -442l112 442h232l-234 -739h-210l-111 400z" glyph-name="W"/>
<glyph horiz-adv-x="721" unicode="X" d="M240 0h-241l226 372l-205 367h239l102 -211l115 211h241l-222 -367l216 -372h-239l-113 218z" glyph-name="X"/>
<glyph horiz-adv-x="729" unicode="Y" d="M482 739h246l-260 -495v-244h-208v244l-257 495h246l115 -261z" glyph-name="Y"/>
<glyph horiz-adv-x="691" unicode="Z" d="M651 0h-611v160l321 390h-311v189h590v-168l-311 -382h322v-189z" glyph-name="Z"/>
<glyph horiz-adv-x="453" unicode="[" d="M429 -227h-367v1038h367v-182h-167v-674h167v-182z" glyph-name="bracketleft"/>
<glyph horiz-adv-x="730" unicode="\" d="M244 825l471 -948h-225l-474 948h228z" glyph-name="backslash"/>
<glyph horiz-adv-x="453" unicode="]" d="M391 -227h-367v182h167v674h-167v182h367v-1038z" glyph-name="bracketright"/>
<glyph horiz-adv-x="569" unicode="^" d="M219 431h-192l187 358h142l186 -358h-191l-66 157z" glyph-name="asciicircum"/>
<glyph horiz-adv-x="601" unicode="_" d="M601 -217h-601v182h601v-182z" glyph-name="underscore"/>
<glyph horiz-adv-x="352" unicode="`" d="M247 807l65 -187h-177l-95 187h207z" glyph-name="grave"/>
<glyph horiz-adv-x="691" unicode="a" d="M455 515v41h185v-556h-185v39q-68 -53 -156 -53q-119 0 -195 84q-76 85 -76 210q0 124 77 207t194 83q92 0 156 -55zM337 165q48 0 81 33q33 34 33 81q0 46 -33 79t-81 33t-80.5 -33t-32.5 -79q0 -47 33 -81q33 -33 80 -33z" glyph-name="a"/>
<glyph horiz-adv-x="691" unicode="b" d="M387 570q119 0 197 -83q79 -82 79 -209q0 -128 -79 -210q-78 -82 -196 -82q-86 0 -148 54v-40h-189v764h196v-241q59 47 140 47zM463 279q0 47 -32 79.5t-80 32.5t-80 -32.5t-32 -79.5q0 -48 32 -81t80 -33t80 33t32 81z" glyph-name="b"/>
<glyph horiz-adv-x="609" unicode="c" d="M324 -12q-132 0 -214 81q-82 82 -82 210t82 209q82 82 216 82q90 0 161 -42.5t107 -123.5l-156 -81q-39 65 -107 65q-48 0 -78.5 -31t-30.5 -78q0 -48 30.5 -79.5t77.5 -31.5q35 0 64 18t42 47l157 -93q-37 -72 -108 -112t-161 -40z" glyph-name="c"/>
<glyph horiz-adv-x="686" unicode="d" d="M438 523v241h197v-764h-190v39q-61 -53 -147 -53q-115 0 -193 82q-77 83 -77 210q0 126 78 209t193 83q81 0 139 -47zM446 279q0 47 -32 79.5t-80 32.5t-80 -32.5t-32 -79.5q0 -48 32 -81t80 -33t80 33t32 81z" glyph-name="d"/>
<glyph horiz-adv-x="645" unicode="e" d="M618 293q0 -35 -6 -77h-385q31 -70 121 -70q88 0 161 48l76 -130q-107 -76 -247 -76q-148 0 -229 83q-81 84 -81 207q0 126 83 209q85 83 218 83q125 0 207 -75q82 -73 82 -202zM329 416q-78 0 -105 -69h207q-25 69 -102 69z" glyph-name="e"/>
<glyph horiz-adv-x="479" unicode="f" d="M383 632q-39 0 -61 -19t-22 -55v-2h168v-162h-168v-394h-196v394h-74v162h74v6q0 118 69 178q68 61 177 61q94 0 198 -53l-66 -145q-60 29 -99 29z" glyph-name="f"/>
<glyph horiz-adv-x="685" unicode="g" d="M459 518v38h175v-503q0 -132 -92 -210q-91 -79 -228 -79q-153 0 -268 85l69 143q97 -63 190 -63q69 0 106 31.5t37 82.5v2q-55 -46 -145 -46q-125 0 -200 79q-75 80 -75 204q0 129 80 209q80 79 203 79q87 0 148 -52zM337 167q48 0 79.5 32.5t31.5 80.5q0 47 -31.5 78.5 t-79.5 31.5t-79.5 -31t-31.5 -79q0 -49 32 -81t79 -32z" glyph-name="g"/>
<glyph horiz-adv-x="675" unicode="h" d="M247 0h-196v764h192v-285q20 39 67 65.5t107 26.5q89 0 150 -60q63 -58 63 -169v-342h-197v291q0 48 -23 74.5t-64 26.5q-44 0 -71.5 -29.5t-27.5 -77.5v-285z" glyph-name="h"/>
<glyph horiz-adv-x="299" unicode="i" d="M44 708q0 46 32 77.5t78 31.5q47 0 78.5 -31.5t31.5 -77.5q0 -47 -31.5 -78t-78.5 -31t-78.5 31t-31.5 78zM253 556v-556h-197v556h197z" glyph-name="i"/>
<glyph horiz-adv-x="323" unicode="j" d="M63 708q0 46 32 77.5t78 31.5q47 0 78.5 -31.5t31.5 -77.5q0 -47 -31.5 -78t-78.5 -31t-78.5 31t-31.5 78zM24 -237q-107 0 -161 36l36 151q53 -17 87 -17q43 0 66 26.5t23 76.5v520h197v-544q0 -126 -70 -187q-71 -62 -178 -62z" glyph-name="j"/>
<glyph horiz-adv-x="631" unicode="k" d="M651 0h-231l-154 211l-19 -18v-193h-196v764h196v-353l148 145h236l-235 -222z" glyph-name="k"/>
<glyph horiz-adv-x="298" unicode="l" d="M247 764v-764h-196v764h196z" glyph-name="l"/>
<glyph horiz-adv-x="1037" unicode="m" d="M759 572q96 0 164 -59q69 -59 69 -171v-342h-197v302q0 44 -22.5 67t-60.5 23q-42 0 -67.5 -26t-25.5 -71v-295h-196v302q0 42 -24 66t-62 24q-40 0 -65 -25.5t-25 -71.5v-295h-196v556h192v-77q23 43 71 68.5t102 24.5q107 -2 149 -88q66 88 194 88z" glyph-name="m"/>
<glyph horiz-adv-x="675" unicode="n" d="M247 0h-196v556h192v-77q20 39 67 65.5t107 26.5q89 0 150 -60q63 -58 63 -169v-342h-197v291q0 48 -23 74.5t-64 26.5q-44 0 -71.5 -29.5t-27.5 -77.5v-285z" glyph-name="n"/>
<glyph horiz-adv-x="665" unicode="o" d="M553 69q-85 -85 -221 -85t-221 85q-84 85 -84 209t84 209q85 85 221 85t221 -85t85 -209t-85 -209zM332 168q47 0 78.5 31.5t31.5 79.5q0 46 -31.5 77.5t-78.5 31.5q-46 0 -77.5 -31.5t-31.5 -77.5q0 -48 31.5 -79.5t77.5 -31.5z" glyph-name="o"/>
<glyph horiz-adv-x="694" unicode="p" d="M396 570q118 0 194 -84q76 -83 76 -207q0 -123 -76 -208t-193 -85q-88 0 -149 52v-267h-197v785h194v-41q64 55 151 55zM356 166q48 0 79 31.5t31 79.5t-31 79.5t-79 31.5q-47 0 -78.5 -32t-31.5 -79t31.5 -79t78.5 -32z" glyph-name="p"/>
<glyph horiz-adv-x="694" unicode="q" d="M449 515v41h194v-785h-197v267q-61 -52 -149 -52q-117 0 -193 85t-76 208q0 124 76 207q76 84 194 84q87 0 151 -55zM338 166q47 0 78.5 32t31.5 79t-31.5 79t-78.5 32q-48 0 -79 -31.5t-31 -79.5t31 -79.5t79 -31.5z" glyph-name="q"/>
<glyph horiz-adv-x="460" unicode="r" d="M247 0h-196v556h189v-66q54 81 145 81q38 0 71 -16l-16 -187q-40 14 -77 14q-116 0 -116 -155v-227z" glyph-name="r"/>
<glyph horiz-adv-x="548" unicode="s" d="M273 -16q-146 0 -257 90l82 135q95 -65 173 -65q50 0 50 26q0 12 -25 21q-2 1 -63.5 20t-74.5 26q-109 46 -109 155q0 81 66 131q67 50 175 50q119 0 215 -69l-80 -131q-74 44 -137 44q-44 0 -44 -23q0 -22 52 -34q73 -16 130 -45q50 -26 72 -59.5t22 -82.5 q0 -85 -66 -137q-65 -52 -181 -52z" glyph-name="s"/>
<glyph horiz-adv-x="503" unicode="t" d="M450 188l50 -157q-80 -45 -184 -45q-213 0 -213 234v174h-82v162h84v197h195v-197h168v-162h-168v-146q0 -83 65 -83q34 0 85 23z" glyph-name="t"/>
<glyph horiz-adv-x="637" unicode="u" d="M318 -14q-129 0 -201.5 68t-72.5 193v309h197v-312q0 -35 21 -57t56 -22q36 0 57 21.5t21 57.5v312h197v-309q0 -125 -72.5 -193t-202.5 -68z" glyph-name="u"/>
<glyph horiz-adv-x="637" unicode="v" d="M322 262l99 294h215l-238 -555h-160l-236 555h216z" glyph-name="v"/>
<glyph horiz-adv-x="923" unicode="w" d="M369 1h-177l-189 555h207l87 -301l95 301h139l95 -301l87 301h207l-189 -555h-177l-92 267z" glyph-name="w"/>
<glyph horiz-adv-x="608" unicode="x" d="M437 278l165 -278h-227l-72 152l-82 -152h-221l170 278l-148 278h223l60 -141l74 141h216z" glyph-name="x"/>
<glyph horiz-adv-x="653" unicode="y" d="M339 261l100 295h212l-212 -542q-49 -127 -116.5 -189t-169.5 -62q-75 0 -128 34l40 160q38 -20 74 -20q65 0 104 74l-241 545h226z" glyph-name="y"/>
<glyph horiz-adv-x="575" unicode="z" d="M530 412l-223 -251h234v-161h-506v140l232 254h-223v161h486v-143z" glyph-name="z"/>
<glyph horiz-adv-x="452" unicode="{" d="M254 290v-3q37 -11 63 -39t26 -69q0 -24 -7 -74t-7 -75q0 -61 61 -61h22v-200h-99q-191 0 -191 202q0 12 5 67t5 78q0 51 -25.5 69t-89.5 20v170q65 3 90 20.5t25 68.5q0 21 -5 79t-5 77q0 96 49 143.5t157 47.5h84v-200h-22q-61 0 -61 -61q0 -25 7 -77t7 -74 q0 -41 -25.5 -68.5t-63.5 -40.5z" glyph-name="braceleft"/>
<glyph horiz-adv-x="330" unicode="|" d="M268 -179h-206v1026h206v-1026z" glyph-name="bar"/>
<glyph horiz-adv-x="452" unicode="}" d="M198 287v3q-38 13 -63.5 40.5t-25.5 68.5q0 22 7 74t7 77q0 61 -61 61h-22v200h84q108 0 157 -47.5t49 -143.5q0 -19 -5 -77t-5 -79q0 -51 25 -68.5t90 -20.5v-170q-64 -2 -89.5 -20t-25.5 -69q0 -23 5 -78t5 -67q0 -202 -191 -202h-99v200h22q61 0 61 61q0 25 -7 75 t-7 74q0 41 26 69t63 39z" glyph-name="braceright"/>
<glyph horiz-adv-x="738" unicode="~" d="M480 208q-66 0 -137 30q-69 31 -96 31q-19 0 -38 -14t-54 -55l-126 103q32 66 90.5 103.5t132.5 37.5q58 0 137 -30t99 -30t40 16.5t52 61.5l131 -108q-84 -146 -231 -146z" glyph-name="asciitilde"/>
<glyph horiz-adv-x="299" unicode="¡" d="M171 527q42 0 71.5 -30t29.5 -74q0 -43 -30 -73q-31 -29 -71 -29q-44 0 -75 29.5t-31 72.5q0 45 30.5 74.5t75.5 29.5zM70 -255l12 533h174l14 -533h-200z" glyph-name="exclamdown"/>
<glyph horiz-adv-x="631" unicode="¢" d="M375 382v-208q49 16 67 59l157 -93q-69 -130 -224 -149v-74h-93v74q-113 15 -180 94q-68 80 -68 194t68 193q67 78 180 95v70h93v-70q76 -9 134.5 -50.5t90.5 -112.5l-156 -81q-27 46 -69 59zM228 279q0 -69 54 -97v192q-54 -29 -54 -95z" glyph-name="cent"/>
<glyph horiz-adv-x="610" unicode="£" d="M510 289h-193q-7 -49 -42 -99h289v-190h-512v159q53 69 65 130h-74v148h54q-12 48 -12 88q0 98 76 162q77 65 179 65q77 0 142.5 -33t96.5 -84l-124 -131q-34 49 -91 49q-32 0 -52.5 -19.5t-20.5 -48.5q0 -17 9 -48h210v-148z" glyph-name="sterling"/>
<glyph horiz-adv-x="654" unicode="¤" d="M570 367q0 -65 -34 -117l81 -79l-83 -84l-85 84q-57 -30 -125 -30t-121 28l-83 -82l-83 84l78 77q-35 55 -35 119q0 71 41 130l-84 82l83 84l92 -91q52 24 112 24q65 0 116 -25l94 92l83 -84l-86 -85q39 -55 39 -127zM324 277q40 0 66.5 26.5t26.5 65.5q0 38 -26.5 64.5 t-66.5 26.5q-39 0 -65 -26.5t-26 -64.5q0 -39 26 -65.5t65 -26.5z" glyph-name="currency"/>
<glyph horiz-adv-x="755" unicode="¥" d="M495 739h236l-147 -290h56v-148h-131l-17 -32h148v-148h-159v-121h-208v121h-159v148h148l-16 32h-132v148h58l-146 290h236l115 -280z" glyph-name="yen"/>
<glyph horiz-adv-x="330" unicode="¦" d="M268 434h-206v413h206v-413zM62 234h206v-413h-206v413z" glyph-name="brokenbar"/>
<glyph horiz-adv-x="684" unicode="§" d="M650 216q0 -88 -67 -146q31 -46 31 -99q0 -94 -79 -158q-78 -66 -204 -66q-90 0 -169.5 37.5t-132.5 110.5l127 138q31 -40 79 -66.5t92 -26.5q26 0 41.5 9.5t15.5 23.5q0 17 -30 36q-12 9 -45 22q-7 4 -29.5 13.5t-27.5 11.5q-81 35 -132 77q-65 53 -65 136q0 85 67 148 q-32 47 -32 102q0 105 80 170q80 64 202 64q149 0 248 -108l-141 -135q-46 49 -103 49q-29 0 -47 -11.5t-18 -27.5q0 -18 31 -37l47 -22q31 -10 60 -23q82 -34 134 -76q67 -53 67 -146zM333 227l45 -20q39 -16 51 -22q6 9 6 18q0 13 -18 26t-64 35q-79 37 -86 41 q-7 -11 -7 -20q0 -27 73 -58z" glyph-name="section"/>
<glyph horiz-adv-x="526" unicode="¨" d="M40 715q0 43 30 72.5t73 29.5q44 0 73.5 -29.5t29.5 -72.5q0 -45 -29.5 -74t-73.5 -29t-73.5 29t-29.5 74zM280 715q0 43 30 72.5t73 29.5q44 0 73.5 -29.5t29.5 -72.5q0 -45 -29.5 -74t-73.5 -29t-73.5 29t-29.5 74z" glyph-name="dieresis"/>
<glyph horiz-adv-x="836" unicode="©" d="M33 369q0 157 113 270t272 113t272 -113t113 -270q0 -156 -113 -269q-112 -112 -272 -112t-272 112q-113 113 -113 269zM418 92q115 1 197 82t82 195q0 115 -82 196q-82 82 -197 82t-197 -82q-82 -81 -82 -196q0 -114 82 -195t197 -82zM422 162q-93 0 -151 58 q-59 59 -59 149q0 91 58 149q59 59 151 59q62 0 111 -31t76 -89l-101 -54q-36 51 -83 51q-37 0 -61 -24.5t-24 -60.5q0 -37 24 -61.5t60 -24.5q53 0 82 51l102 -62q-27 -52 -75.5 -81t-109.5 -29z" glyph-name="copyright"/>
<glyph horiz-adv-x="403" unicode="ª" d="M196 736q67 0 114 -38q46 -37 46 -125v-183h-108v31q-36 -38 -100 -38q-55 0 -85.5 30t-30.5 77q0 108 157 108h52q-7 37 -61 37q-56 0 -102 -21l-33 86q72 36 151 36zM175 472q26 0 46.5 15.5t20.5 39.5v3h-18t-19 -0.5t-9 -0.5q-53 -2 -53 -32q0 -25 32 -25z" glyph-name="ordfeminine"/>
<glyph horiz-adv-x="672" unicode="«" d="M363 88h-212l-128 203l129 203h211l-137 -203zM636 88h-212l-128 203l129 203h211l-137 -203z" glyph-name="guillemotleft"/>
<glyph horiz-adv-x="598" unicode="¬" d="M360 223h-306v180h484v-278h-178v98z" glyph-name="logicalnot"/>
<glyph horiz-adv-x="486" unicode="­" d="M434 237h-382v182h382v-182z" glyph-name="uni00AD"/>
<glyph horiz-adv-x="625" unicode="®" d="M118 716q82 80 195 80t195 -80q81 -79 81 -193q0 -115 -81 -194q-80 -79 -195 -79t-195 79q-81 79 -81 194q0 113 81 193zM177 385q55 -57 136 -57t136 57q55 58 55 138q0 81 -55 137q-55 58 -136 58t-136 -58q-55 -56 -55 -137q0 -80 55 -138zM420 564q0 -50 -43 -72 l46 -87h-79l-39 77h-22v-77h-74v241h126q37 0 61 -23t24 -59zM316 586h-33v-45h32q27 0 27 24q0 21 -26 21z" glyph-name="registered"/>
<glyph horiz-adv-x="432" unicode="¯" d="M392 627l-352 -2v169h352v-167z" glyph-name="overscore"/>
<glyph horiz-adv-x="369" unicode="°" d="M21 679q0 67 47 114q49 47 117 47q69 0 116 -47t47 -114q0 -66 -47 -113q-46 -46 -116 -46t-117 46q-47 47 -47 113zM237 679q0 21 -15.5 36t-36.5 15t-36.5 -15t-15.5 -36q0 -22 15.5 -37t36.5 -15t36.5 15t15.5 37z" glyph-name="degree"/>
<glyph horiz-adv-x="648" unicode="±" d="M602 503v-179h-188v-136h188v-175h-556v175h190v136h-190v179h190v189h178v-189h188z" glyph-name="plusminus"/>
<glyph horiz-adv-x="349" unicode="²" d="M260 668l-56 -56h114v-105h-285v96l128 128q34 34 34 53q0 9 -8 15.5t-21 6.5q-34 0 -98 -61l-55 88q70 79 161 79q62 0 103 -36t41 -92q0 -58 -58 -116z" glyph-name="uni00B2"/>
<glyph horiz-adv-x="336" unicode="³" d="M2 541l47 94q56 -25 92 -25q45 0 45 25q0 22 -44 22h-56v101h46q45 0 45 23q0 20 -36 20q-31 0 -72 -23l-57 86q62 48 145 48q59 0 101 -30t42 -74q0 -32 -20 -55t-53 -33v-2q40 -9 62.5 -34.5t22.5 -60.5q0 -55 -46 -89q-47 -33 -119 -33q-74 0 -145 40z" glyph-name="uni00B3"/>
<glyph horiz-adv-x="352" unicode="´" d="M217 620h-177l65 187h207z" glyph-name="acute"/>
<glyph horiz-adv-x="886" unicode="¶" d="M280 734h565v-200h-86v-737h-204v737h-68v-737h-204v452h-29q-101 0 -166 63q-63 64 -63 176q0 114 68 180t187 66z" glyph-name="paragraph"/>
<glyph horiz-adv-x="277" unicode="·" d="M141 -16q-45 0 -75.5 29.5t-30.5 74.5q0 43 31 72.5t75 29.5q41 0 71 -30t30 -72q0 -44 -29.5 -74t-71.5 -30z" glyph-name="middot"/>
<glyph horiz-adv-x="382" unicode="¸" d="M265 18l-28 -68q46 -6 75.5 -35.5t29.5 -72.5q0 -53 -44 -92q-43 -39 -121 -39q-67 0 -137 33l38 104q42 -21 81 -21q45 0 45 30q0 32 -59 32h-52l-7 33l39 98z" glyph-name="cedilla"/>
<glyph horiz-adv-x="291" unicode="¹" d="M1 791l158 112h90v-396h-121v231l-66 -45z" glyph-name="uni00B9"/>
<glyph horiz-adv-x="414" unicode="º" d="M335 431q-53 -50 -129 -50t-129 50q-51 49 -51 125t51 125q53 50 129 50t129 -50t53 -125t-53 -125zM207 496q29 0 46 16.5t17 43.5q0 26 -18 43.5t-46 17.5q-27 0 -44.5 -17.5t-17.5 -43.5t18 -43t45 -17z" glyph-name="ordmasculine"/>
<glyph horiz-adv-x="672" unicode="»" d="M376 291l-128 -203h-212l137 203l-137 203h211zM649 291l-128 -203h-212l137 203l-137 203h211z" glyph-name="guillemotright"/>
<glyph horiz-adv-x="916" unicode="¼" d="M273 347h-121v231l-66 -45l-61 98l158 112h90v-396zM105 0l578 739h150l-577 -739h-151zM831 174h40v-95h-40v-79h-113v79h-168l-25 73l205 244h101v-222zM718 258l-72 -84h72v84z" glyph-name="onequarter"/>
<glyph horiz-adv-x="898" unicode="½" d="M153 347v231l-66 -45l-61 98l158 112h90v-396h-121zM85 0l578 739h150l-577 -739h-151zM798 161l-56 -56h114v-105h-285v96l128 128q34 34 34 53q0 9 -8 15.5t-21 6.5q-34 0 -98 -61l-55 88q70 79 161 79q62 0 103 -36t41 -92q0 -58 -58 -116z" glyph-name="onehalf"/>
<glyph horiz-adv-x="860" unicode="¾" d="M157 450q45 0 45 25q0 22 -44 22h-56v101h46q45 0 45 23q0 20 -36 20q-31 0 -72 -23l-57 86q62 48 145 48q59 0 101 -30t42 -74q0 -32 -20 -55t-53 -33v-2q40 -9 62.5 -34.5t22.5 -60.5q0 -55 -46 -89q-47 -33 -119 -33q-74 0 -145 40l47 94q56 -25 92 -25zM85 0l578 739 h150l-577 -739h-151zM666 396h101v-222h40v-95h-40v-79h-113v79h-168l-25 73zM654 258l-72 -84h72v84z" glyph-name="threequarters"/>
<glyph horiz-adv-x="593" unicode="¿" d="M312 528q43 0 74 -29.5t31 -73.5q0 -43 -30.5 -73t-74.5 -30q-43 0 -72.5 30t-29.5 73q0 44 30 73.5t72 29.5zM219 285h193v-56q0 -90 -57 -147q-11 -11 -35 -31.5t-36 -32t-23 -29t-11 -34.5q0 -24 16.5 -38t41.5 -14q66 0 145 96l122 -135q-113 -146 -284 -146 q-122 0 -189 64q-68 65 -68 158q0 89 65 149q10 10 39.5 36t42 39t25.5 36t13 45v40z" glyph-name="questiondown"/>
<glyph horiz-adv-x="723" unicode="À" d="M388 998l70 -202h-191l-103 202h224zM721 0h-213l-35 121h-223l-37 -121h-213l263 739h203zM300 300h126l-62 204z" glyph-name="Agrave"/>
<glyph horiz-adv-x="723" unicode="Á" d="M342 997h224l-103 -202h-191zM721 0h-213l-35 121h-223l-37 -121h-213l263 739h203zM300 300h126l-62 204z" glyph-name="Aacute"/>
<glyph horiz-adv-x="723" unicode="Â" d="M425 795l-61 90l-60 -90h-188l170 206h162l171 -206h-194zM721 0h-213l-35 121h-223l-37 -121h-213l263 739h203zM300 300h126l-62 204z" glyph-name="Acircumflex"/>
<glyph horiz-adv-x="723" unicode="Ã" d="M302 834q-40 0 -73 -58l-129 65q41 77 82.5 111t100.5 34q38 0 79 -22t57 -22q30 0 63 53l130 -62q-68 -146 -166 -146q-31 0 -79 23q-45 24 -65 24zM721 0h-213l-35 121h-223l-37 -121h-213l263 739h203zM300 300h126l-62 204z" glyph-name="Atilde"/>
<glyph horiz-adv-x="723" unicode="Ä" d="M226 785q-47 0 -79 31.5t-32 79.5q0 46 32.5 78t78.5 32q47 0 79 -31.5t32 -78.5q0 -48 -31.5 -79.5t-79.5 -31.5zM485 785q-47 0 -79 31.5t-32 79.5q0 46 32.5 78t78.5 32q47 0 79 -32q33 -32 33 -78q0 -48 -32 -79.5t-80 -31.5zM721 0h-213l-35 121h-223l-37 -121h-213 l263 739h203zM300 300h126l-62 204z" glyph-name="Adieresis"/>
<glyph horiz-adv-x="723" unicode="Å" d="M200 934q0 66 48 113q49 47 117 47t117 -47q48 -47 48 -113q0 -64 -48 -111q-47 -46 -117 -46t-117 46q-48 47 -48 111zM365 988q-23 0 -38.5 -15t-15.5 -37t15.5 -38t38.5 -16q22 0 37.5 16t15.5 38t-15.5 37t-37.5 15zM721 0h-213l-35 121h-223l-37 -121h-213l263 739 h203zM300 300h126l-62 204z" glyph-name="Aring"/>
<glyph horiz-adv-x="1093" unicode="Æ" d="M1042 739v-192h-343v-82h318v-191h-318v-82h341v-192h-552v119h-222l-64 -119h-224l427 739h637zM488 536l-126 -237h126v237z" glyph-name="AE"/>
<glyph horiz-adv-x="750" unicode="Ç" d="M602 275l137 -133q-43 -56 -110.5 -96t-147.5 -52l-18 -44q46 -6 75.5 -35.5t29.5 -72.5q0 -53 -44 -92t-121 -39q-67 0 -137 33l38 104q42 -21 81 -21q45 0 45 30q0 32 -59 32h-52l-7 33l29 73q-137 23 -223 124t-86 248q0 168 110 276q110 109 271 109q98 0 180.5 -38 t135.5 -104l-130 -141q-80 84 -172 84q-75 0 -128 -53q-51 -52 -51 -131q0 -77 51 -130q52 -52 127 -52q100 0 176 88z" glyph-name="Ccedilla"/>
<glyph horiz-adv-x="671" unicode="È" d="M378 998l70 -202h-191l-103 202h224zM619 0h-551v739h553v-192h-343v-82h317v-191h-317v-82h341v-192z" glyph-name="Egrave"/>
<glyph horiz-adv-x="671" unicode="É" d="M433 795h-191l70 202h224zM619 0h-551v739h553v-192h-343v-82h317v-191h-317v-82h341v-192z" glyph-name="Eacute"/>
<glyph horiz-adv-x="671" unicode="Ê" d="M282 795h-188l170 206h162l171 -206h-194l-61 90zM619 0h-551v739h553v-192h-343v-82h317v-191h-317v-82h341v-192z" glyph-name="Ecircumflex"/>
<glyph horiz-adv-x="671" unicode="Ë" d="M216 785q-47 0 -79 31.5t-32 79.5q0 46 32.5 78t78.5 32q47 0 79 -31.5t32 -78.5q0 -48 -31.5 -79.5t-79.5 -31.5zM475 785q-47 0 -79 31.5t-32 79.5q0 46 32.5 78t78.5 32q47 0 79 -32q33 -32 33 -78q0 -48 -32 -79.5t-80 -31.5zM619 0h-551v739h553v-192h-343v-82h317 v-191h-317v-82h341v-192z" glyph-name="Edieresis"/>
<glyph horiz-adv-x="346" unicode="Ì" d="M205 999l70 -202h-191l-103 202h224zM68 0v739h210v-739h-210z" glyph-name="Igrave"/>
<glyph horiz-adv-x="346" unicode="Í" d="M263 797h-191l70 202h224zM68 0v739h210v-739h-210z" glyph-name="Iacute"/>
<glyph horiz-adv-x="346" unicode="Î" d="M112 797h-188l170 206h162l171 -206h-194l-61 90zM68 0v739h210v-739h-210z" glyph-name="Icircumflex"/>
<glyph horiz-adv-x="346" unicode="Ï" d="M44 787q-47 0 -79 31.5t-32 79.5q0 46 32.5 78t78.5 32q47 0 79 -31.5t32 -78.5q0 -48 -31.5 -79.5t-79.5 -31.5zM303 787q-47 0 -79 31.5t-32 79.5q0 46 32.5 78t78.5 32q47 0 79 -32q33 -32 33 -78q0 -48 -32 -79.5t-80 -31.5zM68 0v739h210v-739h-210z" glyph-name="Idieresis"/>
<glyph horiz-adv-x="796" unicode="Ð" d="M79 739h308q177 0 275 -99q99 -99 99 -271q0 -171 -100 -270q-99 -99 -276 -99h-306v290h-58v160h58v289zM287 200h108q73 0 111 50q39 50 39 120t-39 119q-38 50 -111 50h-108v-89h165v-160h-165v-90z" glyph-name="Eth"/>
<glyph horiz-adv-x="812" unicode="Ñ" d="M279 783l-129 65q41 77 82.5 111t100.5 34q38 0 79 -22t57 -22q30 0 63 53l130 -62q-68 -146 -166 -146q-31 0 -79 23q-45 24 -65 24q-40 0 -73 -58zM540 369v370h204v-739h-163l-309 365v-365h-204v739h156z" glyph-name="Ntilde"/>
<glyph unicode="Ò" d="M453 998l70 -202h-191l-103 202h224zM421 -12q-166 0 -278 110q-111 111 -111 272q0 162 111 271q111 111 277 111t277 -111q111 -109 111 -272q0 -161 -111 -271q-110 -110 -276 -110zM420 194q73 0 123 50q50 52 49 126q-1 77 -51 127q-49 49 -121 49t-122 -50 t-50 -126t50 -126t122 -50z" glyph-name="Ograve"/>
<glyph unicode="Ó" d="M518 795h-191l70 202h224zM421 -12q-166 0 -278 110q-111 111 -111 272q0 162 111 271q111 111 277 111t277 -111q111 -109 111 -272q0 -161 -111 -271q-110 -110 -276 -110zM420 194q73 0 123 50q50 52 49 126q-1 77 -51 127q-49 49 -121 49t-122 -50t-50 -126t50 -126 t122 -50z" glyph-name="Oacute"/>
<glyph unicode="Ô" d="M360 795h-188l170 206h162l171 -206h-194l-61 90zM421 -12q-166 0 -278 110q-111 111 -111 272q0 162 111 271q111 111 277 111t277 -111q111 -109 111 -272q0 -161 -111 -271q-110 -110 -276 -110zM420 194q73 0 123 50q50 52 49 126q-1 77 -51 127q-49 49 -121 49 t-122 -50t-50 -126t50 -126t122 -50z" glyph-name="Ocircumflex"/>
<glyph unicode="Õ" d="M294 776l-129 65q41 77 82.5 111t100.5 34q38 0 79 -22t57 -22q30 0 63 53l130 -62q-68 -146 -166 -146q-31 0 -79 23q-45 24 -65 24q-40 0 -73 -58zM421 -12q-166 0 -278 110q-111 111 -111 272q0 162 111 271q111 111 277 111t277 -111q111 -109 111 -272 q0 -161 -111 -271q-110 -110 -276 -110zM420 194q73 0 123 50q50 52 49 126q-1 77 -51 127q-49 49 -121 49t-122 -50t-50 -126t50 -126t122 -50z" glyph-name="Otilde"/>
<glyph unicode="Ö" d="M291 785q-47 0 -79 31.5t-32 79.5q0 46 32.5 78t78.5 32q47 0 79 -31.5t32 -78.5q0 -48 -31.5 -79.5t-79.5 -31.5zM550 785q-47 0 -79 31.5t-32 79.5q0 46 32.5 78t78.5 32q47 0 79 -32q33 -32 33 -78q0 -48 -32 -79.5t-80 -31.5zM421 -12q-166 0 -278 110 q-111 111 -111 272q0 162 111 271q111 111 277 111t277 -111q111 -109 111 -272q0 -161 -111 -271q-110 -110 -276 -110zM420 194q73 0 123 50q50 52 49 126q-1 77 -51 127q-49 49 -121 49t-122 -50t-50 -126t50 -126t122 -50z" glyph-name="Odieresis"/>
<glyph horiz-adv-x="602" unicode="×" d="M446 607l123 -118l-149 -150l148 -147l-118 -125l-150 151l-150 -151l-118 125l147 147l-146 146l117 123l149 -148z" glyph-name="multiply"/>
<glyph unicode="Ø" d="M771 731l-68 -96q105 -109 105 -266q0 -161 -111 -271q-110 -110 -276 -110q-80 0 -153 29l-64 -92l-112 76l62 87q-122 113 -122 282q0 162 111 271q111 111 277 111q94 0 175 -39l66 94zM248 370q0 -58 31 -104l192 272q-27 8 -51 8q-72 0 -122 -50t-50 -126zM420 194 q73 0 123 50q50 52 49 126q0 42 -18 81l-180 -255q24 -2 26 -2z" glyph-name="Oslash"/>
<glyph horiz-adv-x="748" unicode="Ù" d="M408 998l70 -202h-191l-103 202h224zM374 -13q-120 0 -214 67q-100 77 -100 242v443h210v-443q0 -53 28.5 -81t75.5 -28q46 0 75 28t29 81v443h210v-443q0 -83 -27 -145t-73 -96.5t-99.5 -51t-114.5 -16.5z" glyph-name="Ugrave"/>
<glyph horiz-adv-x="748" unicode="Ú" d="M465 795h-191l70 202h224zM374 -13q-120 0 -214 67q-100 77 -100 242v443h210v-443q0 -53 28.5 -81t75.5 -28q46 0 75 28t29 81v443h210v-443q0 -83 -27 -145t-73 -96.5t-99.5 -51t-114.5 -16.5z" glyph-name="Uacute"/>
<glyph horiz-adv-x="748" unicode="Û" d="M313 795h-188l170 206h162l171 -206h-194l-61 90zM374 -13q-120 0 -214 67q-100 77 -100 242v443h210v-443q0 -53 28.5 -81t75.5 -28q46 0 75 28t29 81v443h210v-443q0 -83 -27 -145t-73 -96.5t-99.5 -51t-114.5 -16.5z" glyph-name="Ucircumflex"/>
<glyph horiz-adv-x="748" unicode="Ü" d="M245 785q-47 0 -79 31.5t-32 79.5q0 46 32.5 78t78.5 32q47 0 79 -31.5t32 -78.5q0 -48 -31.5 -79.5t-79.5 -31.5zM504 785q-47 0 -79 31.5t-32 79.5q0 46 32.5 78t78.5 32q47 0 79 -32q33 -32 33 -78q0 -48 -32 -79.5t-80 -31.5zM374 -13q-120 0 -214 67 q-100 77 -100 242v443h210v-443q0 -53 28.5 -81t75.5 -28q46 0 75 28t29 81v443h210v-443q0 -83 -27 -145t-73 -96.5t-99.5 -51t-114.5 -16.5z" glyph-name="Udieresis"/>
<glyph horiz-adv-x="729" unicode="Ý" d="M456 795h-191l70 202h224zM482 739h246l-260 -495v-244h-208v244l-257 495h246l115 -261z" glyph-name="Yacute"/>
<glyph horiz-adv-x="689" unicode="Þ" d="M276 632h106q73 0 128.5 -21.5t87.5 -59t47.5 -82t15.5 -95.5q0 -109 -72 -181q-71 -71 -221 -71h-92v-122h-208v739h208v-107zM276 311h98q34 0 52.5 18.5t18.5 46.5t-18.5 46t-50.5 18h-100v-129z" glyph-name="Thorn"/>
<glyph horiz-adv-x="695" unicode="ß" d="M534 398q62 -18 98 -71.5t36 -122.5q0 -94 -69 -159q-67 -63 -182 -63q-74 0 -132 23l35 162q30 -12 66 -12q37 0 60.5 17.5t23.5 47.5q0 75 -147 75v151q47 0 75 23.5t28 57.5q0 29 -20.5 48.5t-55.5 19.5q-48 0 -75 -36.5t-27 -99.5v-636h-197v651q0 145 75 222 q33 33 76 54q76 36 157 36q116 0 192 -67q78 -66 78 -161q0 -107 -95 -160z" glyph-name="germandbls"/>
<glyph horiz-adv-x="695" unicode="à" d="M373 819l65 -187h-177l-95 187h207zM455 515v41h185v-556h-185v39q-68 -53 -156 -53q-119 0 -195 84q-76 85 -76 210q0 124 77 207t194 83q92 0 156 -55zM337 165q48 0 81 33q33 34 33 81q0 46 -33 79t-81 33t-80.5 -33t-32.5 -79q0 -47 33 -81q33 -33 80 -33z" glyph-name="agrave"/>
<glyph horiz-adv-x="695" unicode="á" d="M321 818h207l-95 -187h-177zM455 515v41h185v-556h-185v39q-68 -53 -156 -53q-119 0 -195 84q-76 85 -76 210q0 124 77 207t194 83q92 0 156 -55zM337 165q48 0 81 33q33 34 33 81q0 46 -33 79t-81 33t-80.5 -33t-32.5 -79q0 -47 33 -81q33 -33 80 -33z" glyph-name="aacute"/>
<glyph horiz-adv-x="695" unicode="â" d="M403 631l-56 83l-56 -83h-174l158 191h150l158 -191h-180zM455 515v41h185v-556h-185v39q-68 -53 -156 -53q-119 0 -195 84q-76 85 -76 210q0 124 77 207t194 83q92 0 156 -55zM337 165q48 0 81 33q33 34 33 81q0 46 -33 79t-81 33t-80.5 -33t-32.5 -79q0 -47 33 -81 q33 -33 80 -33z" glyph-name="acircumflex"/>
<glyph horiz-adv-x="695" unicode="ã" d="M303 666q-38 0 -69 -55l-123 62q39 74 78.5 106t95.5 32q35 0 76 -21t54 -21q15 0 28 11t32 40l124 -59q-63 -139 -158 -139q-33 0 -76 22t-62 22zM455 515v41h185v-556h-185v39q-68 -53 -156 -53q-119 0 -195 84q-76 85 -76 210q0 124 77 207t194 83q92 0 156 -55z M337 165q48 0 81 33q33 34 33 81q0 46 -33 79t-81 33t-80.5 -33t-32.5 -79q0 -47 33 -81q33 -33 80 -33z" glyph-name="atilde"/>
<glyph horiz-adv-x="695" unicode="ä" d="M133 719q0 43 30 72.5t73 29.5q44 0 73.5 -29.5t29.5 -72.5q0 -45 -29.5 -74t-73.5 -29t-73.5 29t-29.5 74zM373 719q0 43 30 72.5t73 29.5q44 0 73.5 -29.5t29.5 -72.5q0 -45 -29.5 -74t-73.5 -29t-73.5 29t-29.5 74zM455 515v41h185v-556h-185v39q-68 -53 -156 -53 q-119 0 -195 84q-76 85 -76 210q0 124 77 207t194 83q92 0 156 -55zM337 165q48 0 81 33q33 34 33 81q0 46 -33 79t-81 33t-80.5 -33t-32.5 -79q0 -47 33 -81q33 -33 80 -33z" glyph-name="adieresis"/>
<glyph horiz-adv-x="695" unicode="å" d="M197 759q0 61 44 105q44 43 109 43t108 -43q45 -44 45 -105t-45 -104q-44 -42 -108 -42t-109 42q-44 44 -44 104zM350 809q-21 0 -35.5 -14t-14.5 -34q0 -21 14.5 -35.5t35.5 -14.5q20 0 34.5 14.5t14.5 35.5q0 20 -14.5 34t-34.5 14zM455 515v41h185v-556h-185v39 q-68 -53 -156 -53q-119 0 -195 84q-76 85 -76 210q0 124 77 207t194 83q92 0 156 -55zM337 165q48 0 81 33q33 34 33 81q0 46 -33 79t-81 33t-80.5 -33t-32.5 -79q0 -47 33 -81q33 -33 80 -33z" glyph-name="aring"/>
<glyph horiz-adv-x="963" unicode="æ" d="M935 302q0 -52 -7 -81l-367 2q29 -81 116 -81q73 0 147 51l81 -125q-110 -80 -241 -80q-144 0 -219 90q-78 -90 -211 -90q-98 0 -154 50t-56 130q0 90 72 135t201 45h74q-22 70 -113 70q-75 0 -157 -46l-55 133q110 65 234 65q123 0 187 -76q79 76 197 76q115 0 193 -69 t78 -199zM666 418q-77 0 -104 -70h204q-10 33 -36.5 51.5t-63.5 18.5zM261 142q36 0 66.5 20t43.5 62h-67q-99 0 -99 -42q0 -40 56 -40z" glyph-name="ae"/>
<glyph horiz-adv-x="609" unicode="ç" d="M330 168q35 0 64 18t42 47l157 -93q-65 -122 -209 -147l-18 -43q46 -6 75.5 -35.5t29.5 -72.5q0 -53 -44 -92t-121 -39q-66 0 -137 33l38 104q42 -21 81 -21q45 0 45 30q0 32 -59 32h-52l-7 33l30 75q-100 23 -158 99q-59 77 -59 183q0 128 82 209q82 82 216 82 q90 0 161 -42.5t107 -123.5l-156 -81q-39 65 -107 65q-48 0 -78.5 -31t-30.5 -78q0 -48 30.5 -79.5t77.5 -31.5z" glyph-name="ccedilla"/>
<glyph horiz-adv-x="645" unicode="è" d="M362 818l65 -187h-177l-95 187h207zM618 293q0 -35 -6 -77h-385q31 -70 121 -70q88 0 161 48l76 -130q-107 -76 -247 -76q-148 0 -229 83q-81 84 -81 207q0 126 83 209q85 83 218 83q125 0 207 -75q82 -73 82 -202zM329 416q-78 0 -105 -69h207q-25 69 -102 69z" glyph-name="egrave"/>
<glyph horiz-adv-x="645" unicode="é" d="M290 818h207l-95 -187h-177zM618 293q0 -35 -6 -77h-385q31 -70 121 -70q88 0 161 48l76 -130q-107 -76 -247 -76q-148 0 -229 83q-81 84 -81 207q0 126 83 209q85 83 218 83q125 0 207 -75q82 -73 82 -202zM329 416q-78 0 -105 -69h207q-25 69 -102 69z" glyph-name="eacute"/>
<glyph horiz-adv-x="645" unicode="ê" d="M382 635l-56 83l-56 -83h-174l158 191h150l158 -191h-180zM618 293q0 -35 -6 -77h-385q31 -70 121 -70q88 0 161 48l76 -130q-107 -76 -247 -76q-148 0 -229 83q-81 84 -81 207q0 126 83 209q85 83 218 83q125 0 207 -75q82 -73 82 -202zM329 416q-78 0 -105 -69h207 q-25 69 -102 69z" glyph-name="ecircumflex"/>
<glyph horiz-adv-x="645" unicode="ë" d="M115 712q0 43 30 72.5t73 29.5q44 0 73.5 -29.5t29.5 -72.5q0 -45 -29.5 -74t-73.5 -29t-73.5 29t-29.5 74zM355 712q0 43 30 72.5t73 29.5q44 0 73.5 -29.5t29.5 -72.5q0 -45 -29.5 -74t-73.5 -29t-73.5 29t-29.5 74zM618 293q0 -35 -6 -77h-385q31 -70 121 -70 q88 0 161 48l76 -130q-107 -76 -247 -76q-148 0 -229 83q-81 84 -81 207q0 126 83 209q85 83 218 83q125 0 207 -75q82 -73 82 -202zM329 416q-78 0 -105 -69h207q-25 69 -102 69z" glyph-name="edieresis"/>
<glyph horiz-adv-x="304" unicode="ì" d="M181 818l65 -187h-177l-95 187h207zM253 556v-556h-197v556h197z" glyph-name="igrave"/>
<glyph horiz-adv-x="294" unicode="í" d="M233 631h-177l65 187h207zM248 556v-556h-197v556h197z" glyph-name="iacute"/>
<glyph horiz-adv-x="299" unicode="î" d="M97 633h-174l158 191h150l158 -191h-180l-56 83zM253 556v-556h-197v556h197z" glyph-name="icircumflex"/>
<glyph horiz-adv-x="299" unicode="ï" d="M-69 718q0 43 30 72.5t73 29.5q44 0 73.5 -29.5t29.5 -72.5q0 -45 -29.5 -74t-73.5 -29t-73.5 29t-29.5 74zM171 718q0 43 30 72.5t73 29.5q44 0 73.5 -29.5t29.5 -72.5q0 -45 -29.5 -74t-73.5 -29t-73.5 29t-29.5 74zM253 556v-556h-197v556h197z" glyph-name="idieresis"/>
<glyph horiz-adv-x="654" unicode="ð" d="M552 748l-66 -50q136 -173 136 -355q0 -152 -90 -254q-90 -101 -231 -101q-123 0 -200 77q-75 78 -75 189q0 110 77 181q77 70 172 70q85 0 142 -65q-28 79 -81 145l-68 -52l-66 79l63 47q-25 23 -91 79l140 131q48 -36 105 -93l69 52zM413 260q0 40 -27.5 67t-66.5 27 q-40 2 -67.5 -28.5t-27.5 -67.5t26 -68q19 -21 48.5 -25.5t55.5 6t43.5 35t15.5 54.5z" glyph-name="eth"/>
<glyph horiz-adv-x="675" unicode="ñ" d="M223 616l-123 62q39 74 78.5 106t95.5 32q36 0 76 -21t54 -21q15 0 28 11t32 40l124 -59q-63 -139 -158 -139q-33 0 -76 22t-62 22q-38 0 -69 -55zM247 0h-196v556h192v-77q20 39 67 65.5t107 26.5q89 0 150 -60q63 -58 63 -169v-342h-197v291q0 48 -23 74.5t-64 26.5 q-44 0 -71.5 -29.5t-27.5 -77.5v-285z" glyph-name="ntilde"/>
<glyph horiz-adv-x="665" unicode="ò" d="M363 818l65 -187h-177l-95 187h207zM553 69q-85 -85 -221 -85t-221 85q-84 85 -84 209t84 209q85 85 221 85t221 -85t85 -209t-85 -209zM332 168q47 0 78.5 31.5t31.5 79.5q0 46 -31.5 77.5t-78.5 31.5q-46 0 -77.5 -31.5t-31.5 -77.5q0 -48 31.5 -79.5t77.5 -31.5z" glyph-name="ograve"/>
<glyph horiz-adv-x="665" unicode="ó" d="M413 631h-177l65 187h207zM553 69q-85 -85 -221 -85t-221 85q-84 85 -84 209t84 209q85 85 221 85t221 -85t85 -209t-85 -209zM332 168q47 0 78.5 31.5t31.5 79.5q0 46 -31.5 77.5t-78.5 31.5q-46 0 -77.5 -31.5t-31.5 -77.5q0 -48 31.5 -79.5t77.5 -31.5z" glyph-name="oacute"/>
<glyph horiz-adv-x="665" unicode="ô" d="M272 631h-174l158 191h150l158 -191h-180l-56 83zM553 69q-85 -85 -221 -85t-221 85q-84 85 -84 209t84 209q85 85 221 85t221 -85t85 -209t-85 -209zM332 168q47 0 78.5 31.5t31.5 79.5q0 46 -31.5 77.5t-78.5 31.5q-46 0 -77.5 -31.5t-31.5 -77.5q0 -48 31.5 -79.5 t77.5 -31.5z" glyph-name="ocircumflex"/>
<glyph horiz-adv-x="665" unicode="õ" d="M215 614l-123 62q39 74 78.5 106t95.5 32q36 0 76 -21t54 -21q15 0 28 11t32 40l124 -59q-63 -139 -158 -139q-33 0 -76 22t-62 22q-38 0 -69 -55zM553 69q-85 -85 -221 -85t-221 85q-84 85 -84 209t84 209q85 85 221 85t221 -85t85 -209t-85 -209zM332 168 q47 0 78.5 31.5t31.5 79.5q0 46 -31.5 77.5t-78.5 31.5q-46 0 -77.5 -31.5t-31.5 -77.5q0 -48 31.5 -79.5t77.5 -31.5z" glyph-name="otilde"/>
<glyph horiz-adv-x="665" unicode="ö" d="M108 719q0 43 30 72.5t73 29.5q44 0 73.5 -29.5t29.5 -72.5q0 -45 -29.5 -74t-73.5 -29t-73.5 29t-29.5 74zM348 719q0 43 30 72.5t73 29.5q44 0 73.5 -29.5t29.5 -72.5q0 -45 -29.5 -74t-73.5 -29t-73.5 29t-29.5 74zM553 69q-85 -85 -221 -85t-221 85q-84 85 -84 209 t84 209q85 85 221 85t221 -85t85 -209t-85 -209zM332 168q47 0 78.5 31.5t31.5 79.5q0 46 -31.5 77.5t-78.5 31.5q-46 0 -77.5 -31.5t-31.5 -77.5q0 -48 31.5 -79.5t77.5 -31.5z" glyph-name="odieresis"/>
<glyph horiz-adv-x="556" unicode="÷" d="M278 468q-40 0 -67.5 26.5t-27.5 66.5q0 38 27.5 65t67.5 27q38 0 64.5 -27t26.5 -65q0 -40 -26.5 -66.5t-64.5 -26.5zM525 279h-494v160h494v-160zM279 66q-40 0 -67.5 26.5t-27.5 66.5q0 38 27.5 65t67.5 27q38 0 64.5 -27t26.5 -65q0 -40 -26.5 -66.5t-64.5 -26.5z " glyph-name="divide"/>
<glyph horiz-adv-x="665" unicode="ø" d="M588 570l-49 -70q99 -86 99 -222q0 -124 -85 -209t-221 -85q-74 0 -131 25l-55 -79l-77 53l53 76q-95 84 -95 219q0 124 84 209q85 85 221 85q68 0 126 -23l50 72zM223 279q0 -29 13 -54l111 162q-3 1 -15 1q-46 0 -77.5 -31.5t-31.5 -77.5zM332 168q47 0 78.5 31.5 t31.5 79.5q0 32 -16 57l-114 -166q16 -2 20 -2z" glyph-name="oslash"/>
<glyph horiz-adv-x="637" unicode="ù" d="M345 818l65 -187h-177l-95 187h207zM318 -14q-129 0 -201.5 68t-72.5 193v309h197v-312q0 -35 21 -57t56 -22q36 0 57 21.5t21 57.5v312h197v-309q0 -125 -72.5 -193t-202.5 -68z" glyph-name="ugrave"/>
<glyph horiz-adv-x="637" unicode="ú" d="M401 631h-177l65 187h207zM318 -14q-129 0 -201.5 68t-72.5 193v309h197v-312q0 -35 21 -57t56 -22q36 0 57 21.5t21 57.5v312h197v-309q0 -125 -72.5 -193t-202.5 -68z" glyph-name="uacute"/>
<glyph horiz-adv-x="637" unicode="û" d="M262 636h-174l158 191h150l158 -191h-180l-56 83zM318 -14q-129 0 -201.5 68t-72.5 193v309h197v-312q0 -35 21 -57t56 -22q36 0 57 21.5t21 57.5v312h197v-309q0 -125 -72.5 -193t-202.5 -68z" glyph-name="ucircumflex"/>
<glyph horiz-adv-x="637" unicode="ü" d="M96 717q0 43 30 72.5t73 29.5q44 0 73.5 -29.5t29.5 -72.5q0 -45 -29.5 -74t-73.5 -29t-73.5 29t-29.5 74zM336 717q0 43 30 72.5t73 29.5q44 0 73.5 -29.5t29.5 -72.5q0 -45 -29.5 -74t-73.5 -29t-73.5 29t-29.5 74zM318 -14q-129 0 -201.5 68t-72.5 193v309h197v-312 q0 -35 21 -57t56 -22q36 0 57 21.5t21 57.5v312h197v-309q0 -125 -72.5 -193t-202.5 -68z" glyph-name="udieresis"/>
<glyph horiz-adv-x="653" unicode="ý" d="M298 818h207l-95 -187h-177zM339 261l100 295h212l-212 -542q-49 -127 -116.5 -189t-169.5 -62q-75 0 -128 34l40 160q38 -20 74 -20q65 0 104 74l-241 545h226z" glyph-name="yacute"/>
<glyph horiz-adv-x="698" unicode="þ" d="M395 570q117 0 196 -85q80 -86 80 -206q0 -121 -80 -207t-193 -86q-86 0 -151 57v-272h-196v993h193v-249q64 55 151 55zM355 166q48 0 79.5 32t31.5 79t-31.5 79t-79.5 32q-47 0 -78.5 -32t-31.5 -79t31.5 -79t78.5 -32z" glyph-name="thorn"/>
</font>
</defs>
</svg>
