<?xml version="1.0" standalone="no"?>
<!DOCTYPE svg PUBLIC "-//W3C//DTD SVG 1.1//EN" "http://www.w3.org/Graphics/SVG/1.1/DTD/svg11.dtd" >
<svg>
<metadata>
Created by FontForge 20090622 at Sat Aug 26 09:19:40 2017
 By deploy user
Copyright &#194;&#169; 2017 by Kastelov. All rights reserved.
</metadata>
<defs>
<font id="Axiforma-SemiBold" horiz-adv-x="263" >
  <font-face 
    font-family="Axiforma SemiBold"
    font-weight="600"
    font-stretch="normal"
    units-per-em="1000"
    panose-1="0 0 7 0 0 0 0 0 0 0"
    ascent="772"
    descent="-228"
    x-height="542"
    cap-height="739"
    bbox="-447 -342 1285 1036"
    underline-thickness="50"
    underline-position="-50"
    unicode-range="U+000D-U+25CA"
  />
<missing-glyph horiz-adv-x="130" 
 />
    <glyph glyph-name="f_b" unicode="fb" horiz-adv-x="1099" 
d="M114 543v17q0 107 52 163.5t145 56.5q74 0 139 -35l-33 -102q-47 21 -82 21q-91 0 -91 -98v-23h170v-110h-170v-433h-130v433h-86v110h86zM793 556q116 0 192 -82q78 -82 78 -203t-78 -203q-76 -81 -193 -81q-105 0 -174 85v-72h-128v760h130v-287q69 83 173 83zM930 272
q0 69 -44 116q-44 48 -113 48q-71 0 -114 -48q-44 -47 -44 -116t44 -118q44 -47 114 -47q69 0 113 47q44 49 44 118z" />
    <glyph glyph-name="f_f" unicode="ff" horiz-adv-x="822" 
d="M746 664q-50 0 -76.5 -25.5t-26.5 -73.5v-22h170v-110h-170v-433h-130v433h-269v-433h-130v433h-86v110h86v24q0 103 62.5 158.5t169.5 54.5q82 0 162 -41l-42 -102q-62 27 -104 27q-55 0 -86.5 -25.5t-31.5 -72.5v-23h269v24q0 101 58.5 157t156.5 56q74 0 144 -37
l-42 -101q-50 22 -84 22z" />
    <glyph glyph-name="f_f_i" unicode="ffi" horiz-adv-x="1097" 
d="M734 664q-91 0 -91 -98v-23h191v-110h-191v-433h-130v433h-269v-433h-130v433h-86v110h86v24q0 102 62.5 157.5t167.5 55.5q80 0 165 -41l-42 -102q-67 27 -108 27q-53 0 -84 -26t-31 -73v-22h269v17q0 106 53.5 163t147.5 57q74 0 139 -35l-37 -102q-46 21 -82 21z
M1025 632q-24 -23 -59 -23t-59 23q-24 24 -24 59t24 58q24 24 59 24t59 -24q24 -23 24 -58t-24 -59zM1030 0h-130v543h130v-543z" />
    <glyph glyph-name="f_f_j" unicode="ffj" horiz-adv-x="1096" 
d="M823 543v-110h-180v-433h-130v433h-269v-433h-130v433h-86v110h86v24q0 102 62.5 157.5t167.5 55.5q85 0 162 -41l-39 -102q-64 27 -107 27q-54 0 -85 -26t-31 -73v-22h269v17q0 106 53.5 163t147.5 57q74 0 139 -35l-38 -102q-45 21 -81 21q-91 0 -91 -98v-23h180z
M1024 632q-23 -23 -58 -23t-60 23q-24 24 -24 59t24 58q25 24 60 24t58 -24q24 -23 24 -58t-24 -59zM900 -8v551h130v-555q0 -106 -54 -162.5t-147 -56.5q-77 0 -118 26l25 104q45 -15 72 -15q45 0 68.5 28t23.5 80z" />
    <glyph glyph-name="f_h" unicode="fh" horiz-adv-x="1060" 
d="M114 543v17q0 107 52.5 163.5t145.5 56.5q73 0 138 -35l-33 -102q-47 21 -82 21q-91 0 -91 -98v-23h170v-110h-170v-433h-130v433h-86v110h86zM789 557q87 0 149 -59t62 -167v-331h-130v296q0 67 -32 104.5t-87 37.5q-58 0 -94.5 -40t-36.5 -104v-294h-130v760h127v-287
q24 38 70 61t102 23z" />
    <glyph glyph-name="f_i" unicode="fi" horiz-adv-x="698" 
d="M114 543v17q0 106 53.5 163t147.5 57q74 0 139 -35l-37 -102q-47 21 -82 21q-91 0 -91 -98v-23h170v-110h-170v-433h-130v433h-86v110h86zM484 691q0 34 24 57.5t59 23.5t58.5 -23.5t23.5 -57.5q0 -36 -23.5 -59.5t-58.5 -23.5t-59 23.5t-24 59.5zM631 0h-130v543h130
v-543z" />
    <glyph glyph-name="f_j" unicode="fj" horiz-adv-x="698" 
d="M423 543v-110h-179v-433h-130v433h-86v110h86v17q0 106 53.5 163t147.5 57q74 0 139 -35l-37 -102q-47 21 -82 21q-91 0 -91 -98v-23h179zM484 691q0 34 24 57.5t59 23.5t58.5 -23.5t23.5 -57.5q0 -36 -23.5 -59.5t-58.5 -23.5t-59 23.5t-24 59.5zM501 -8v551h130v-555
q0 -106 -54 -162.5t-147 -56.5q-77 0 -118 26l25 104q45 -15 72 -15q45 0 68.5 28t23.5 80z" />
    <glyph glyph-name="f_k" unicode="fk" horiz-adv-x="998" 
d="M114 543v17q0 107 52 163.5t145 56.5q74 0 139 -35l-33 -102q-47 21 -82 21q-91 0 -91 -98v-23h170v-110h-170v-433h-130v433h-86v110h86zM1008 0h-162l-186 237l-40 -36v-201h-130v760h130v-411l209 194h166l-245 -224z" />
    <glyph glyph-name="f_l" unicode="fl" horiz-adv-x="686" 
d="M114 543v17q0 107 51.5 163.5t145.5 56.5q72 0 137 -35l-31 -102q-47 21 -82 21q-91 0 -91 -98v-23h170v-110h-170v-433h-130v433h-86v110h86zM490 0v760h130v-760h-130z" />
    <glyph glyph-name=".notdef" horiz-adv-x="130" 
 />
    <glyph glyph-name=".null" horiz-adv-x="0" 
 />
    <glyph glyph-name="nonmarkingreturn" horiz-adv-x="333" 
 />
    <glyph glyph-name="CR.001" horiz-adv-x="130" 
 />
    <glyph glyph-name="CR.001" horiz-adv-x="130" 
 />
    <glyph glyph-name="CR" unicode="&#xd;" horiz-adv-x="333" 
 />
    <glyph glyph-name="space" unicode=" " horiz-adv-x="247" 
 />
    <glyph glyph-name="exclam" unicode="!" horiz-adv-x="309" 
d="M217 199h-122l-7 552h138zM158 -12q-33 0 -56 22.5t-23 55.5q0 32 23 54t56 22q32 0 54 -22t22 -54q0 -33 -22 -55.5t-54 -22.5z" />
    <glyph glyph-name="quotedbl" unicode="&#x22;" horiz-adv-x="533" 
d="M163 432h-125l87 305h152zM404 432h-125l87 305h152z" />
    <glyph glyph-name="numbersign" unicode="#" horiz-adv-x="736" 
d="M703 560l-21 -109h-103l-29 -155h103l-21 -109h-103l-35 -187h-127l36 187h-139l-37 -187h-128l38 187h-104l21 109h105l32 155h-107l21 109h108l36 179h123l-35 -179h139l35 179h123l-34 -179h103zM285 296h140l30 155h-140z" />
    <glyph glyph-name="dollar" unicode="$" horiz-adv-x="585" 
d="M545 210q0 -83 -51 -140.5t-136 -75.5v-106h-114v102q-145 23 -215 149l94 86q27 -51 71.5 -79.5t95.5 -28.5q48 0 76.5 24t28.5 61q0 50 -67 83l-65 32q-64 31 -90 49q-105 69 -105 177q0 80 50 135t132 69v96h114v-97q94 -16 166 -96l-78 -96q-71 71 -148 71
q-42 0 -67.5 -21t-25.5 -56q0 -25 17 -43.5t54 -40.5q16 -10 75 -39q60 -29 87 -45q101 -65 101 -170z" />
    <glyph glyph-name="percent" unicode="%" horiz-adv-x="898" 
d="M356 439q-56 -53 -134 -53q-79 0 -135 53q-55 52 -55 129q0 76 55 130t135 54q78 0 134 -54q55 -54 55 -130q0 -77 -55 -129zM240 0h-128l540 739h129zM222 478q37 0 64 26t27 64t-27 64.5t-64 26.5q-39 0 -65 -26t-26 -65t26 -64.5t65 -25.5zM486 170q0 77 55 129
q55 54 135 54q78 0 134 -54q56 -53 56 -129q0 -75 -56 -129q-56 -53 -134 -53q-79 0 -135 53q-55 54 -55 129zM676 80q39 0 64 25q27 26 27 65t-27 65q-18 21 -46 25.5t-52.5 -5.5t-41.5 -33t-15 -52q0 -38 27 -64t64 -26z" />
    <glyph glyph-name="ampersand" unicode="&#x26;" horiz-adv-x="702" 
d="M590 162l108 -96l-72 -80l-109 98q-104 -94 -231 -94q-109 0 -180 62q-70 63 -70 155q0 133 132 212q-43 64 -43 140q0 77 58 134q58 58 148 58q75 0 130 -47q54 -46 54 -115q0 -77 -60 -123q-33 -26 -55 -39q-20 -12 -68 -36l42 -38l136 -120q30 35 75 102l82 -67
q-32 -49 -77 -106zM326 653q-39 0 -64 -27.5t-25 -68.5q0 -47 26 -88l42 20q20 10 35 19q23 14 32 23q26 28 26 54q0 28 -21 48t-51 20zM296 101q73 0 139 57l-151 137l-47 43q-71 -53 -71 -121q0 -51 36.5 -83.5t93.5 -32.5z" />
    <glyph glyph-name="quotesingle" unicode="'" horiz-adv-x="290" 
d="M162 432h-125l87 305h152z" />
    <glyph glyph-name="parenleft" unicode="(" horiz-adv-x="412" 
d="M406 -119l-59 -101q-150 78 -230.5 211.5t-80.5 302.5q0 171 80.5 303.5t233.5 211.5l56 -102q-228 -147 -228 -413q0 -258 228 -413z" />
    <glyph glyph-name="parenright" unicode=")" horiz-adv-x="412" 
d="M64 -220l-58 101q227 155 227 413q0 267 -228 413l56 102q153 -79 233.5 -211.5t80.5 -303.5q0 -169 -80.5 -302.5t-230.5 -211.5z" />
    <glyph glyph-name="asterisk" unicode="*" horiz-adv-x="484" 
d="M243 488l-95 -116l-73 63l92 106l-132 57l40 88l122 -60l-4 143h99l-4 -143l123 60l38 -87l-131 -58l92 -106l-74 -63z" />
    <glyph glyph-name="plus" unicode="+" horiz-adv-x="566" 
d="M345 409h188v-122h-188v-189l-122 -2v191h-190v122h190v189h122v-189z" />
    <glyph glyph-name="comma" unicode="," horiz-adv-x="257" 
d="M127 136q36 0 60 -25.5t24 -64.5q0 -106 -147 -200l-39 53l40 32q36 27 53 58h-3q-28 0 -48 20.5t-20 49.5q0 33 23.5 55t56.5 22z" />
    <glyph glyph-name="hyphen" unicode="-" horiz-adv-x="528" 
d="M466 216h-405v122h405v-122z" />
    <glyph glyph-name="period" unicode="." horiz-adv-x="244" 
d="M123 -16q-33 0 -56 22.5t-23 55.5q0 32 23 54t56 22q32 0 54 -22t22 -54q0 -33 -22 -55.5t-54 -22.5z" />
    <glyph glyph-name="slash" unicode="/" horiz-adv-x="656" 
d="M158 -123h-140l479 948h140z" />
    <glyph glyph-name="zero" unicode="0" horiz-adv-x="686" 
d="M343 -12q-99 0 -168 55.5t-99 139.5t-30 187t30 187t99 139.5t168 55.5q60 0 110 -21t84 -56.5t57.5 -84.5t34.5 -104t11 -116t-11 -116t-34.5 -104t-57.5 -84.5t-84 -56.5t-110 -21zM343 116q81 0 120 70q40 70 40 184q0 113 -40 183q-41 71 -120 71t-120 -71
q-40 -70 -40 -183q0 -114 40 -184t120 -70z" />
    <glyph glyph-name="one" unicode="1" horiz-adv-x="410" 
d="M-1 558l224 181h102v-739h-134v557l-121 -95z" />
    <glyph glyph-name="two" unicode="2" horiz-adv-x="575" 
d="M390 285l-150 -160h287v-125h-477v113l231 245q17 17 50 53q50 60 50 111q0 45 -31 73.5t-79 28.5q-81 0 -169 -82l-74 98q112 112 253 112q103 0 171 -63q67 -63 67 -162q0 -104 -129 -242z" />
    <glyph glyph-name="three" unicode="3" horiz-adv-x="562" 
d="M252 -12q-124 0 -237 73l58 110q91 -57 173 -57q59 0 93.5 27.5t34.5 72.5t-34 73t-89 28h-94v122h83q54 0 86 26.5t32 68.5t-30.5 67t-78.5 25q-68 0 -151 -59l-66 98q43 41 104.5 65t127.5 24q99 0 166 -56q67 -55 67 -137q0 -58 -35 -103t-91 -64v-4q67 -15 106 -64.5
t39 -117.5q0 -95 -74 -157q-73 -61 -190 -61z" />
    <glyph glyph-name="four" unicode="4" horiz-adv-x="611" 
d="M491 290h80v-115h-80v-175h-128v175h-330l-27 87l390 477h95v-449zM363 534l-198 -244h198v244z" />
    <glyph glyph-name="five" unicode="5" horiz-adv-x="585" 
d="M298 478q107 0 177 -67q72 -67 72 -173q0 -108 -75 -179q-76 -71 -197 -71q-132 0 -245 83l55 109q93 -66 184 -66q63 0 102 35t39 89q0 52 -37.5 86.5t-95.5 34.5q-74 0 -126 -52l-81 62l41 370h386v-125h-284l-19 -157q48 21 104 21z" />
    <glyph glyph-name="six" unicode="6" horiz-adv-x="629" 
d="M351 477q103 0 170 -67q68 -68 68 -170q0 -107 -74 -178t-188 -71q-136 0 -208 100q-72 101 -72 256q0 107 33 196.5t106.5 149t177.5 59.5q115 0 200 -64l-58 -103q-62 46 -134 46q-62 0 -106 -37q-82 -68 -89 -205q54 88 174 88zM327 109q54 0 91 37t37 92q0 54 -36 89
t-90 35q-55 0 -92 -35.5t-37 -89.5t37 -91t90 -37z" />
    <glyph glyph-name="seven" unicode="7" horiz-adv-x="519" 
d="M21 614v125h478v-92l-270 -647h-144l261 614h-325z" />
    <glyph glyph-name="eight" unicode="8" horiz-adv-x="633" 
d="M317 -12q-121 0 -198 60q-76 60 -76 154q0 63 38 115t102 75v2q-51 24 -80 66t-29 95q0 86 67 141q68 56 176 56q107 0 175 -56q67 -55 67 -141q0 -53 -29.5 -95t-81.5 -66v-3q65 -22 103.5 -73.5t38.5 -115.5q0 -94 -76 -154t-197 -60zM432 541q0 43 -32 71t-83 28
t-84 -28t-33 -71t32 -70.5t84 -27.5t84 27.5t32 70.5zM317 108q60 0 98 31.5t38 79.5t-37.5 78.5t-98.5 30.5q-62 0 -100 -30.5t-38 -78.5t39 -79.5t99 -31.5z" />
    <glyph glyph-name="nine" unicode="9" horiz-adv-x="624" 
d="M301 752q135 0 205 -99q71 -100 71 -259q0 -82 -18.5 -153.5t-55.5 -129t-98 -90.5t-140 -33q-119 0 -201 64l51 103q68 -47 143 -47q87 0 134 65q48 65 56 169q-27 -36 -73 -56.5t-100 -20.5q-102 0 -169 67q-66 68 -66 170q0 109 73 179q74 71 188 71zM425 506
q0 55 -37 92q-36 37 -89 37q-54 0 -90.5 -36.5t-36.5 -93.5q0 -54 36 -89.5t90 -35.5t90.5 36t36.5 90z" />
    <glyph glyph-name="colon" unicode=":" horiz-adv-x="274" 
d="M138 346q-33 0 -56 22.5t-23 55.5q0 32 23 54t56 22q32 0 54 -22t22 -54q0 -33 -22 -55.5t-54 -22.5zM138 -16q-33 0 -56 22.5t-23 55.5q0 32 23 54t56 22q32 0 54 -22t22 -54q0 -33 -22 -55.5t-54 -22.5z" />
    <glyph glyph-name="semicolon" unicode=";" horiz-adv-x="296" 
d="M72 424q0 33 23.5 55.5t56.5 22.5q32 0 55 -22.5t23 -55.5q0 -34 -22.5 -56.5t-55.5 -22.5t-56.5 23t-23.5 56zM147 136q36 0 60 -25.5t24 -64.5q0 -106 -147 -200l-39 53l40 32q36 27 53 58h-3q-28 0 -48 20.5t-20 49.5q0 33 23.5 55t56.5 22z" />
    <glyph glyph-name="less" unicode="&#x3c;" horiz-adv-x="561" 
d="M494 182v-133l-462 222v112l462 221v-130l-323 -146z" />
    <glyph glyph-name="equal" unicode="=" horiz-adv-x="592" 
d="M527 368h-462v109h462v-109zM527 178h-462v109h462v-109z" />
    <glyph glyph-name="greater" unicode="&#x3e;" horiz-adv-x="543" 
d="M514 271l-455 -231v133l304 147l-304 144v132l455 -230v-95z" />
    <glyph glyph-name="question" unicode="?" horiz-adv-x="541" 
d="M301 189h-125v67q0 78 66 138q7 7 31.5 28t35 31t26 28.5t22 35.5t6.5 36q0 42 -31 69.5t-77 27.5q-75 0 -150 -85l-81 90q97 118 241 118q101 0 168 -61q67 -60 67 -152q0 -87 -71 -151q-9 -9 -41.5 -37t-45.5 -41t-27 -36.5t-14 -44.5v-61zM240 -12q-33 0 -56 22
t-23 55t23 55t56 22q32 0 54.5 -22t22.5 -55t-22.5 -55t-54.5 -22z" />
    <glyph glyph-name="at" unicode="@" horiz-adv-x="968" 
d="M594 444v45h100v-262q0 -31 13 -48t34 -17q38 0 67 47q29 49 29 120q0 134 -101 227q-100 92 -242 91q-147 -2 -249 -106q-102 -105 -102 -254q0 -150 107 -257q106 -106 262 -106q149 0 269 93l47 -78q-54 -46 -140 -77q-88 -32 -182 -32q-194 0 -329 134t-135 322
q0 189 132 321q132 133 321 133q185 0 313 -120q127 -120 127 -287q0 -114 -61 -190q-60 -75 -149 -75q-44 0 -74.5 20.5t-43.5 55.5q-52 -76 -152 -76q-86 0 -145 62t-59 155q0 91 59 155q58 64 147 64q87 0 137 -60zM593 285q0 54 -34 89q-34 37 -84 37q-51 0 -85 -35.5
t-34 -89.5q0 -53 34 -88.5t84 -35.5q49 0 84 35q35 37 35 88z" />
    <glyph glyph-name="A" unicode="A" horiz-adv-x="691" 
d="M682 0h-145l-61 168h-262l-61 -168h-145l286 739h105zM437 291l-91 253l-92 -253h183z" />
    <glyph glyph-name="B" unicode="B" horiz-adv-x="687" 
d="M507 405q67 -18 103.5 -69.5t36.5 -120.5q0 -90 -63 -153q-64 -62 -170 -62h-329v739h314q99 0 154 -55t55 -129q0 -51 -28 -92.5t-73 -57.5zM377 618h-157v-171h152q46 0 72.5 25t26.5 63q0 35 -25.5 59t-68.5 24zM220 122h168q54 0 86 30t32 73q0 46 -31.5 76t-86.5 30
h-168v-209z" />
    <glyph glyph-name="C" unicode="C" horiz-adv-x="768" 
d="M422 -11q-162 0 -271 105q-109 106 -109 273q0 168 111 276q112 109 271 109q98 0 183.5 -42t134.5 -113l-93 -89q-90 112 -219 112q-104 0 -176 -72q-71 -73 -71 -181q0 -107 70 -177t176 -70q136 0 223 112l95 -86q-53 -71 -139 -114t-186 -43z" />
    <glyph glyph-name="D" unicode="D" horiz-adv-x="767" 
d="M364 0h-279v739h285q164 0 258 -100q94 -98 94 -271q0 -170 -96 -269q-94 -99 -262 -99zM221 608v-477h148q99 0 155 68t56 172q0 102 -55 169q-56 68 -155 68h-149z" />
    <glyph glyph-name="E" unicode="E" horiz-adv-x="630" 
d="M576 0h-491v739h491v-128h-354v-174h327v-127h-327v-182h354v-128z" />
    <glyph glyph-name="F" unicode="F" horiz-adv-x="596" 
d="M221 0h-136v739h483v-130h-347v-178h304v-130h-304v-301z" />
    <glyph glyph-name="G" unicode="G" horiz-adv-x="810" 
d="M425 -11q-166 0 -276 107q-108 108 -108 273q0 167 113 275q112 108 277 108q88 0 168.5 -34t131.5 -90l-91 -96q-85 88 -209 88q-106 0 -179 -71q-71 -71 -71 -179q0 -107 70 -178q71 -72 178 -72q59 0 114.5 23t92.5 62v112h-214v120h340v-299q-141 -149 -337 -149z
" />
    <glyph glyph-name="H" unicode="H" horiz-adv-x="768" 
d="M222 0h-137v739h137v-299h324v299h137v-739h-137v308h-324v-308z" />
    <glyph glyph-name="I" unicode="I" horiz-adv-x="307" 
d="M85 0v739h137v-739h-137z" />
    <glyph glyph-name="J" unicode="J" horiz-adv-x="578" 
d="M231 -12q-136 0 -225 92l70 106q63 -67 146 -67q66 0 104 41.5t38 113.5v465h137v-471q0 -139 -76 -209q-76 -71 -194 -71z" />
    <glyph glyph-name="K" unicode="K" horiz-adv-x="689" 
d="M701 0h-168l-219 301l-93 -113v-188h-136v739h136v-363l294 363h165l-276 -338z" />
    <glyph glyph-name="L" unicode="L" horiz-adv-x="616" 
d="M602 0h-517v739h137v-608h380v-131z" />
    <glyph glyph-name="M" unicode="M" horiz-adv-x="934" 
d="M220 0h-135v739h86l296 -431l295 431h87v-739h-136v438l-224 -324h-45l-224 324v-438z" />
    <glyph glyph-name="N" unicode="N" horiz-adv-x="791" 
d="M571 265v474h135v-739h-89l-397 470v-470h-135v739h82z" />
    <glyph glyph-name="O" unicode="O" horiz-adv-x="850" 
d="M41 367q0 161 111 273q112 112 273 112t272 -112q112 -112 112 -271t-112 -270q-111 -111 -274 -111q-164 0 -273 109t-109 270zM667 369q0 106 -71 177t-171 71q-101 0 -172 -71q-70 -70 -70 -177t69 -177q70 -70 173 -70t173 70t69 177z" />
    <glyph glyph-name="P" unicode="P" horiz-adv-x="632" 
d="M85 739h267q126 0 191 -71q64 -70 64 -170q0 -102 -67 -169q-66 -68 -199 -68h-120v-261h-136v739zM221 386h124q58 0 90.5 32.5t32.5 81.5t-30.5 80.5t-82.5 31.5h-134v-226z" />
    <glyph glyph-name="Q" unicode="Q" horiz-adv-x="850" 
d="M802 -13l18 -113q-59 -22 -127 -22q-162 0 -273 136q-160 3 -269 114q-110 112 -110 268q0 159 112 270q112 112 273 112t272 -112q111 -111 111 -270q0 -118 -65 -215q-64 -95 -171 -139q56 -47 129 -47q46 0 100 18zM181 368q0 -106 71 -177q70 -70 174 -70
q103 0 173 70q71 71 71 177t-71 179q-71 72 -173 72q-104 0 -174 -72q-71 -73 -71 -179z" />
    <glyph glyph-name="R" unicode="R" horiz-adv-x="667" 
d="M639 0h-162l-165 277h-91v-277h-136v739h275q120 0 184 -67t64 -164q0 -75 -40 -133t-115 -82zM360 612h-139v-212h124q60 0 91.5 30t31.5 77q0 46 -29 75.5t-79 29.5z" />
    <glyph glyph-name="S" unicode="S" horiz-adv-x="596" 
d="M294 -12q-85 0 -157 36.5t-116 104.5l82 94q71 -107 192 -107q50 0 81.5 24.5t31.5 61.5q0 50 -69 84q-17 8 -73 30q-56 23 -87 41q-116 68 -116 182q0 91 68 151q67 61 177 61q144 0 237 -102l-76 -98q-30 34 -73.5 53t-85.5 19q-45 0 -72.5 -21.5t-27.5 -56.5
q0 -47 61 -78l78 -36q47 -19 88 -40q122 -62 122 -181q0 -98 -74 -160t-191 -62z" />
    <glyph glyph-name="T" unicode="T" horiz-adv-x="592" 
d="M227 0v607h-213v132h564v-132h-213v-607h-138z" />
    <glyph glyph-name="U" unicode="U" horiz-adv-x="720" 
d="M360 -13q-123 0 -203 71q-80 72 -80 207v474h137v-462q0 -76 38.5 -116.5t107.5 -40.5q68 0 107 41t39 116v462h138v-474q0 -135 -80 -207q-80 -71 -204 -71z" />
    <glyph glyph-name="V" unicode="V" horiz-adv-x="731" 
d="M367 215l203 524h154l-306 -739h-104l-309 739h157z" />
    <glyph glyph-name="W" unicode="W" horiz-adv-x="1057" 
d="M363 0h-109l-247 739h149l156 -507l174 507h83l178 -507l153 507h149l-246 -739h-108l-167 500z" />
    <glyph glyph-name="X" unicode="X" horiz-adv-x="659" 
d="M167 0h-162l239 374l-224 365h158l152 -262l158 262h161l-235 -365l235 -374h-159l-161 267z" />
    <glyph glyph-name="Y" unicode="Y" horiz-adv-x="670" 
d="M501 739h157l-255 -480v-259h-137v259l-253 480h158l163 -336z" />
    <glyph glyph-name="Z" unicode="Z" horiz-adv-x="643" 
d="M607 0h-573v95l374 517h-359v127h547v-99l-368 -513h379v-127z" />
    <glyph glyph-name="bracketleft" unicode="[" horiz-adv-x="398" 
d="M379 -227h-300v1038h300v-114h-167v-810h167v-114z" />
    <glyph glyph-name="backslash" unicode="\" horiz-adv-x="648" 
d="M159 825l471 -948h-139l-472 948h140z" />
    <glyph glyph-name="bracketright" unicode="]" horiz-adv-x="398" 
d="M319 -227h-300v114h167v810h-167v114h300v-1038z" />
    <glyph glyph-name="asciicircum" unicode="^" horiz-adv-x="537" 
d="M165 431h-129l190 327h86l189 -327h-128l-104 193z" />
    <glyph glyph-name="underscore" unicode="_" horiz-adv-x="589" 
d="M589 -186h-589v120h589v-120z" />
    <glyph glyph-name="grave" unicode="`" horiz-adv-x="398" 
d="M188 794l61 -174h-115l-94 174h148z" />
    <glyph glyph-name="a" unicode="a" horiz-adv-x="674" 
d="M483 474v69h124v-543h-124v67q-71 -80 -177 -80q-117 0 -193 82t-76 205t76 202q77 80 193 80q104 0 177 -82zM486 272q0 69 -45 117t-115 48t-115 -48q-44 -49 -44 -117q0 -69 44 -118q45 -48 115 -48t115 48t45 118z" />
    <glyph glyph-name="b" unicode="b" horiz-adv-x="676" 
d="M369 556q116 0 192 -82q78 -82 78 -203t-78 -203q-76 -81 -193 -81q-105 0 -174 85v-72h-128v760h130v-287q69 83 173 83zM506 272q0 69 -44 116q-44 48 -113 48q-71 0 -114 -48q-44 -47 -44 -116t44 -118q44 -47 114 -47q69 0 113 47q44 49 44 118z" />
    <glyph glyph-name="c" unicode="c" horiz-adv-x="602" 
d="M324 -12q-125 0 -207 80q-80 80 -80 204t81 204q82 80 210 80q84 0 151.5 -39.5t100.5 -109.5l-106 -57q-52 86 -144 86q-70 0 -117 -47q-46 -46 -46 -117q0 -70 45 -117t114 -47q45 0 85.5 23.5t60.5 61.5l106 -62q-36 -66 -103.5 -104.5t-150.5 -38.5z" />
    <glyph glyph-name="d" unicode="d" horiz-adv-x="674" 
d="M477 474v286h130v-760h-127v71q-67 -84 -173 -84q-117 0 -193 81q-77 83 -77 204q0 119 77 202q78 82 192 82q104 0 171 -82zM325 106q71 0 115 48q44 49 44 118t-45 117q-43 48 -114 48t-114 -48q-44 -49 -44 -117q0 -69 44 -118q43 -48 114 -48z" />
    <glyph glyph-name="e" unicode="e" horiz-adv-x="623" 
d="M588 283q0 -26 -4 -58h-414q13 -58 55.5 -91.5t110.5 -33.5q99 0 179 56l52 -93q-101 -75 -236 -75q-74 0 -131.5 24t-92.5 64.5t-52.5 90t-17.5 105.5q0 124 78 203q79 81 204 81q117 0 193 -74q76 -73 76 -199zM319 447q-57 0 -96.5 -33t-52.5 -90h290q-8 57 -46.5 90
t-94.5 33z" />
    <glyph glyph-name="f" unicode="f" horiz-adv-x="424" 
d="M348 664q-50 0 -77 -25.5t-27 -73.5v-22h170v-110h-170v-433h-130v433h-86v110h86v25q0 101 58.5 157t157.5 56q75 0 146 -37l-41 -102q-50 22 -87 22z" />
    <glyph glyph-name="g" unicode="g" horiz-adv-x="673" 
d="M485 478v65h122v-489q0 -130 -83 -207t-216 -77q-138 0 -247 78l53 99q91 -64 191 -64q82 0 129 43.5t47 114.5v32q-66 -74 -173 -74q-119 0 -195 79t-76 199q0 122 79 200q79 79 197 79q105 0 172 -78zM327 113q68 0 113 46q45 47 45 117t-45 115q-45 46 -113 46
q-69 0 -114 -46q-45 -45 -45 -115t45 -117q45 -46 114 -46z" />
    <glyph glyph-name="h" unicode="h" horiz-adv-x="636" 
d="M196 0h-130v760h127v-287q24 38 70 61t102 23q87 0 149 -59t62 -167v-331h-130v296q0 67 -32 104.5t-87 37.5q-58 0 -94.5 -40t-36.5 -104v-294z" />
    <glyph glyph-name="i" unicode="i" 
d="M135 608q-36 0 -60 23t-24 59q0 35 24.5 58.5t59.5 23.5t58.5 -23.5t23.5 -58.5q0 -36 -23.5 -59t-58.5 -23zM199 543v-543h-131v543h131z" />
    <glyph glyph-name="j" unicode="j" horiz-adv-x="287" 
d="M156 608q-36 0 -60 23t-24 59q0 35 24.5 58.5t59.5 23.5t58.5 -23.5t23.5 -58.5q0 -36 -23.5 -59t-58.5 -23zM20 -231q-77 0 -118 26l25 104q45 -15 72 -15q91 0 91 108v551h131v-555q0 -106 -54 -162.5t-147 -56.5z" />
    <glyph glyph-name="k" unicode="k" horiz-adv-x="574" 
d="M584 0h-162l-186 237l-40 -36v-201h-130v760h130v-411l209 194h166l-245 -224z" />
    <glyph glyph-name="l" unicode="l" 
d="M196 760v-760h-130v760h130z" />
    <glyph glyph-name="m" unicode="m" horiz-adv-x="996" 
d="M716 558q96 0 158 -62t62 -169v-327h-131v303q0 65 -30.5 100t-82.5 35q-55 0 -90 -38t-35 -101v-299h-130v302q0 63 -31.5 99.5t-83.5 36.5q-55 0 -90.5 -38.5t-35.5 -101.5v-298h-130v543h128v-78q23 43 67.5 68t97.5 25q55 -1 98 -26t64 -71q29 46 81 71.5t114 25.5z
" />
    <glyph glyph-name="n" unicode="n" horiz-adv-x="637" 
d="M196 0h-130v543h128v-76q22 42 67 66t104 24q89 0 151 -59t62 -167v-331h-131v295q0 67 -32 105t-87 38q-58 0 -95 -40.5t-37 -104.5v-293z" />
    <glyph glyph-name="o" unicode="o" horiz-adv-x="652" 
d="M36 272q0 120 81 202q83 83 209 83q127 0 208 -83q82 -82 82 -202q0 -122 -82 -204q-81 -82 -208 -82t-209 82q-81 82 -81 204zM485 272q0 69 -46 116q-47 48 -113 48t-113 -48q-46 -47 -46 -116q0 -70 46 -117q47 -48 113 -48t113 48q46 47 46 117z" />
    <glyph glyph-name="p" unicode="p" horiz-adv-x="678" 
d="M373 556q115 0 192 -83q76 -82 76 -201q0 -120 -77 -203q-76 -82 -192 -82q-104 0 -175 81v-291h-131v766h130v-72q70 85 177 85zM194 271q0 -69 44 -118q44 -47 114 -47t114 47q44 49 44 118q0 70 -44 117q-44 48 -114 48t-114 -48q-44 -49 -44 -117z" />
    <glyph glyph-name="q" unicode="q" horiz-adv-x="678" 
d="M482 472v71h130v-766h-131v291q-71 -81 -176 -81q-116 0 -192 82t-76 203q0 119 76 201q77 83 192 83q105 0 177 -84zM485 271q0 68 -44 117q-43 48 -114 48t-114 -48q-44 -49 -44 -117q0 -69 44 -118q44 -47 114 -47t114 47q44 49 44 118z" />
    <glyph glyph-name="r" unicode="r" horiz-adv-x="413" 
d="M196 0h-130v543h125v-75q50 89 151 89q34 0 65 -11l-11 -125q-35 11 -63 11q-63 0 -100 -42.5t-37 -124.5v-265z" />
    <glyph glyph-name="s" unicode="s" horiz-adv-x="486" 
d="M241 -14q-141 0 -219 108l74 80q27 -36 66.5 -56.5t79.5 -20.5q35 0 57.5 16.5t22.5 40.5q0 32 -41 52q-13 8 -66 27q-47 18 -69 29q-91 45 -91 138q0 71 54 116t143 45q115 0 186 -80l-68 -83q-53 56 -122 56q-30 0 -48 -14.5t-18 -36.5q0 -36 47 -53q119 -47 131 -54
q92 -50 92 -138q0 -74 -58 -123t-153 -49z" />
    <glyph glyph-name="t" unicode="t" horiz-adv-x="453" 
d="M409 134l41 -102q-64 -45 -157 -45q-186 0 -186 212v234h-90v110h92v192h129v-192h182v-110h-182v-229q0 -98 79 -98q46 0 92 28z" />
    <glyph glyph-name="u" unicode="u" horiz-adv-x="609" 
d="M304 -13q-114 0 -179.5 63.5t-65.5 176.5v316h131v-316q0 -55 30.5 -88t83.5 -33q54 0 84.5 33t30.5 88v316h131v-316q0 -113 -65.5 -176.5t-180.5 -63.5z" />
    <glyph glyph-name="v" unicode="v" horiz-adv-x="588" 
d="M296 179l141 364h143l-237 -542h-98l-236 542h144z" />
    <glyph glyph-name="w" unicode="w" horiz-adv-x="868" 
d="M307 1h-113l-185 542h136l114 -368l129 368h91l132 -368l111 368h136l-182 -542h-113l-129 355z" />
    <glyph glyph-name="x" unicode="x" horiz-adv-x="542" 
d="M354 274l177 -274h-150l-111 184l-114 -184h-151l182 278l-163 265h150l99 -172l105 172h148z" />
    <glyph glyph-name="y" unicode="y" horiz-adv-x="588" 
d="M307 176l129 367h142l-220 -578q-40 -101 -92.5 -148.5t-128.5 -47.5q-62 0 -100 26l21 110q38 -18 69 -18q66 0 106 88l13 30l-237 538h151z" />
    <glyph glyph-name="z" unicode="z" horiz-adv-x="531" 
d="M487 456l-277 -347h287v-109h-465v88l281 345h-267v109h441v-86z" />
    <glyph glyph-name="braceleft" unicode="{" horiz-adv-x="399" 
d="M166 291v-3q44 -14 73 -47.5t29 -79.5q0 -19 -5 -94q-5 -73 -5 -94q0 -83 83 -83h30v-121h-63q-181 0 -181 185q0 40 4 97t4 90q0 48 -27 69t-88 30v100q53 10 79 24q36 22 36 75q0 31 -4 90q-4 60 -4 102q0 180 187 180h57v-121h-30q-83 0 -83 -82q0 -21 5 -96t5 -93
q0 -46 -29 -80.5t-73 -47.5z" />
    <glyph glyph-name="bar" unicode="|" horiz-adv-x="284" 
d="M206 -179h-127v1026h127v-1026z" />
    <glyph glyph-name="braceright" unicode="}" horiz-adv-x="399" 
d="M233 288v3q-44 13 -73 47.5t-29 80.5q0 18 5 93t5 96q0 82 -83 82h-30v121h57q187 0 187 -180q0 -42 -4 -102q-4 -59 -4 -90q0 -53 35 -75q27 -14 80 -24v-100q-61 -9 -88 -30t-27 -69q0 -33 4 -90t4 -97q0 -185 -181 -185h-63v121h30q83 0 83 83q0 21 -5 94q-5 75 -5 94
q0 46 29 79.5t73 47.5z" />
    <glyph glyph-name="asciitilde" unicode="~" horiz-adv-x="692" 
d="M452 236q-54 0 -124 32q-68 33 -95 33t-48 -13.5t-50 -49.5l-83 65q62 113 187 113q54 0 123 -33q70 -32 97 -32t48 14.5t50 52.5l86 -67q-69 -115 -191 -115z" />
    <glyph glyph-name="exclamdown" unicode="&#xa1;" horiz-adv-x="274" 
d="M152 526q32 0 54 -22.5t22 -55.5q0 -32 -22 -54t-54 -22q-33 0 -56 22t-23 54q0 33 23 55.5t56 22.5zM82 -237l7 552h122l9 -552h-138z" />
    <glyph glyph-name="cent" unicode="&#xa2;" horiz-adv-x="617" 
d="M367 433v-321q76 18 109 81l106 -62q-31 -57 -87.5 -94.5t-127.5 -46.5v-78h-77v78q-111 14 -180 90q-69 78 -69 192t68 191q70 78 181 91v78h77v-78q73 -8 130.5 -46.5t86.5 -100.5l-106 -57q-41 68 -111 83zM171 272q0 -59 33 -102.5t86 -56.5v317q-54 -14 -86.5 -57
t-32.5 -101z" />
    <glyph glyph-name="sterling" unicode="&#xa3;" horiz-adv-x="584" 
d="M275 282q-1 -88 -70 -157h336v-125h-487v107q41 35 64.5 84.5t23.5 97.5q0 15 -3 30h-89v104h59q-22 65 -22 111q0 94 69 155t167 63q69 1 128.5 -31t92.5 -86l-91 -80q-19 31 -51 50t-66 19q-49 0 -80.5 -31.5t-31.5 -79.5q0 -33 20 -90h231v-104h-202q2 -32 2 -37z" />
    <glyph glyph-name="currency" unicode="&#xa4;" horiz-adv-x="642" 
d="M552 367q0 -68 -37 -123l75 -73l-63 -63l-75 73q-58 -40 -134 -40q-71 0 -129 38l-73 -71l-63 63l72 71q-38 58 -38 125q0 76 43 134l-77 77l63 63l80 -79q53 34 122 34q68 0 127 -36l82 81l63 -63l-80 -79q42 -59 42 -132zM318 238q53 0 91 38q37 38 37 93t-37 92
q-38 38 -91 38t-89 -38q-36 -37 -36 -92q0 -54 36 -93q38 -38 89 -38z" />
    <glyph glyph-name="yen" unicode="&#xa5;" horiz-adv-x="680" 
d="M501 739h151l-180 -343h105v-100h-158l-11 -22v-26h169v-100h-169v-148h-137v148h-171v100h171v28l-10 20h-161v100h108l-179 343h152l159 -329z" />
    <glyph glyph-name="brokenbar" unicode="&#xa6;" horiz-adv-x="284" 
d="M206 434h-127v413h127v-413zM79 234h127v-413h-127v413z" />
    <glyph glyph-name="section" unicode="&#xa7;" horiz-adv-x="604" 
d="M567 214q0 -86 -72 -136q30 -44 30 -100q0 -88 -66 -146q-67 -59 -172 -59q-155 0 -248 121l88 88q68 -83 157 -83q44 0 70.5 22t26.5 56q0 33 -29 58q-13 13 -35 26q-25 16 -37 21l-46 23q-76 36 -125 75q-62 50 -62 125q0 87 72 137q-30 46 -30 101q0 93 66 151
q67 58 171 58q133 0 219 -104l-93 -85q-56 63 -122 63q-45 0 -72.5 -23t-27.5 -58q0 -38 39 -67q28 -20 42 -27l24 -12l52 -26q92 -43 136 -87.5t44 -111.5zM292 217q90 -45 114 -59q22 16 22 44t-23.5 48.5t-81.5 49.5q-90 44 -119 63q-22 -19 -22 -46q0 -28 24 -48t86 -52
z" />
    <glyph glyph-name="dieresis" unicode="&#xa8;" horiz-adv-x="506" 
d="M46 705q0 33 23.5 56t57.5 23t57 -23t23 -56q0 -35 -23 -58t-57 -23t-57.5 23t-23.5 58zM340 624q-35 0 -58 23t-23 58q0 33 23.5 56t57.5 23t57 -23t23 -56q0 -35 -23 -58t-57 -23z" />
    <glyph glyph-name="copyright" unicode="&#xa9;" horiz-adv-x="852" 
d="M41 369q0 157 113 270t272 113t272 -113t113 -270q0 -156 -113 -269q-112 -112 -272 -112t-272 112q-113 113 -113 269zM426 67q127 2 214 89q90 88 90 213t-90 214q-89 89 -214 89q-124 0 -215 -89q-89 -89 -89 -214q0 -124 89 -213q89 -87 215 -89zM429 163
q-88 0 -147 59t-59 147q0 89 58 147q59 59 148 59q111 0 167 -89l-66 -44q-42 50 -100 50q-52 0 -85.5 -34.5t-33.5 -88.5t33.5 -88.5t85.5 -34.5q64 0 101 49l64 -50q-58 -82 -166 -82z" />
    <glyph glyph-name="ordfeminine" unicode="&#xaa;" horiz-adv-x="409" 
d="M195 736q70 0 112.5 -41t42.5 -118v-186h-75v35q-39 -44 -110 -44q-57 0 -90.5 31.5t-33.5 79.5q0 50 38.5 77t106.5 27q28 0 86 -5q-3 33 -25 51.5t-60 18.5q-54 0 -100 -26l-27 63q56 37 135 37zM179 454q41 0 65 21.5t28 60.5q-44 3 -80 3q-70 -1 -70 -43
q0 -19 15 -30.5t42 -11.5z" />
    <glyph glyph-name="guillemotleft" unicode="&#xab;" horiz-adv-x="570" 
d="M307 88h-135l-137 203l137 203h135l-141 -203zM522 88h-136l-136 203l137 203h135l-140 -203z" />
    <glyph glyph-name="logicalnot" unicode="&#xac;" horiz-adv-x="604" 
d="M418 256h-354v121h471v-234h-117v113z" />
    <glyph glyph-name="uni00AD" unicode="&#xad;" horiz-adv-x="503" 
d="M443 268h-382v120h382v-120z" />
    <glyph glyph-name="registered" unicode="&#xae;" horiz-adv-x="587" 
d="M115 700q76 74 179 74q104 0 178 -74t74 -177q0 -104 -74 -178q-73 -73 -178 -73t-179 73q-74 74 -74 178q0 103 74 177zM158 387q56 -57 136 -57t135 57q56 58 56 136t-56 136q-55 57 -135 57t-136 -57q-55 -56 -55 -136t55 -136zM393 565q0 -49 -45 -72l51 -88h-62
l-44 80h-34v-80h-56v241h107q36 0 59.5 -22.5t23.5 -58.5zM296 600h-37v-69h37q40 0 40 35q0 34 -40 34z" />
    <glyph glyph-name="overscore" unicode="&#xaf;" horiz-adv-x="458" 
d="M363 640l-323 -1v114h323v-113z" />
    <glyph glyph-name="degree" unicode="&#xb0;" horiz-adv-x="365" 
d="M183 534q-63 0 -106 42q-44 42 -44 103q0 60 44 104q43 43 106 43t106 -43q44 -42 44 -104q0 -61 -44 -103q-43 -42 -106 -42zM134 630q20 -20 49 -20t49 20t20 49t-20 49q-20 21 -49 21t-49 -21q-20 -20 -20 -49t20 -49z" />
    <glyph glyph-name="plusminus" unicode="&#xb1;" horiz-adv-x="615" 
d="M368 680v-189h188v-121h-188v-188l-120 -2v190h-190v121h190v189h120zM556 59h-498v117h498v-117z" />
    <glyph glyph-name="uni00B2" unicode="&#xb2;" horiz-adv-x="346" 
d="M250 675l-88 -90h146v-78h-271v71l130 131q48 49 48 79q0 20 -14 32.5t-36 12.5q-41 0 -96 -51l-43 65q65 65 144 65q43 1 76.5 -20t49 -54t5 -77.5t-50.5 -85.5z" />
    <glyph glyph-name="uni00B3" unicode="&#xb3;" horiz-adv-x="333" 
d="M12 540l36 69q56 -29 95 -29q30 0 47.5 12.5t17.5 33.5t-18 33.5t-47 12.5h-53v75h48q25 0 43 11.5t18 31.5q0 19 -15.5 30.5t-38.5 11.5q-37 0 -81 -29l-42 62q53 47 133 47q58 0 95 -31q39 -30 39 -74q0 -32 -19.5 -55.5t-52.5 -33.5v-2q39 -9 60.5 -35t21.5 -62
q0 -52 -42 -85t-110 -33q-67 0 -135 39z" />
    <glyph glyph-name="acute" unicode="&#xb4;" horiz-adv-x="416" 
d="M156 620h-116l62 174h147z" />
    <glyph glyph-name="paragraph" unicode="&#xb6;" horiz-adv-x="737" 
d="M261 734h428v-127h-75v-810h-131v810h-72v-810h-131v489h-29q-95 0 -160 62q-63 63 -63 162q0 98 65 161t168 63z" />
    <glyph glyph-name="middot" unicode="&#xb7;" 
d="M132 -16q-33 0 -56 22.5t-23 55.5q0 32 23 54t56 22q32 0 54 -22t22 -54q0 -33 -22 -55.5t-54 -22.5z" />
    <glyph glyph-name="cedilla" unicode="&#xb8;" horiz-adv-x="338" 
d="M223 18l-27 -66q46 -1 77 -27.5t31 -70.5q0 -50 -38 -84t-104 -34q-58 0 -122 30l30 77q45 -20 81 -20q25 0 39 10.5t14 27.5q0 35 -54 35h-55l-8 26l39 98z" />
    <glyph glyph-name="uni00B9" unicode="&#xb9;" horiz-adv-x="274" 
d="M12 792l141 109h66v-394h-89v271l-72 -55z" />
    <glyph glyph-name="ordmasculine" unicode="&#xba;" horiz-adv-x="431" 
d="M215 381q-75 0 -128 50q-51 51 -51 126q0 77 51 126q53 51 128 51q77 0 128 -51q52 -49 52 -126q0 -75 -52 -126q-52 -50 -128 -50zM215 460q43 0 70.5 28t27.5 69q0 42 -28 70.5t-70 28.5q-41 0 -69 -28.5t-28 -70.5t28 -69.5t69 -27.5z" />
    <glyph glyph-name="guillemotright" unicode="&#xbb;" horiz-adv-x="570" 
d="M320 291l-136 -203h-136l140 203l-140 203h135zM535 291l-137 -203h-135l141 203l-141 203h135z" />
    <glyph glyph-name="onequarter" unicode="&#xbc;" horiz-adv-x="878" 
d="M238 346h-89v272l-72 -55l-46 69l141 109h66v-395zM106 0l578 739h106l-577 -739h-107zM792 162h43v-71h-43v-91h-80v91h-179l-19 52l212 253h66v-234zM712 280l-100 -118h100v118z" />
    <glyph glyph-name="onehalf" unicode="&#xbd;" horiz-adv-x="859" 
d="M239 346h-89v272l-72 -55l-46 69l141 109h66v-395zM84 0l578 739h106l-576 -739h-108zM760 168l-88 -90h146v-78h-271v71l130 131q48 49 48 79q0 20 -14 32.5t-36 12.5q-41 0 -96 -51l-43 65q65 65 144 65q43 1 76.5 -20t49 -54t5 -77.5t-50.5 -85.5z" />
    <glyph glyph-name="threequarters" unicode="&#xbe;" horiz-adv-x="847" 
d="M152 420q30 0 47.5 12.5t17.5 33.5t-18 33.5t-47 12.5h-53v75h48q25 0 43 11.5t18 31.5q0 19 -15.5 30.5t-38.5 11.5q-37 0 -81 -29l-42 62q53 47 133 47q58 0 95 -31q39 -30 39 -74q0 -32 -19.5 -55.5t-52.5 -33.5v-2q39 -9 60.5 -35t21.5 -62q0 -52 -42 -85t-110 -33
t-135 39l36 69q56 -29 95 -29zM117 0l578 739h106l-576 -739h-108zM682 396h66v-234h43v-71h-43v-91h-80v91h-179l-19 52zM668 280l-100 -118h100v118z" />
    <glyph glyph-name="questiondown" unicode="&#xbf;" horiz-adv-x="534" 
d="M296 527q33 0 56 -22t23 -55t-23 -55t-56 -22q-32 0 -54.5 22t-22.5 55t22.5 55t54.5 22zM235 326h125v-67q0 -78 -67 -138l-31.5 -27.5t-34.5 -31.5t-26 -29t-21.5 -35t-6.5 -36q0 -42 31 -69.5t77 -27.5q75 0 150 85l81 -90q-97 -118 -241 -118q-101 0 -168 61
q-67 60 -67 152q0 86 70 151l34.5 30t36.5 32.5t28 29t23 34t7 33.5v61z" />
    <glyph glyph-name="Agrave" unicode="&#xc0;" horiz-adv-x="691" 
d="M344 975l64 -180h-121l-97 180h154zM682 0h-145l-61 168h-262l-61 -168h-145l286 739h105zM437 291l-91 253l-92 -253h183z" />
    <glyph glyph-name="Aacute" unicode="&#xc1;" horiz-adv-x="691" 
d="M358 973h151l-95 -179h-120zM682 0h-145l-61 168h-262l-61 -168h-145l286 739h105zM437 291l-91 253l-92 -253h183z" />
    <glyph glyph-name="Acircumflex" unicode="&#xc2;" horiz-adv-x="691" 
d="M414 794l-68 90l-69 -90h-130l150 178h100l151 -178h-134zM682 0h-145l-61 168h-262l-61 -168h-145l286 739h105zM437 291l-91 253l-92 -253h183z" />
    <glyph glyph-name="Atilde" unicode="&#xc3;" horiz-adv-x="691" 
d="M277 843q-35 0 -64 -50l-84 41q45 112 140 112q34 0 77 -22t62 -22q34 0 59 48l84 -40q-19 -54 -54 -83t-80 -29q-32 0 -76 22q-44 23 -64 23zM682 0h-145l-61 168h-262l-61 -168h-145l286 739h105zM437 291l-91 253l-92 -253h183z" />
    <glyph glyph-name="Adieresis" unicode="&#xc4;" horiz-adv-x="691" 
d="M240 799q-33 0 -55.5 22t-22.5 56q0 32 22.5 54t55.5 22q32 0 54.5 -22t22.5 -54q0 -33 -22.5 -55.5t-54.5 -22.5zM367 877q0 31 23 53.5t55 22.5q33 0 55 -22t22 -54q0 -34 -22 -56t-55 -22t-55.5 22t-22.5 56zM682 0h-145l-61 168h-262l-61 -168h-145l286 739h105z
M437 291l-91 253l-92 -253h183z" />
    <glyph glyph-name="Aring" unicode="&#xc5;" horiz-adv-x="691" 
d="M442 816q-38 -37 -94 -37t-94 37q-39 37 -39 91q0 53 39 91q40 38 94 38t94 -38q39 -38 39 -91t-39 -91zM348 962q-23 0 -39 -15.5t-16 -37.5q0 -24 16 -39.5t39 -15.5q22 0 38 15.5t16 39.5q0 22 -16 37.5t-38 15.5zM682 0h-145l-61 168h-262l-61 -168h-145l286 739h105
zM437 291l-91 253l-92 -253h183z" />
    <glyph glyph-name="AE" unicode="&#xc6;" horiz-adv-x="1042" 
d="M987 739v-128h-360v-174h332v-127h-332v-182h360v-128h-498v184h-248l-107 -184h-152l451 739h554zM489 609l-175 -301h175v301z" />
    <glyph glyph-name="Ccedilla" unicode="&#xc7;" horiz-adv-x="767" 
d="M652 232l95 -86q-48 -64 -122 -105t-162 -50l-16 -39q46 -1 77 -27.5t31 -70.5q0 -50 -38 -84t-104 -34q-57 0 -122 30l30 77q45 -20 81 -20q25 0 39 10.5t14 27.5q0 35 -54 35h-55l-8 26l28 71q-142 18 -233 120q-91 103 -91 254q0 168 111 276q112 109 271 109
q98 0 183.5 -42t134.5 -113l-93 -89q-90 112 -219 112q-104 0 -176 -72q-71 -73 -71 -181q0 -107 70 -177t176 -70q136 0 223 112z" />
    <glyph glyph-name="Egrave" unicode="&#xc8;" horiz-adv-x="630" 
d="M338 975l64 -180h-121l-97 180h154zM576 0h-491v739h491v-128h-354v-174h327v-127h-327v-182h354v-128z" />
    <glyph glyph-name="Eacute" unicode="&#xc9;" horiz-adv-x="630" 
d="M383 794h-120l64 179h151zM576 0h-491v739h491v-128h-354v-174h327v-127h-327v-182h354v-128z" />
    <glyph glyph-name="Ecircumflex" unicode="&#xca;" horiz-adv-x="630" 
d="M261 794h-130l150 178h100l151 -178h-134l-68 90zM576 0h-491v739h491v-128h-354v-174h327v-127h-327v-182h354v-128z" />
    <glyph glyph-name="Edieresis" unicode="&#xcb;" horiz-adv-x="630" 
d="M151 877q0 32 22.5 54t55.5 22q32 0 54.5 -22t22.5 -54q0 -33 -22 -55.5t-55 -22.5t-55.5 22t-22.5 56zM356 877q0 31 23 53.5t55 22.5q33 0 55 -22t22 -54q0 -34 -22 -56t-55 -22t-55.5 22t-22.5 56zM576 0h-491v739h491v-128h-354v-174h327v-127h-327v-182h354v-128z
" />
    <glyph glyph-name="Igrave" unicode="&#xcc;" horiz-adv-x="307" 
d="M155 975l64 -180h-121l-97 180h154zM87 0v739h137v-739h-137z" />
    <glyph glyph-name="Iacute" unicode="&#xcd;" horiz-adv-x="305" 
d="M209 795h-120l64 179h151zM85 0v739h137v-739h-137z" />
    <glyph glyph-name="Icircumflex" unicode="&#xce;" horiz-adv-x="307" 
d="M85 796h-130l150 178h100l151 -178h-134l-68 90zM87 0v739h137v-739h-137z" />
    <glyph glyph-name="Idieresis" unicode="&#xcf;" horiz-adv-x="307" 
d="M49 797q-33 0 -56.5 23t-23.5 58q0 33 23.5 56t56.5 23q34 0 57 -23t23 -56q0 -35 -23 -58t-57 -23zM261 797q-35 0 -57.5 23t-22.5 58q0 33 23 56t57 23t57 -23t23 -56q0 -35 -23 -58t-57 -23zM87 0v739h137v-739h-137z" />
    <glyph glyph-name="Eth" unicode="&#xd0;" horiz-adv-x="784" 
d="M102 739h285q164 0 258 -100q94 -98 94 -271q0 -170 -96 -269q-95 -99 -262 -99h-279v314h-87v112h87v313zM238 131h148q99 0 155 68t56 172q0 102 -55 169q-56 68 -155 68h-149v-182h196v-112h-196v-183z" />
    <glyph glyph-name="Ntilde" unicode="&#xd1;" horiz-adv-x="791" 
d="M270 795l-84 41q45 112 140 112q34 0 77 -22t62 -22q33 0 59 48l84 -40q-19 -54 -54 -83t-80 -29q-32 0 -76 22q-44 23 -64 23q-35 0 -64 -50zM571 265v474h135v-739h-89l-397 470v-470h-135v739h82z" />
    <glyph glyph-name="Ograve" unicode="&#xd2;" horiz-adv-x="850" 
d="M434 975l64 -180h-121l-97 180h154zM41 367q0 161 111 273q112 112 273 112t272 -112q112 -112 112 -271t-112 -270q-111 -111 -274 -111q-164 0 -273 109t-109 270zM667 369q0 106 -71 177t-171 71q-101 0 -172 -71q-70 -70 -70 -177t69 -177q70 -70 173 -70t173 70
t69 177z" />
    <glyph glyph-name="Oacute" unicode="&#xd3;" horiz-adv-x="850" 
d="M483 794h-120l64 179h151zM41 367q0 161 111 273q112 112 273 112t272 -112q112 -112 112 -271t-112 -270q-111 -111 -274 -111q-164 0 -273 109t-109 270zM667 369q0 106 -71 177t-171 71q-101 0 -172 -71q-70 -70 -70 -177t69 -177q70 -70 173 -70t173 70t69 177z" />
    <glyph glyph-name="Ocircumflex" unicode="&#xd4;" horiz-adv-x="850" 
d="M355 794h-130l150 178h100l151 -178h-134l-68 90zM41 367q0 161 111 273q112 112 273 112t272 -112q112 -112 112 -271t-112 -270q-111 -111 -274 -111q-164 0 -273 109t-109 270zM667 369q0 106 -71 177t-171 71q-101 0 -172 -71q-70 -70 -70 -177t69 -177
q70 -70 173 -70t173 70t69 177z" />
    <glyph glyph-name="Otilde" unicode="&#xd5;" horiz-adv-x="850" 
d="M301 793l-84 41q45 112 140 112q34 0 77 -22t62 -22q34 0 59 48l84 -40q-19 -54 -54 -83t-80 -29q-32 0 -76 22q-44 23 -64 23q-35 0 -64 -50zM41 367q0 161 111 273q112 112 273 112t272 -112q112 -112 112 -271t-112 -270q-111 -111 -274 -111q-164 0 -273 109
t-109 270zM667 369q0 106 -71 177t-171 71q-101 0 -172 -71q-70 -70 -70 -177t69 -177q70 -70 173 -70t173 70t69 177z" />
    <glyph glyph-name="Odieresis" unicode="&#xd6;" horiz-adv-x="850" 
d="M326 799q-33 0 -55.5 22t-22.5 56q0 32 22.5 54t55.5 22q32 0 54.5 -22t22.5 -54q0 -33 -22.5 -55.5t-54.5 -22.5zM453 877q0 31 23 53.5t55 22.5q33 0 55 -22t22 -54q0 -34 -22 -56t-55 -22t-55.5 22t-22.5 56zM41 367q0 161 111 273q112 112 273 112t272 -112
q112 -112 112 -271t-112 -270q-111 -111 -274 -111q-164 0 -273 109t-109 270zM667 369q0 106 -71 177t-171 71q-101 0 -172 -71q-70 -70 -70 -177t69 -177q70 -70 173 -70t173 70t69 177z" />
    <glyph glyph-name="multiply" unicode="&#xd7;" horiz-adv-x="547" 
d="M419 566l82 -78l-149 -149l148 -148l-78 -82l-149 150l-150 -150l-77 82l147 148l-146 147l76 81l149 -149z" />
    <glyph glyph-name="Oslash" unicode="&#xd8;" horiz-adv-x="850" 
d="M753 738l-63 -90q119 -114 119 -279q0 -159 -112 -270q-111 -111 -274 -111q-90 0 -171 38l-59 -83l-81 55l58 82q-129 113 -129 287q0 161 111 273q112 112 273 112q100 0 186 -47l62 88zM183 369q0 -103 68 -174l281 398q-52 24 -107 24q-101 0 -172 -71
q-70 -70 -70 -177zM425 122q103 0 173 70t69 177q0 96 -58 164l-277 -393q42 -18 93 -18z" />
    <glyph glyph-name="Ugrave" unicode="&#xd9;" horiz-adv-x="720" 
d="M366 975l64 -180h-121l-97 180h154zM360 -13q-123 0 -203 71q-80 72 -80 207v474h137v-462q0 -76 38.5 -116.5t107.5 -40.5q68 0 107 41t39 116v462h138v-474q0 -135 -80 -207q-80 -71 -204 -71z" />
    <glyph glyph-name="Uacute" unicode="&#xda;" horiz-adv-x="720" 
d="M416 794h-120l64 179h151zM360 -13q-123 0 -203 71q-80 72 -80 207v474h137v-462q0 -76 38.5 -116.5t107.5 -40.5q68 0 107 41t39 116v462h138v-474q0 -135 -80 -207q-80 -71 -204 -71z" />
    <glyph glyph-name="Ucircumflex" unicode="&#xdb;" horiz-adv-x="720" 
d="M291 794h-130l150 178h100l151 -178h-134l-68 90zM360 -13q-123 0 -203 71q-80 72 -80 207v474h137v-462q0 -76 38.5 -116.5t107.5 -40.5q68 0 107 41t39 116v462h138v-474q0 -135 -80 -207q-80 -71 -204 -71z" />
    <glyph glyph-name="Udieresis" unicode="&#xdc;" horiz-adv-x="720" 
d="M179 877q0 32 22.5 54t55.5 22q32 0 54.5 -22t22.5 -54q0 -33 -22 -55.5t-55 -22.5t-55.5 22t-22.5 56zM384 877q0 31 23 53.5t55 22.5q33 0 55 -22t22 -54q0 -34 -22 -56t-55 -22t-55.5 22t-22.5 56zM360 -13q-123 0 -203 71q-80 72 -80 207v474h137v-462
q0 -76 38.5 -116.5t107.5 -40.5q68 0 107 41t39 116v462h138v-474q0 -135 -80 -207q-80 -71 -204 -71z" />
    <glyph glyph-name="Yacute" unicode="&#xdd;" horiz-adv-x="670" 
d="M389 794h-120l64 179h151zM501 739h157l-255 -480v-259h-137v259l-253 480h158l163 -336z" />
    <glyph glyph-name="Thorn" unicode="&#xde;" horiz-adv-x="645" 
d="M221 617h134q125 0 189 -70t64 -169q0 -100 -67 -168q-66 -68 -196 -68h-124v-142h-136v739h136v-122zM221 268h126q58 0 89.5 32t31.5 80q0 47 -29.5 78t-81.5 31h-136v-221z" />
    <glyph glyph-name="germandbls" unicode="&#xdf;" horiz-adv-x="661" 
d="M494 396q60 -20 95.5 -72t35.5 -119q0 -97 -72 -161q-72 -63 -181 -63q-65 0 -125 23l28 112q32 -16 85 -16q59 0 96 33t37 82q0 54 -47 85t-124 31v104q59 0 96.5 33.5t37.5 83.5q0 45 -32.5 75t-83.5 30q-66 0 -104 -51t-38 -143v-640h-132v661q0 76 24.5 136t66.5 94
q84 66 188 66q108 0 175 -61q69 -62 69 -154q0 -54 -24.5 -98t-70.5 -71z" />
    <glyph glyph-name="agrave" unicode="&#xe0;" horiz-adv-x="675" 
d="M334 800l61 -174h-115l-94 174h148zM483 474v69h124v-543h-124v67q-71 -80 -177 -80q-117 0 -193 82t-76 205t76 202q77 80 193 80q104 0 177 -82zM486 272q0 69 -45 117t-115 48t-115 -48q-44 -49 -44 -117q0 -69 44 -118q45 -48 115 -48t115 48t45 118z" />
    <glyph glyph-name="aacute" unicode="&#xe1;" horiz-adv-x="675" 
d="M338 799h147l-93 -174h-116zM483 474v69h124v-543h-124v67q-71 -80 -177 -80q-117 0 -193 82t-76 205t76 202q77 80 193 80q104 0 177 -82zM486 272q0 69 -45 117t-115 48t-115 -48q-44 -49 -44 -117q0 -69 44 -118q45 -48 115 -48t115 48t45 118z" />
    <glyph glyph-name="acircumflex" unicode="&#xe2;" horiz-adv-x="675" 
d="M401 625l-66 87l-67 -87h-126l146 173h97l146 -173h-130zM483 474v69h124v-543h-124v67q-71 -80 -177 -80q-117 0 -193 82t-76 205t76 202q77 80 193 80q104 0 177 -82zM486 272q0 69 -45 117t-115 48t-115 -48q-44 -49 -44 -117q0 -69 44 -118q45 -48 115 -48t115 48
t45 118z" />
    <glyph glyph-name="atilde" unicode="&#xe3;" horiz-adv-x="675" 
d="M276 673q-36 0 -63 -49l-83 40q45 110 138 110q32 0 75 -22q43 -21 61 -21q32 0 58 47l82 -39q-39 -110 -131 -110q-31 0 -74 22t-63 22zM483 474v69h124v-543h-124v67q-71 -80 -177 -80q-117 0 -193 82t-76 205t76 202q77 80 193 80q104 0 177 -82zM486 272
q0 69 -45 117t-115 48t-115 -48q-44 -49 -44 -117q0 -69 44 -118q45 -48 115 -48t115 48t45 118z" />
    <glyph glyph-name="adieresis" unicode="&#xe4;" horiz-adv-x="675" 
d="M152 698q0 33 23.5 56t57.5 23t57 -23t23 -56q0 -35 -23 -58t-57 -23t-57.5 23t-23.5 58zM446 617q-35 0 -58 23t-23 58q0 33 23.5 56t57.5 23t57 -23t23 -56q0 -35 -23 -58t-57 -23zM483 474v69h124v-543h-124v67q-71 -80 -177 -80q-117 0 -193 82t-76 205t76 202
q77 80 193 80q104 0 177 -82zM486 272q0 69 -45 117t-115 48t-115 -48q-44 -49 -44 -117q0 -69 44 -118q45 -48 115 -48t115 48t45 118z" />
    <glyph glyph-name="aring" unicode="&#xe5;" horiz-adv-x="675" 
d="M427 641q-37 -36 -91 -36t-92 36q-37 36 -37 88t37 88q37 37 92 37q54 0 91 -37q38 -36 38 -88t-38 -88zM336 782q-22 0 -37.5 -15t-15.5 -36q0 -23 15.5 -38t37.5 -15q21 0 36.5 15t15.5 38q0 21 -15.5 36t-36.5 15zM483 474v69h124v-543h-124v67q-71 -80 -177 -80
q-117 0 -193 82t-76 205t76 202q77 80 193 80q104 0 177 -82zM486 272q0 69 -45 117t-115 48t-115 -48q-44 -49 -44 -117q0 -69 44 -118q45 -48 115 -48t115 48t45 118z" />
    <glyph glyph-name="ae" unicode="&#xe6;" horiz-adv-x="984" 
d="M950 293q0 -30 -5 -60l-407 1q12 -61 54 -98.5t107 -37.5q92 0 170 57l56 -91q-97 -76 -233 -76q-154 0 -231 113q-73 -114 -225 -114q-97 0 -152 49t-55 127q0 96 85 134q70 31 161 31h132q-22 118 -144 118q-97 0 -164 -48l-47 94q43 28 103.5 46t115.5 18
q140 0 204 -97q78 97 216 97q111 0 185 -69q74 -68 74 -194zM690 448q-57 0 -96.5 -32t-53.5 -88h289q-7 56 -45 88t-94 32zM249 98q60 0 103.5 36.5t55.5 99.5h-131q-124 0 -124 -68q0 -31 26.5 -49.5t69.5 -18.5z" />
    <glyph glyph-name="ccedilla" unicode="&#xe7;" horiz-adv-x="602" 
d="M326 108q45 0 85.5 23.5t60.5 61.5l106 -62q-31 -58 -89 -95.5t-130 -45.5l-15 -38q46 -1 77 -27.5t31 -70.5q0 -50 -38 -84t-104 -34q-58 0 -122 30l30 77q45 -20 81 -20q25 0 39 10.5t14 27.5q0 35 -54 35h-55l-8 26l28 71q-104 20 -164 95q-62 77 -62 184
q0 124 81 204q82 80 210 80q84 0 151.5 -39.5t100.5 -109.5l-106 -57q-52 86 -144 86q-70 0 -117 -47q-46 -46 -46 -117q0 -70 45 -117t114 -47z" />
    <glyph glyph-name="egrave" unicode="&#xe8;" horiz-adv-x="623" 
d="M321 798l61 -174h-115l-94 174h148zM588 283q0 -26 -4 -58h-414q13 -58 55.5 -91.5t110.5 -33.5q99 0 179 56l52 -93q-101 -75 -236 -75q-74 0 -131.5 24t-92.5 64.5t-52.5 90t-17.5 105.5q0 124 78 203q79 81 204 81q117 0 193 -74q76 -73 76 -199zM319 447
q-57 0 -96.5 -33t-52.5 -90h290q-8 57 -46.5 90t-94.5 33z" />
    <glyph glyph-name="eacute" unicode="&#xe9;" horiz-adv-x="623" 
d="M317 799h147l-93 -174h-116zM588 283q0 -26 -4 -58h-414q13 -58 55.5 -91.5t110.5 -33.5q99 0 179 56l52 -93q-101 -75 -236 -75q-74 0 -131.5 24t-92.5 64.5t-52.5 90t-17.5 105.5q0 124 78 203q79 81 204 81q117 0 193 -74q76 -73 76 -199zM319 447q-57 0 -96.5 -33
t-52.5 -90h290q-8 57 -46.5 90t-94.5 33z" />
    <glyph glyph-name="ecircumflex" unicode="&#xea;" horiz-adv-x="623" 
d="M385 628l-66 87l-67 -87h-126l146 173h97l146 -173h-130zM588 283q0 -26 -4 -58h-414q13 -58 55.5 -91.5t110.5 -33.5q99 0 179 56l52 -93q-101 -75 -236 -75q-74 0 -131.5 24t-92.5 64.5t-52.5 90t-17.5 105.5q0 124 78 203q79 81 204 81q117 0 193 -74q76 -73 76 -199z
M319 447q-57 0 -96.5 -33t-52.5 -90h290q-8 57 -46.5 90t-94.5 33z" />
    <glyph glyph-name="edieresis" unicode="&#xeb;" horiz-adv-x="623" 
d="M142 693q0 33 23.5 56t57.5 23t57 -23t23 -56q0 -35 -23 -58t-57 -23t-57.5 23t-23.5 58zM436 612q-35 0 -58 23t-23 58q0 33 23.5 56t57.5 23t57 -23t23 -56q0 -35 -23 -58t-57 -23zM588 283q0 -26 -4 -58h-414q13 -58 55.5 -91.5t110.5 -33.5q99 0 179 56l52 -93
q-101 -75 -236 -75q-74 0 -131.5 24t-92.5 64.5t-52.5 90t-17.5 105.5q0 124 78 203q79 81 204 81q117 0 193 -74q76 -73 76 -199zM319 447q-57 0 -96.5 -33t-52.5 -90h290q-8 57 -46.5 90t-94.5 33z" />
    <glyph glyph-name="igrave" unicode="&#xec;" horiz-adv-x="265" 
d="M133 798l61 -174h-115l-94 174h148zM199 543v-543h-131v543h131z" />
    <glyph glyph-name="iacute" unicode="&#xed;" horiz-adv-x="261" 
d="M188 625h-116l62 174h147zM197 543v-543h-131v543h131z" />
    <glyph glyph-name="icircumflex" unicode="&#xee;" 
d="M65 625h-126l146 173h97l146 -173h-130l-66 87zM199 543v-543h-131v543h131z" />
    <glyph glyph-name="idieresis" unicode="&#xef;" 
d="M-54 696q0 33 23.5 56t57.5 23t57 -23t23 -56q0 -35 -23 -58t-57 -23t-57.5 23t-23.5 58zM240 615q-35 0 -58 23t-23 58q0 33 23.5 56t57.5 23t57 -23t23 -56q0 -35 -23 -58t-57 -23zM199 543v-543h-131v543h131z" />
    <glyph glyph-name="eth" unicode="&#xf0;" horiz-adv-x="655" 
d="M567 749l-82 -58q128 -166 128 -345q0 -154 -87 -257q-85 -102 -221 -102q-117 0 -194 75q-75 76 -75 188q0 110 75 184q77 74 181 74q59 0 109 -28t80 -79q-20 114 -93 211l-6 7l-88 -62l-50 64l84 59q-52 52 -101 88l92 87q61 -47 113 -102l87 61zM312 104q62 0 105 43
t43 108q0 62 -43 104q-42 42 -103 42q-63 0 -105 -43q-42 -44 -42 -106q0 -61 41 -105q40 -43 104 -43z" />
    <glyph glyph-name="ntilde" unicode="&#xf1;" horiz-adv-x="637" 
d="M200 623l-83 40q45 110 138 110q33 0 76 -22q43 -21 60 -21q32 0 58 47l82 -39q-39 -110 -131 -110q-31 0 -74 22t-63 22q-36 0 -63 -49zM196 0h-130v543h128v-76q22 42 67 66t104 24q89 0 151 -59t62 -167v-331h-131v295q0 67 -32 105t-87 38q-58 0 -95 -40.5
t-37 -104.5v-293z" />
    <glyph glyph-name="ograve" unicode="&#xf2;" horiz-adv-x="652" 
d="M328 798l61 -174h-115l-94 174h148zM36 272q0 120 81 202q83 83 209 83q127 0 208 -83q82 -82 82 -202q0 -122 -82 -204q-81 -82 -208 -82t-209 82q-81 82 -81 204zM485 272q0 69 -46 116q-47 48 -113 48t-113 -48q-46 -47 -46 -116q0 -70 46 -117q47 -48 113 -48t113 48
q46 47 46 117z" />
    <glyph glyph-name="oacute" unicode="&#xf3;" horiz-adv-x="652" 
d="M376 625h-116l62 174h147zM36 272q0 120 81 202q83 83 209 83q127 0 208 -83q82 -82 82 -202q0 -122 -82 -204q-81 -82 -208 -82t-209 82q-81 82 -81 204zM485 272q0 69 -46 116q-47 48 -113 48t-113 -48q-46 -47 -46 -116q0 -70 46 -117q47 -48 113 -48t113 48
q46 47 46 117z" />
    <glyph glyph-name="ocircumflex" unicode="&#xf4;" horiz-adv-x="652" 
d="M258 628h-126l146 173h97l146 -173h-130l-66 87zM36 272q0 120 81 202q83 83 209 83q127 0 208 -83q82 -82 82 -202q0 -122 -82 -204q-81 -82 -208 -82t-209 82q-81 82 -81 204zM485 272q0 69 -46 116q-47 48 -113 48t-113 -48q-46 -47 -46 -116q0 -70 46 -117
q47 -48 113 -48t113 48q46 47 46 117z" />
    <glyph glyph-name="otilde" unicode="&#xf5;" horiz-adv-x="652" 
d="M204 624l-83 40q45 110 138 110q33 0 76 -22q43 -21 60 -21q32 0 58 47l82 -39q-39 -110 -131 -110q-31 0 -74 22t-63 22q-36 0 -63 -49zM36 272q0 120 81 202q83 83 209 83q127 0 208 -83q82 -82 82 -202q0 -122 -82 -204q-81 -82 -208 -82t-209 82q-81 82 -81 204z
M485 272q0 69 -46 116q-47 48 -113 48t-113 -48q-46 -47 -46 -116q0 -70 46 -117q47 -48 113 -48t113 48q46 47 46 117z" />
    <glyph glyph-name="odieresis" unicode="&#xf6;" horiz-adv-x="652" 
d="M140 697q0 33 23.5 56t57.5 23t57 -23t23 -56q0 -35 -23 -58t-57 -23t-57.5 23t-23.5 58zM434 616q-35 0 -58 23t-23 58q0 33 23.5 56t57.5 23t57 -23t23 -56q0 -35 -23 -58t-57 -23zM36 272q0 120 81 202q83 83 209 83q127 0 208 -83q82 -82 82 -202q0 -122 -82 -204
q-81 -82 -208 -82t-209 82q-81 82 -81 204zM485 272q0 69 -46 116q-47 48 -113 48t-113 -48q-46 -47 -46 -116q0 -70 46 -117q47 -48 113 -48t113 48q46 47 46 117z" />
    <glyph glyph-name="divide" unicode="&#xf7;" horiz-adv-x="552" 
d="M276 449q-33 0 -54.5 21t-21.5 54q0 31 22 52t54 21q31 0 52 -21t21 -52q0 -33 -21 -54t-52 -21zM508 283h-463v112h463v-112zM276 83q-33 0 -54.5 21t-21.5 54q0 31 22 52t54 21q31 0 52 -21t21 -52q0 -33 -21 -54t-52 -21z" />
    <glyph glyph-name="oslash" unicode="&#xf8;" horiz-adv-x="652" 
d="M571 561l-51 -73q96 -82 96 -216q0 -122 -82 -204q-81 -82 -208 -82q-72 0 -132 29l-55 -79l-61 42l53 78q-95 83 -95 216q0 120 81 202q83 83 209 83q73 0 130 -28l50 73zM167 272q0 -62 38 -109l179 262q-28 11 -58 11q-66 0 -113 -48q-46 -47 -46 -116zM326 107
q66 0 113 48q46 47 46 117q0 62 -39 108l-181 -261q29 -12 61 -12z" />
    <glyph glyph-name="ugrave" unicode="&#xf9;" horiz-adv-x="609" 
d="M309 799l61 -174h-115l-94 174h148zM304 -13q-114 0 -179.5 63.5t-65.5 176.5v316h131v-316q0 -55 30.5 -88t83.5 -33q54 0 84.5 33t30.5 88v316h131v-316q0 -113 -65.5 -176.5t-180.5 -63.5z" />
    <glyph glyph-name="uacute" unicode="&#xfa;" horiz-adv-x="609" 
d="M358 625h-116l62 174h147zM304 -13q-114 0 -179.5 63.5t-65.5 176.5v316h131v-316q0 -55 30.5 -88t83.5 -33q54 0 84.5 33t30.5 88v316h131v-316q0 -113 -65.5 -176.5t-180.5 -63.5z" />
    <glyph glyph-name="ucircumflex" unicode="&#xfb;" horiz-adv-x="609" 
d="M238 626h-126l146 173h97l146 -173h-130l-66 87zM304 -13q-114 0 -179.5 63.5t-65.5 176.5v316h131v-316q0 -55 30.5 -88t83.5 -33q54 0 84.5 33t30.5 88v316h131v-316q0 -113 -65.5 -176.5t-180.5 -63.5z" />
    <glyph glyph-name="udieresis" unicode="&#xfc;" horiz-adv-x="609" 
d="M118 696q0 33 23.5 56t57.5 23t57 -23t23 -56q0 -35 -23 -58t-57 -23t-57.5 23t-23.5 58zM412 615q-35 0 -58 23t-23 58q0 33 23.5 56t57.5 23t57 -23t23 -56q0 -35 -23 -58t-57 -23zM304 -13q-114 0 -179.5 63.5t-65.5 176.5v316h131v-316q0 -55 30.5 -88t83.5 -33
q54 0 84.5 33t30.5 88v316h131v-316q0 -113 -65.5 -176.5t-180.5 -63.5z" />
    <glyph glyph-name="yacute" unicode="&#xfd;" horiz-adv-x="588" 
d="M294 798h147l-93 -174h-116zM307 176l129 367h142l-220 -578q-40 -101 -92.5 -148.5t-128.5 -47.5q-62 0 -100 26l21 110q38 -18 69 -18q66 0 106 88l13 30l-237 538h151z" />
    <glyph glyph-name="thorn" unicode="&#xfe;" horiz-adv-x="678" 
d="M368 556q118 0 196 -83t78 -201q0 -120 -78 -202q-78 -83 -194 -83q-100 0 -174 83v-293h-130v983h129v-287q74 83 173 83zM350 106q71 0 115 47q44 49 44 118t-45 117q-44 48 -114 48t-114 -48q-44 -49 -44 -117q0 -69 44 -118q44 -47 114 -47z" />
    <glyph glyph-name="ydieresis" unicode="&#xff;" horiz-adv-x="588" 
d="M113 697q0 33 23.5 56t57.5 23t57 -23t23 -56q0 -35 -23 -58t-57 -23t-57.5 23t-23.5 58zM407 616q-35 0 -58 23t-23 58q0 33 23.5 56t57.5 23t57 -23t23 -56q0 -35 -23 -58t-57 -23zM307 176l129 367h142l-220 -578q-40 -101 -92.5 -148.5t-128.5 -47.5q-62 0 -100 26
l21 110q38 -18 69 -18q66 0 106 88l13 30l-237 538h151z" />
    <glyph glyph-name="Amacron" unicode="&#x100;" horiz-adv-x="691" 
d="M166 923h362v-113l-362 -1v114zM682 0h-145l-61 168h-262l-61 -168h-145l286 739h105zM437 291l-91 253l-92 -253h183z" />
    <glyph glyph-name="amacron" unicode="&#x101;" horiz-adv-x="675" 
d="M174 750h323v-113l-323 -1v114zM483 474v69h124v-543h-124v67q-71 -80 -177 -80q-117 0 -193 82t-76 205t76 202q77 80 193 80q104 0 177 -82zM486 272q0 69 -45 117t-115 48t-115 -48q-44 -49 -44 -117q0 -69 44 -118q45 -48 115 -48t115 48t45 118z" />
    <glyph glyph-name="Abreve" unicode="&#x102;" horiz-adv-x="691" 
d="M156 970h108q2 -43 23.5 -67t59.5 -24t59.5 24.5t22.5 66.5h109q-4 -86 -55.5 -135t-135.5 -49t-135.5 49t-55.5 135zM682 0h-145l-61 168h-262l-61 -168h-145l286 739h105zM437 291l-91 253l-92 -253h183z" />
    <glyph glyph-name="abreve" unicode="&#x103;" horiz-adv-x="675" 
d="M150 800h105q2 -42 23 -65.5t57 -23.5q37 0 58 24t22 65h106q-4 -83 -54 -131t-132 -48q-81 0 -131 48t-54 131zM483 474v69h124v-543h-124v67q-71 -80 -177 -80q-117 0 -193 82t-76 205t76 202q77 80 193 80q104 0 177 -82zM486 272q0 69 -45 117t-115 48t-115 -48
q-44 -49 -44 -117q0 -69 44 -118q45 -48 115 -48t115 48t45 118z" />
    <glyph glyph-name="Aogonek" unicode="&#x104;" horiz-adv-x="688" 
d="M664 -148l33 -86q-52 -29 -104 -29q-56 0 -89 31.5t-33 82.5q0 84 101 149h-35l-61 168h-262l-61 -168h-145l286 739h105l283 -739q-43 -21 -72.5 -54t-29.5 -63q0 -19 12 -31t30 -12q20 0 42 12zM437 291l-91 253l-92 -253h183z" />
    <glyph glyph-name="aogonek" unicode="&#x105;" horiz-adv-x="670" 
d="M590 -148l33 -86q-52 -29 -104 -29q-56 0 -89 31.5t-33 82.5q0 84 101 149h-15v67q-71 -80 -177 -80q-117 0 -193 82t-76 205t76 202q77 80 193 80q104 0 177 -82v69h124v-543h1q-43 -21 -72.5 -54t-29.5 -63q0 -19 12 -31t30 -12q20 0 42 12zM486 272q0 69 -45 117
t-115 48t-115 -48q-44 -49 -44 -117q0 -69 44 -118q45 -48 115 -48t115 48t45 118z" />
    <glyph glyph-name="Cacute" unicode="&#x106;" horiz-adv-x="768" 
d="M489 794h-120l64 179h151zM422 -11q-162 0 -271 105q-109 106 -109 273q0 168 111 276q112 109 271 109q98 0 183.5 -42t134.5 -113l-93 -89q-90 112 -219 112q-104 0 -176 -72q-71 -73 -71 -181q0 -107 70 -177t176 -70q136 0 223 112l95 -86q-53 -71 -139 -114
t-186 -43z" />
    <glyph glyph-name="cacute" unicode="&#x107;" horiz-adv-x="602" 
d="M380 625h-116l62 174h147zM324 -12q-125 0 -207 80q-80 80 -80 204t81 204q82 80 210 80q84 0 151.5 -39.5t100.5 -109.5l-106 -57q-52 86 -144 86q-70 0 -117 -47q-46 -46 -46 -117q0 -70 45 -117t114 -47q45 0 85.5 23.5t60.5 61.5l106 -62q-36 -66 -103.5 -104.5
t-150.5 -38.5z" />
    <glyph glyph-name="Ccircumflex" unicode="&#x108;" horiz-adv-x="768" 
d="M348 794h-130l150 178h100l151 -178h-134l-68 90zM422 -11q-162 0 -271 105q-109 106 -109 273q0 168 111 276q112 109 271 109q98 0 183.5 -42t134.5 -113l-93 -89q-90 112 -219 112q-104 0 -176 -72q-71 -73 -71 -181q0 -107 70 -177t176 -70q136 0 223 112l95 -86
q-53 -71 -139 -114t-186 -43z" />
    <glyph glyph-name="ccircumflex" unicode="&#x109;" horiz-adv-x="602" 
d="M256 626h-126l146 173h97l146 -173h-130l-66 87zM324 -12q-125 0 -207 80q-80 80 -80 204t81 204q82 80 210 80q84 0 151.5 -39.5t100.5 -109.5l-106 -57q-52 86 -144 86q-70 0 -117 -47q-46 -46 -46 -117q0 -70 45 -117t114 -47q45 0 85.5 23.5t60.5 61.5l106 -62
q-36 -66 -103.5 -104.5t-150.5 -38.5z" />
    <glyph glyph-name="Cdotaccent" unicode="&#x10a;" horiz-adv-x="768" 
d="M421 796q-36 0 -60 23t-24 59q0 35 24.5 58.5t59.5 23.5t58.5 -23.5t23.5 -58.5q0 -36 -23.5 -59t-58.5 -23zM422 -11q-162 0 -271 105q-109 106 -109 273q0 168 111 276q112 109 271 109q98 0 183.5 -42t134.5 -113l-93 -89q-90 112 -219 112q-104 0 -176 -72
q-71 -73 -71 -181q0 -107 70 -177t176 -70q136 0 223 112l95 -86q-53 -71 -139 -114t-186 -43z" />
    <glyph glyph-name="cdotaccent" unicode="&#x10b;" horiz-adv-x="602" 
d="M325 609q-36 0 -60 23t-24 59q0 35 24.5 58.5t59.5 23.5t58.5 -23.5t23.5 -58.5q0 -36 -23.5 -59t-58.5 -23zM324 -12q-125 0 -207 80q-80 80 -80 204t81 204q82 80 210 80q84 0 151.5 -39.5t100.5 -109.5l-106 -57q-52 86 -144 86q-70 0 -117 -47q-46 -46 -46 -117
q0 -70 45 -117t114 -47q45 0 85.5 23.5t60.5 61.5l106 -62q-36 -66 -103.5 -104.5t-150.5 -38.5z" />
    <glyph glyph-name="Ccaron" unicode="&#x10c;" horiz-adv-x="768" 
d="M375 795l-146 173h126l67 -87l66 87h130l-146 -173h-97zM422 -11q-162 0 -271 105q-109 106 -109 273q0 168 111 276q112 109 271 109q98 0 183.5 -42t134.5 -113l-93 -89q-90 112 -219 112q-104 0 -176 -72q-71 -73 -71 -181q0 -107 70 -177t176 -70q136 0 223 112
l95 -86q-53 -71 -139 -114t-186 -43z" />
    <glyph glyph-name="ccaron" unicode="&#x10d;" horiz-adv-x="602" 
d="M278 625l-146 173h126l67 -87l66 87h130l-146 -173h-97zM324 -12q-125 0 -207 80q-80 80 -80 204t81 204q82 80 210 80q84 0 151.5 -39.5t100.5 -109.5l-106 -57q-52 86 -144 86q-70 0 -117 -47q-46 -46 -46 -117q0 -70 45 -117t114 -47q45 0 85.5 23.5t60.5 61.5
l106 -62q-36 -66 -103.5 -104.5t-150.5 -38.5z" />
    <glyph glyph-name="Dcaron" unicode="&#x10e;" horiz-adv-x="767" 
d="M303 795l-146 173h126l67 -87l66 87h130l-146 -173h-97zM364 0h-279v739h285q164 0 258 -100q94 -98 94 -271q0 -170 -96 -269q-94 -99 -262 -99zM221 608v-477h148q99 0 155 68t56 172q0 102 -55 169q-56 68 -155 68h-149z" />
    <glyph glyph-name="dcaron" unicode="&#x10f;" horiz-adv-x="705" 
d="M644 624l62 177h138l-90 -177h-110zM477 474v286h130v-760h-127v71q-67 -84 -173 -84q-117 0 -193 81q-77 83 -77 204q0 119 77 202q78 82 192 82q104 0 171 -82zM325 106q71 0 115 48q44 49 44 118t-45 117q-43 48 -114 48t-114 -48q-44 -49 -44 -117q0 -69 44 -118
q43 -48 114 -48z" />
    <glyph glyph-name="Dcroat" unicode="&#x110;" horiz-adv-x="784" 
d="M102 739h285q164 0 258 -100q94 -98 94 -271q0 -170 -96 -269q-95 -99 -262 -99h-279v314h-87v112h87v313zM238 131h148q99 0 155 68t56 172q0 102 -55 169q-56 68 -155 68h-149v-182h196v-112h-196v-183z" />
    <glyph glyph-name="dslash" unicode="&#x111;" horiz-adv-x="675" 
d="M607 677h78v-84h-78v-593h-127v71q-67 -84 -173 -84q-117 0 -193 81q-77 83 -77 204q0 119 77 202q78 82 192 82q104 0 171 -82v119h-145v84h145v83h130v-83zM325 106q71 0 115 48q44 49 44 118t-45 117q-43 48 -114 48t-114 -48q-44 -49 -44 -117q0 -69 44 -118
q43 -48 114 -48z" />
    <glyph glyph-name="Emacron" unicode="&#x112;" horiz-adv-x="630" 
d="M515 809l-362 -1v114h362v-113zM576 0h-491v739h491v-128h-354v-174h327v-127h-327v-182h354v-128z" />
    <glyph glyph-name="emacron" unicode="&#x113;" horiz-adv-x="623" 
d="M155 750h323v-113l-323 -1v114zM588 283q0 -26 -4 -58h-414q13 -58 55.5 -91.5t110.5 -33.5q99 0 179 56l52 -93q-101 -75 -236 -75q-74 0 -131.5 24t-92.5 64.5t-52.5 90t-17.5 105.5q0 124 78 203q79 81 204 81q117 0 193 -74q76 -73 76 -199zM319 447q-57 0 -96.5 -33
t-52.5 -90h290q-8 57 -46.5 90t-94.5 33z" />
    <glyph glyph-name="Ebreve" unicode="&#x114;" horiz-adv-x="630" 
d="M146 970h108q2 -43 23.5 -67t59.5 -24t59.5 24.5t22.5 66.5h109q-4 -86 -55.5 -135t-135.5 -49t-135.5 49t-55.5 135zM576 0h-491v739h491v-128h-354v-174h327v-127h-327v-182h354v-128z" />
    <glyph glyph-name="ebreve" unicode="&#x115;" horiz-adv-x="623" 
d="M137 798h105q2 -42 23 -65.5t57 -23.5q37 0 58 24t22 65h106q-4 -83 -54 -131t-132 -48q-81 0 -131 48t-54 131zM588 283q0 -26 -4 -58h-414q13 -58 55.5 -91.5t110.5 -33.5q99 0 179 56l52 -93q-101 -75 -236 -75q-74 0 -131.5 24t-92.5 64.5t-52.5 90t-17.5 105.5
q0 124 78 203q79 81 204 81q117 0 193 -74q76 -73 76 -199zM319 447q-57 0 -96.5 -33t-52.5 -90h290q-8 57 -46.5 90t-94.5 33z" />
    <glyph glyph-name="Edotaccent" unicode="&#x116;" horiz-adv-x="630" 
d="M333 796q-36 0 -60 23t-24 59q0 35 24.5 58.5t59.5 23.5t58.5 -23.5t23.5 -58.5q0 -36 -23.5 -59t-58.5 -23zM576 0h-491v739h491v-128h-354v-174h327v-127h-327v-182h354v-128z" />
    <glyph glyph-name="edotaccent" unicode="&#x117;" horiz-adv-x="623" 
d="M325 611q-36 0 -60 23t-24 59q0 35 24.5 58.5t59.5 23.5t58.5 -23.5t23.5 -58.5q0 -36 -23.5 -59t-58.5 -23zM588 283q0 -26 -4 -58h-414q13 -58 55.5 -91.5t110.5 -33.5q99 0 179 56l52 -93q-101 -75 -236 -75q-74 0 -131.5 24t-92.5 64.5t-52.5 90t-17.5 105.5
q0 124 78 203q79 81 204 81q117 0 193 -74q76 -73 76 -199zM319 447q-57 0 -96.5 -33t-52.5 -90h290q-8 57 -46.5 90t-94.5 33z" />
    <glyph glyph-name="Eogonek" unicode="&#x118;" horiz-adv-x="626" 
d="M558 -148l33 -86q-52 -29 -104 -29q-56 0 -89 31.5t-33 82.5q0 84 101 149h-381v739h491v-128h-354v-174h327v-127h-327v-182h354v-128q-43 -21 -72.5 -54t-29.5 -63q0 -19 12 -31t30 -12q20 0 42 12z" />
    <glyph glyph-name="eogonek" unicode="&#x119;" horiz-adv-x="622" 
d="M588 283q0 -26 -4 -58h-414q13 -58 55.5 -91.5t110.5 -33.5q99 0 179 56l52 -93q-55 -39 -121 -58q-44 -21 -72.5 -54t-28.5 -63q0 -19 12 -31t30 -12q19 0 42 12l33 -86q-52 -29 -104 -29q-56 0 -89 31.5t-33 82.5q0 73 77 132q-92 5 -156 46q-120 80 -120 238
q0 124 78 203q79 81 204 81q117 0 193 -74q76 -73 76 -199zM319 447q-57 0 -96.5 -33t-52.5 -90h290q-8 57 -46.5 90t-94.5 33z" />
    <glyph glyph-name="Ecaron" unicode="&#x11a;" horiz-adv-x="630" 
d="M287 795l-146 173h126l67 -87l66 87h130l-146 -173h-97zM576 0h-491v739h491v-128h-354v-174h327v-127h-327v-182h354v-128z" />
    <glyph glyph-name="ecaron" unicode="&#x11b;" horiz-adv-x="623" 
d="M516 798l-146 -173h-97l-146 173h126l67 -87l66 87h130zM588 283q0 -26 -4 -58h-414q13 -58 55.5 -91.5t110.5 -33.5q99 0 179 56l52 -93q-101 -75 -236 -75q-74 0 -131.5 24t-92.5 64.5t-52.5 90t-17.5 105.5q0 124 78 203q79 81 204 81q117 0 193 -74q76 -73 76 -199z
M319 447q-57 0 -96.5 -33t-52.5 -90h290q-8 57 -46.5 90t-94.5 33z" />
    <glyph glyph-name="Gcircumflex" unicode="&#x11c;" horiz-adv-x="810" 
d="M362 796h-130l150 178h100l151 -178h-134l-68 90zM425 -11q-166 0 -276 107q-108 108 -108 273q0 167 113 275q112 108 277 108q88 0 168.5 -34t131.5 -90l-91 -96q-85 88 -209 88q-106 0 -179 -71q-71 -71 -71 -179q0 -107 70 -178q71 -72 178 -72q59 0 114.5 23
t92.5 62v112h-214v120h340v-299q-141 -149 -337 -149z" />
    <glyph glyph-name="gcircumflex" unicode="&#x11d;" horiz-adv-x="673" 
d="M389 625l-66 87l-67 -87h-126l146 173h97l146 -173h-130zM485 478v65h122v-489q0 -130 -83 -207t-216 -77q-138 0 -247 78l53 99q91 -64 191 -64q82 0 129 43.5t47 114.5v32q-66 -74 -173 -74q-119 0 -195 79t-76 199q0 122 79 200q79 79 197 79q105 0 172 -78zM327 113
q68 0 113 46q45 47 45 117t-45 115q-45 46 -113 46q-69 0 -114 -46q-45 -45 -45 -115t45 -117q45 -46 114 -46z" />
    <glyph glyph-name="Gbreve" unicode="&#x11e;" horiz-adv-x="810" 
d="M237 972h108q2 -43 23.5 -67t59.5 -24t59.5 24.5t22.5 66.5h109q-4 -86 -55.5 -135t-135.5 -49t-135.5 49t-55.5 135zM425 -11q-166 0 -276 107q-108 108 -108 273q0 167 113 275q112 108 277 108q88 0 168.5 -34t131.5 -90l-91 -96q-85 88 -209 88q-106 0 -179 -71
q-71 -71 -71 -179q0 -107 70 -178q71 -72 178 -72q59 0 114.5 23t92.5 62v112h-214v120h340v-299q-141 -149 -337 -149z" />
    <glyph glyph-name="gbreve" unicode="&#x11f;" horiz-adv-x="673" 
d="M135 800h105q2 -42 23 -65.5t57 -23.5q37 0 58 24t22 65h106q-4 -83 -54 -131t-132 -48q-81 0 -131 48t-54 131zM485 478v65h122v-489q0 -130 -83 -207t-216 -77q-138 0 -247 78l53 99q91 -64 191 -64q82 0 129 43.5t47 114.5v32q-66 -74 -173 -74q-119 0 -195 79
t-76 199q0 122 79 200q79 79 197 79q105 0 172 -78zM327 113q68 0 113 46q45 47 45 117t-45 115q-45 46 -113 46q-69 0 -114 -46q-45 -45 -45 -115t45 -117q45 -46 114 -46z" />
    <glyph glyph-name="Gdotaccent" unicode="&#x120;" horiz-adv-x="810" 
d="M431 795q-36 0 -60 23t-24 59q0 35 24.5 58.5t59.5 23.5t58.5 -23.5t23.5 -58.5q0 -36 -23.5 -59t-58.5 -23zM425 -11q-166 0 -276 107q-108 108 -108 273q0 167 113 275q112 108 277 108q88 0 168.5 -34t131.5 -90l-91 -96q-85 88 -209 88q-106 0 -179 -71
q-71 -71 -71 -179q0 -107 70 -178q71 -72 178 -72q59 0 114.5 23t92.5 62v112h-214v120h340v-299q-141 -149 -337 -149z" />
    <glyph glyph-name="gdotaccent" unicode="&#x121;" horiz-adv-x="673" 
d="M324 612q-36 0 -60 23t-24 59q0 35 24.5 58.5t59.5 23.5t58.5 -23.5t23.5 -58.5q0 -36 -23.5 -59t-58.5 -23zM485 478v65h122v-489q0 -130 -83 -207t-216 -77q-138 0 -247 78l53 99q91 -64 191 -64q82 0 129 43.5t47 114.5v32q-66 -74 -173 -74q-119 0 -195 79t-76 199
q0 122 79 200q79 79 197 79q105 0 172 -78zM327 113q68 0 113 46q45 47 45 117t-45 115q-45 46 -113 46q-69 0 -114 -46q-45 -45 -45 -115t45 -117q45 -46 114 -46z" />
    <glyph glyph-name="Gcommaaccent" unicode="&#x122;" horiz-adv-x="810" 
d="M422 317v120h340v-299q-141 -149 -337 -149q-166 0 -276 107q-108 108 -108 273q0 167 113 275q112 108 277 108q88 0 168.5 -34t131.5 -90l-91 -96q-85 88 -209 88q-106 0 -179 -71q-71 -71 -71 -179q0 -107 70 -178q71 -72 178 -72q59 0 114.5 23t92.5 62v112h-214z
M512 -127q0 -88 -143 -185l-44 58q57 42 81 68q-24 4 -41 24.5t-17 45.5q0 31 24 54t57 23q34 0 58.5 -25t24.5 -63z" />
    <glyph glyph-name="gcommaaccent" unicode="&#x123;" horiz-adv-x="673" 
d="M322 600q-34 0 -58 25t-24 61q0 86 140 182l44 -57q-60 -45 -79 -67q24 -5 40 -24.5t16 -44.5q0 -30 -23 -52.5t-56 -22.5zM485 478v65h122v-489q0 -130 -83 -207t-216 -77q-138 0 -247 78l53 99q91 -64 191 -64q82 0 129 43.5t47 114.5v32q-66 -74 -173 -74
q-119 0 -195 79t-76 199q0 122 79 200q79 79 197 79q105 0 172 -78zM327 113q68 0 113 46q45 47 45 117t-45 115q-45 46 -113 46q-69 0 -114 -46q-45 -45 -45 -115t45 -117q45 -46 114 -46z" />
    <glyph glyph-name="Hcircumflex" unicode="&#x124;" horiz-adv-x="768" 
d="M315 794h-130l150 178h100l151 -178h-134l-68 90zM222 0h-137v739h137v-299h324v299h137v-739h-137v308h-324v-308z" />
    <glyph glyph-name="hcircumflex" unicode="&#x125;" horiz-adv-x="638" 
d="M61 797h-130l150 178h100l151 -178h-134l-68 90zM197 0h-130v760h127v-287q24 38 70 61t102 23q87 0 149 -59t62 -167v-331h-130v296q0 67 -32 104.5t-87 37.5q-58 0 -94.5 -40t-36.5 -104v-294z" />
    <glyph glyph-name="Hbar" unicode="&#x126;" horiz-adv-x="800" 
d="M694 633h83v-97h-83v-536h-137v308h-324v-308h-137v536h-84v97h84v106h137v-106h324v106h137v-106zM233 440h324v96h-324v-96z" />
    <glyph glyph-name="hbar" unicode="&#x127;" horiz-adv-x="638" 
d="M366 557q87 0 149 -59t62 -167v-331h-130v296q0 67 -32 104.5t-87 37.5q-58 0 -94.5 -40t-36.5 -104v-294h-130v594h-65v84h65v82h127v-82h161v-84h-161v-121q24 38 70 61t102 23z" />
    <glyph glyph-name="Itilde" unicode="&#x128;" horiz-adv-x="307" 
d="M27 804l-84 41q45 112 140 112q34 0 77 -22t62 -22q33 0 59 48l84 -40q-19 -54 -54 -83t-80 -29q-32 0 -76 22q-44 23 -64 23q-35 0 -64 -50zM87 0v739h137v-739h-137z" />
    <glyph glyph-name="itilde" unicode="&#x129;" 
d="M9 624l-83 40q45 110 138 110q32 0 75 -22q44 -21 61 -21q32 0 58 47l82 -39q-39 -110 -131 -110q-31 0 -74 22t-63 22q-36 0 -63 -49zM199 543v-543h-131v543h131z" />
    <glyph glyph-name="Imacron" unicode="&#x12a;" horiz-adv-x="307" 
d="M336 821l-362 -1v114h362v-113zM87 0v739h137v-739h-137z" />
    <glyph glyph-name="imacron" unicode="&#x12b;" 
d="M296 638l-323 -1v114h323v-113zM199 543v-543h-131v543h131z" />
    <glyph glyph-name="Ibreve" unicode="&#x12c;" horiz-adv-x="307" 
d="M-36 973h108q2 -43 23.5 -67t59.5 -24t59.5 24.5t22.5 66.5h109q-4 -86 -55.5 -135t-135.5 -49t-135.5 49t-55.5 135zM87 0v739h137v-739h-137z" />
    <glyph glyph-name="ibreve" unicode="&#x12d;" 
d="M-52 799h105q2 -42 23 -65.5t57 -23.5q37 0 58 24t22 65h106q-4 -83 -54 -131t-132 -48q-81 0 -131 48t-54 131zM199 543v-543h-131v543h131z" />
    <glyph glyph-name="Iogonek" unicode="&#x12e;" horiz-adv-x="307" 
d="M205 -148l33 -86q-52 -29 -104 -29q-56 0 -89 31.5t-33 82.5q0 84 101 149h-27v739h137v-739q-43 -21 -72.5 -54t-29.5 -63q0 -19 12 -31t30 -12q19 0 42 12z" />
    <glyph glyph-name="iogonek" unicode="&#x12f;" 
d="M135 608q-36 0 -60 23t-24 59q0 35 24.5 58.5t59.5 23.5t58.5 -23.5t23.5 -58.5q0 -36 -23.5 -59t-58.5 -23zM139 -160q19 0 42 12l33 -86q-52 -29 -104 -29q-56 0 -89 31.5t-33 82.5q0 84 101 149h-21v543h131v-543q-43 -21 -72.5 -54t-29.5 -63q0 -19 12 -31t30 -12z
" />
    <glyph glyph-name="Idot" unicode="&#x130;" horiz-adv-x="307" 
d="M156 793q-36 0 -60 23t-24 59q0 35 24.5 58.5t59.5 23.5t58.5 -23.5t23.5 -58.5q0 -36 -23.5 -59t-58.5 -23zM87 0v739h137v-739h-137z" />
    <glyph glyph-name="dotlessi" unicode="&#x131;" 
d="M197 543v-543h-131v543h131z" />
    <glyph glyph-name="IJ" unicode="&#x132;" horiz-adv-x="880" 
d="M85 0v739h137v-739h-137zM535 -12q-136 0 -225 92l70 106q63 -67 146 -67q66 0 104 41.5t38 113.5v465h137v-471q0 -139 -76 -209q-76 -71 -194 -71z" />
    <glyph glyph-name="ij" unicode="&#x133;" horiz-adv-x="561" 
d="M135 608q-36 0 -60 23t-24 59q0 35 24.5 58.5t59.5 23.5t58.5 -23.5t23.5 -58.5q0 -36 -23.5 -59t-58.5 -23zM411 608q-36 0 -60 23t-24 59q0 35 24.5 58.5t59.5 23.5t58.5 -23.5t23.5 -58.5q0 -36 -23.5 -59t-58.5 -23zM199 543v-543h-131v543h131zM275 -231
q-77 0 -118 26l25 104q45 -15 72 -15q91 0 91 108v551h131v-555q0 -106 -54 -162.5t-147 -56.5z" />
    <glyph glyph-name="Jcircumflex" unicode="&#x134;" horiz-adv-x="575" 
d="M362 794h-130l150 178h100l151 -178h-134l-68 90zM231 -12q-136 0 -225 92l70 106q63 -67 146 -67q66 0 104 41.5t38 113.5v465h137v-471q0 -139 -76 -209q-76 -71 -194 -71z" />
    <glyph glyph-name="jcircumflex" unicode="&#x135;" horiz-adv-x="287" 
d="M86 625h-126l146 173h97l146 -173h-130l-66 87zM20 -231q-77 0 -118 26l25 104q45 -15 72 -15q91 0 91 108v551h131v-555q0 -106 -54 -162.5t-147 -56.5z" />
    <glyph glyph-name="Kcommaaccent" unicode="&#x136;" horiz-adv-x="689" 
d="M680 739l-276 -338l297 -401h-168l-219 301l-93 -113v-188h-136v739h136v-363l294 363h165zM453 -120q0 -88 -143 -185l-44 58q57 42 81 68q-24 4 -41 24.5t-17 45.5q0 31 24 54t57 23q34 0 58.5 -25t24.5 -63z" />
    <glyph glyph-name="kcommaaccent" unicode="&#x137;" horiz-adv-x="574" 
d="M571 543l-245 -224l258 -319h-162l-186 237l-40 -36v-201h-130v760h130v-411l209 194h166zM302 -16q34 0 58 -25t24 -61q0 -86 -140 -182l-44 57q60 45 79 67q-24 5 -40 24.5t-16 44.5q0 30 23 52.5t56 22.5z" />
    <glyph glyph-name="kgreenlandic" unicode="&#x138;" horiz-adv-x="566" 
d="M572 0h-156l-178 229l-44 -42v-187h-128v543h128v-205l212 205h161l-241 -230z" />
    <glyph glyph-name="Lacute" unicode="&#x139;" horiz-adv-x="616" 
d="M214 794h-120l64 179h151zM602 0h-517v739h137v-608h380v-131z" />
    <glyph glyph-name="lacute" unicode="&#x13a;" horiz-adv-x="260" 
d="M190 796h-120l64 179h151zM196 760v-760h-130v760h130z" />
    <glyph glyph-name="Lcommaaccent" unicode="&#x13b;" horiz-adv-x="616" 
d="M222 739v-608h380v-131h-517v739h137zM435 -121q0 -88 -143 -185l-44 58q57 42 81 68q-24 4 -41 24.5t-17 45.5q0 31 24 54t57 23q34 0 58.5 -25t24.5 -63z" />
    <glyph glyph-name="lcommaaccent" unicode="&#x13c;" 
d="M68 760h130v-760h-130v760zM130 -40q34 0 58 -25t24 -61q0 -86 -140 -182l-44 57q60 45 79 67q-24 5 -40 24.5t-16 44.5q0 30 23 52.5t56 22.5z" />
    <glyph glyph-name="Lcaron" unicode="&#x13d;" horiz-adv-x="621" 
d="M506 623h-110l62 177h138zM602 0h-517v739h137v-608h380v-131z" />
    <glyph glyph-name="lcaron" unicode="&#x13e;" horiz-adv-x="290" 
d="M336 624h-110l62 177h138zM196 760v-760h-130v760h130z" />
    <glyph glyph-name="Ldot" unicode="&#x13f;" horiz-adv-x="618" 
d="M602 0h-517v739h137v-608h380v-131zM462 328q-33 0 -56 22.5t-23 55.5q0 32 23 54t56 22q32 0 54 -22t22 -54q0 -33 -22 -55.5t-54 -22.5z" />
    <glyph glyph-name="ldot" unicode="&#x140;" horiz-adv-x="399" 
d="M196 760v-760h-130v760h130zM331 288q-33 0 -56 22.5t-23 55.5q0 32 23 54t56 22q32 0 54 -22t22 -54q0 -33 -22 -55.5t-54 -22.5z" />
    <glyph glyph-name="Lslash" unicode="&#x141;" horiz-adv-x="628" 
d="M234 352v-221h380v-131h-517v265l-70 -45v125l70 45v349h137v-262l109 70v-126z" />
    <glyph glyph-name="lslash" unicode="&#x142;" horiz-adv-x="335" 
d="M231 495l70 51v-127l-70 -51v-368h-130v273l-62 -45v127l62 45v360h130v-265z" />
    <glyph glyph-name="Nacute" unicode="&#x143;" horiz-adv-x="791" 
d="M446 794h-120l64 179h151zM571 265v474h135v-739h-89l-397 470v-470h-135v739h82z" />
    <glyph glyph-name="nacute" unicode="&#x144;" horiz-adv-x="637" 
d="M374 625h-116l62 174h147zM196 0h-130v543h128v-76q22 42 67 66t104 24q89 0 151 -59t62 -167v-331h-131v295q0 67 -32 105t-87 38q-58 0 -95 -40.5t-37 -104.5v-293z" />
    <glyph glyph-name="Ncommaaccent" unicode="&#x145;" horiz-adv-x="791" 
d="M571 265v474h135v-739h-89l-397 470v-470h-135v739h82zM491 -111q0 -88 -143 -185l-44 58q57 42 81 68q-24 4 -41 24.5t-17 45.5q0 31 24 54t57 23q34 0 58.5 -25t24.5 -63z" />
    <glyph glyph-name="ncommaaccent" unicode="&#x146;" horiz-adv-x="637" 
d="M365 557q89 0 151 -59t62 -167v-331h-131v295q0 67 -32 105t-87 38q-58 0 -95 -40.5t-37 -104.5v-293h-130v543h128v-76q22 42 67 66t104 24zM327 -26q34 0 58 -25t24 -61q0 -86 -140 -182l-44 57q60 45 79 67q-24 5 -40 24.5t-16 44.5q0 30 23 52.5t56 22.5z" />
    <glyph glyph-name="Ncaron" unicode="&#x147;" horiz-adv-x="791" 
d="M355 795l-146 173h126l67 -87l66 87h130l-146 -173h-97zM571 265v474h135v-739h-89l-397 470v-470h-135v739h82z" />
    <glyph glyph-name="ncaron" unicode="&#x148;" horiz-adv-x="637" 
d="M277 624l-146 173h126l67 -87l66 87h130l-146 -173h-97zM196 0h-130v543h128v-76q22 42 67 66t104 24q89 0 151 -59t62 -167v-331h-131v295q0 67 -32 105t-87 38q-58 0 -95 -40.5t-37 -104.5v-293z" />
    <glyph glyph-name="napostrophe" unicode="&#x149;" horiz-adv-x="686" 
d="M73 623h-110l62 177h138zM244 0h-130v543h128v-76q22 42 67 66t104 24q89 0 151 -59t62 -167v-331h-131v295q0 67 -32 105t-87 38q-58 0 -95 -40.5t-37 -104.5v-293z" />
    <glyph glyph-name="Eng" unicode="&#x14a;" horiz-adv-x="791" 
d="M571 256v483h135v-709q0 -139 -75 -209q-73 -72 -188 -72q-79 0 -149 37l39 120q47 -27 104 -27q61 0 98 38.5t37 106.5v21l-352 425v-470h-135v739h82z" />
    <glyph glyph-name="eng" unicode="&#x14b;" horiz-adv-x="637" 
d="M326 -227l3 115q60 -5 89 19.5t29 83.5v310q0 65 -31.5 101t-86.5 36q-58 0 -95.5 -40.5t-37.5 -104.5v-293h-130v543h127v-71q24 38 70 61.5t102 23.5q88 0 150 -59t62 -168v-341q0 -125 -69 -177q-69 -53 -182 -39z" />
    <glyph glyph-name="Omacron" unicode="&#x14c;" horiz-adv-x="850" 
d="M605 810l-362 -1v114h362v-113zM41 367q0 161 111 273q112 112 273 112t272 -112q112 -112 112 -271t-112 -270q-111 -111 -274 -111q-164 0 -273 109t-109 270zM667 369q0 106 -71 177t-171 71q-101 0 -172 -71q-70 -70 -70 -177t69 -177q70 -70 173 -70t173 70t69 177z
" />
    <glyph glyph-name="omacron" unicode="&#x14d;" horiz-adv-x="652" 
d="M488 637l-323 -1v114h323v-113zM36 272q0 120 81 202q83 83 209 83q127 0 208 -83q82 -82 82 -202q0 -122 -82 -204q-81 -82 -208 -82t-209 82q-81 82 -81 204zM485 272q0 69 -46 116q-47 48 -113 48t-113 -48q-46 -47 -46 -116q0 -70 46 -117q47 -48 113 -48t113 48
q46 47 46 117z" />
    <glyph glyph-name="Obreve" unicode="&#x14e;" horiz-adv-x="850" 
d="M238 970h108q2 -43 23.5 -67t59.5 -24t59.5 24.5t22.5 66.5h109q-4 -86 -55.5 -135t-135.5 -49t-135.5 49t-55.5 135zM41 367q0 161 111 273q112 112 273 112t272 -112q112 -112 112 -271t-112 -270q-111 -111 -274 -111q-164 0 -273 109t-109 270zM667 369
q0 106 -71 177t-171 71q-101 0 -172 -71q-70 -70 -70 -177t69 -177q70 -70 173 -70t173 70t69 177z" />
    <glyph glyph-name="obreve" unicode="&#x14f;" horiz-adv-x="652" 
d="M140 800h105q2 -42 23 -65.5t57 -23.5q37 0 58 24t22 65h106q-4 -83 -54 -131t-132 -48q-81 0 -131 48t-54 131zM36 272q0 120 81 202q83 83 209 83q127 0 208 -83q82 -82 82 -202q0 -122 -82 -204q-81 -82 -208 -82t-209 82q-81 82 -81 204zM485 272q0 69 -46 116
q-47 48 -113 48t-113 -48q-46 -47 -46 -116q0 -70 46 -117q47 -48 113 -48t113 48q46 47 46 117z" />
    <glyph glyph-name="Ohungarumlaut" unicode="&#x150;" horiz-adv-x="850" 
d="M383 795h-112l44 179h147zM584 795h-115l58 179h151zM41 367q0 161 111 273q112 112 273 112t272 -112q112 -112 112 -271t-112 -270q-111 -111 -274 -111q-164 0 -273 109t-109 270zM667 369q0 106 -71 177t-171 71q-101 0 -172 -71q-70 -70 -70 -177t69 -177
q70 -70 173 -70t173 70t69 177z" />
    <glyph glyph-name="ohungarumlaut" unicode="&#x151;" horiz-adv-x="652" 
d="M286 625h-109l43 174h143zM481 625h-111l56 174h146zM36 272q0 120 81 202q83 83 209 83q127 0 208 -83q82 -82 82 -202q0 -122 -82 -204q-81 -82 -208 -82t-209 82q-81 82 -81 204zM485 272q0 69 -46 116q-47 48 -113 48t-113 -48q-46 -47 -46 -116q0 -70 46 -117
q47 -48 113 -48t113 48q46 47 46 117z" />
    <glyph glyph-name="OE" unicode="&#x152;" horiz-adv-x="1016" 
d="M962 739v-128h-354v-174h327v-127h-327v-182h354v-128h-486q-50 -2 -55 -2q-188 0 -283 101q-94 101 -94 269t93 270q93 103 278 103q6 0 54 -2h493zM470 131v477q-25 3 -47 3q-122 0 -179 -69.5t-57 -171.5t56 -173q57 -69 180 -69q21 0 47 3z" />
    <glyph glyph-name="oe" unicode="&#x153;" horiz-adv-x="1068" 
d="M1033 283q0 -26 -4 -58h-414q13 -58 55.5 -91.5t110.5 -33.5q99 0 179 56l52 -93q-100 -75 -236 -75q-152 0 -231 97q-83 -98 -221 -98q-126 0 -207 82q-81 83 -81 203q0 118 81 201t207 83q138 0 221 -98q80 98 219 98q117 0 193 -74q76 -73 76 -199zM764 447
q-57 0 -96.5 -33t-52.5 -90h290q-8 57 -46.5 90t-94.5 33zM482 273q0 68 -46 115q-46 48 -112 48t-113 -48q-46 -47 -46 -115q0 -70 46 -117q47 -48 113 -48q67 0 112 48q46 47 46 117z" />
    <glyph glyph-name="Racute" unicode="&#x154;" horiz-adv-x="667" 
d="M303 973h151l-95 -179h-120zM639 0h-162l-165 277h-91v-277h-136v739h275q120 0 184 -67t64 -164q0 -75 -40 -133t-115 -82zM360 612h-139v-212h124q60 0 91.5 30t31.5 77q0 46 -29 75.5t-79 29.5z" />
    <glyph glyph-name="racute" unicode="&#x155;" horiz-adv-x="424" 
d="M286 625h-116l62 174h147zM196 0h-130v543h125v-75q50 89 151 89q34 0 65 -11l-11 -125q-35 11 -63 11q-63 0 -100 -42.5t-37 -124.5v-265z" />
    <glyph glyph-name="Rcommaaccent" unicode="&#x156;" horiz-adv-x="667" 
d="M453 293l186 -293h-162l-165 277h-91v-277h-136v739h275q120 0 184 -67t64 -164q0 -75 -40 -133t-115 -82zM360 612h-139v-212h124q60 0 91.5 30t31.5 77q0 46 -29 75.5t-79 29.5zM427 -113q0 -88 -143 -185l-44 58q57 42 81 68q-24 4 -41 24.5t-17 45.5q0 31 24 54
t57 23q34 0 58.5 -25t24.5 -63z" />
    <glyph glyph-name="rcommaaccent" unicode="&#x157;" horiz-adv-x="425" 
d="M343 557q34 0 65 -11l-11 -125q-35 11 -63 11q-63 0 -100 -42.5t-37 -124.5v-265h-130v543h125v-75q50 89 151 89zM131 -36q34 0 58 -25t24 -61q0 -86 -140 -182l-44 57q60 45 79 67q-24 5 -40 24.5t-16 44.5q0 30 23 52.5t56 22.5z" />
    <glyph glyph-name="Rcaron" unicode="&#x158;" horiz-adv-x="667" 
d="M513 968l-146 -173h-97l-146 173h126l67 -87l66 87h130zM639 0h-162l-165 277h-91v-277h-136v739h275q120 0 184 -67t64 -164q0 -75 -40 -133t-115 -82zM360 612h-139v-212h124q60 0 91.5 30t31.5 77q0 46 -29 75.5t-79 29.5z" />
    <glyph glyph-name="rcaron" unicode="&#x159;" horiz-adv-x="424" 
d="M190 625l-146 173h126l67 -87l66 87h130l-146 -173h-97zM197 0h-130v543h125v-75q50 89 151 89q34 0 65 -11l-11 -125q-35 11 -63 11q-63 0 -100 -42.5t-37 -124.5v-265z" />
    <glyph glyph-name="Sacute" unicode="&#x15a;" horiz-adv-x="589" 
d="M352 793h-120l64 179h151zM294 -12q-85 0 -157 36.5t-116 104.5l82 94q71 -107 192 -107q50 0 81.5 24.5t31.5 61.5q0 50 -69 84q-17 8 -73 30q-56 23 -87 41q-116 68 -116 182q0 91 68 151q67 61 177 61q144 0 237 -102l-76 -98q-30 34 -73.5 53t-85.5 19
q-45 0 -72.5 -21.5t-27.5 -56.5q0 -47 61 -78l78 -36q47 -19 88 -40q122 -62 122 -181q0 -98 -74 -160t-191 -62z" />
    <glyph glyph-name="sacute" unicode="&#x15b;" horiz-adv-x="481" 
d="M302 625h-116l62 174h147zM241 -14q-141 0 -219 108l74 80q27 -36 66.5 -56.5t79.5 -20.5q35 0 57.5 16.5t22.5 40.5q0 32 -41 52q-13 8 -66 27q-47 18 -69 29q-91 45 -91 138q0 71 54 116t143 45q115 0 186 -80l-68 -83q-53 56 -122 56q-30 0 -48 -14.5t-18 -36.5
q0 -36 47 -53q119 -47 131 -54q92 -50 92 -138q0 -74 -58 -123t-153 -49z" />
    <glyph glyph-name="Scircumflex" unicode="&#x15c;" horiz-adv-x="589" 
d="M242 793h-130l150 178h100l151 -178h-134l-68 90zM294 -12q-85 0 -157 36.5t-116 104.5l82 94q71 -107 192 -107q50 0 81.5 24.5t31.5 61.5q0 50 -69 84q-17 8 -73 30q-56 23 -87 41q-116 68 -116 182q0 91 68 151q67 61 177 61q144 0 237 -102l-76 -98q-30 34 -73.5 53
t-85.5 19q-45 0 -72.5 -21.5t-27.5 -56.5q0 -47 61 -78l78 -36q47 -19 88 -40q122 -62 122 -181q0 -98 -74 -160t-191 -62z" />
    <glyph glyph-name="scircumflex" unicode="&#x15d;" horiz-adv-x="479" 
d="M179 626h-126l146 173h97l146 -173h-130l-66 87zM241 -14q-141 0 -219 108l74 80q27 -36 66.5 -56.5t79.5 -20.5q35 0 57.5 16.5t22.5 40.5q0 32 -41 52q-13 8 -66 27q-47 18 -69 29q-91 45 -91 138q0 71 54 116t143 45q115 0 186 -80l-68 -83q-53 56 -122 56
q-30 0 -48 -14.5t-18 -36.5q0 -36 47 -53q119 -47 131 -54q92 -50 92 -138q0 -74 -58 -123t-153 -49z" />
    <glyph glyph-name="Scedilla" unicode="&#x15e;" horiz-adv-x="589" 
d="M559 210q0 -87 -62 -149q-62 -61 -162 -71l-16 -38q46 -1 77 -27.5t31 -70.5q0 -50 -38 -84t-104 -34q-57 0 -122 30l30 77q45 -20 81 -20q25 0 39 10.5t14 27.5q0 35 -54 35h-55l-8 26l28 70q-143 23 -217 137l82 94q71 -107 192 -107q50 0 81.5 24.5t31.5 61.5
q0 50 -69 84q-17 8 -73 30q-56 23 -87 41q-116 68 -116 182q0 91 68 151q67 61 177 61q144 0 237 -102l-76 -98q-30 34 -73.5 53t-85.5 19q-45 0 -72.5 -21.5t-27.5 -56.5q0 -47 61 -78l78 -36q47 -19 88 -40q122 -62 122 -181z" />
    <glyph glyph-name="scedilla" unicode="&#x15f;" horiz-adv-x="481" 
d="M452 158q0 -68 -50 -116q-49 -47 -133 -55l-14 -34q46 -1 77 -27.5t31 -70.5q0 -50 -38 -84t-104 -34q-58 0 -122 30l30 77q45 -20 81 -20q25 0 39 10.5t14 27.5q0 35 -54 35h-55l-8 26l28 71q-97 21 -152 100l74 80q27 -36 66.5 -56.5t79.5 -20.5q35 0 57.5 16.5
t22.5 40.5q0 32 -41 52q-13 8 -66 27q-47 18 -69 29q-91 45 -91 138q0 71 54 116t143 45q115 0 186 -80l-68 -83q-53 56 -122 56q-30 0 -48 -14.5t-18 -36.5q0 -36 47 -53q119 -47 131 -54q92 -50 92 -138z" />
    <glyph glyph-name="Scaron" unicode="&#x160;" horiz-adv-x="589" 
d="M267 794l-146 173h126l67 -87l66 87h130l-146 -173h-97zM294 -12q-85 0 -157 36.5t-116 104.5l82 94q71 -107 192 -107q50 0 81.5 24.5t31.5 61.5q0 50 -69 84q-17 8 -73 30q-56 23 -87 41q-116 68 -116 182q0 91 68 151q67 61 177 61q144 0 237 -102l-76 -98
q-30 34 -73.5 53t-85.5 19q-45 0 -72.5 -21.5t-27.5 -56.5q0 -47 61 -78l78 -36q47 -19 88 -40q122 -62 122 -181q0 -98 -74 -160t-191 -62z" />
    <glyph glyph-name="scaron" unicode="&#x161;" horiz-adv-x="479" 
d="M200 624l-146 173h126l67 -87l66 87h130l-146 -173h-97zM241 -14q-141 0 -219 108l74 80q27 -36 66.5 -56.5t79.5 -20.5q35 0 57.5 16.5t22.5 40.5q0 32 -41 52q-13 8 -66 27q-47 18 -69 29q-91 45 -91 138q0 71 54 116t143 45q115 0 186 -80l-68 -83q-53 56 -122 56
q-30 0 -48 -14.5t-18 -36.5q0 -36 47 -53q119 -47 131 -54q92 -50 92 -138q0 -74 -58 -123t-153 -49z" />
    <glyph glyph-name="Tcaron" unicode="&#x164;" horiz-adv-x="592" 
d="M250 795l-146 173h126l67 -87l66 87h130l-146 -173h-97zM227 0v607h-213v132h564v-132h-213v-607h-138z" />
    <glyph glyph-name="tcaron" unicode="&#x165;" horiz-adv-x="451" 
d="M393 800h138l-90 -177h-110zM317 106q46 0 92 28l41 -102q-64 -45 -157 -45q-186 0 -186 212v234h-90v110h92v192h129v-192h182v-110h-182v-229q0 -98 79 -98z" />
    <glyph glyph-name="Tbar" unicode="&#x166;" horiz-adv-x="613" 
d="M589 739v-132h-213v-172h140v-112h-140v-323h-138v323h-141v112h141v172h-213v132h564z" />
    <glyph glyph-name="tbar" unicode="&#x167;" horiz-adv-x="460" 
d="M414 134l41 -102q-64 -45 -157 -45q-186 0 -186 212v56h-88v93h88v85h-90v110h92v192h129v-192h182v-110h-182v-85h178v-93h-178v-51q0 -98 79 -98q46 0 92 28z" />
    <glyph glyph-name="Utilde" unicode="&#x168;" horiz-adv-x="720" 
d="M236 794l-84 41q45 112 140 112q34 0 77 -22t62 -22q33 0 59 48l84 -40q-19 -54 -54 -83t-80 -29q-32 0 -76 22q-44 23 -64 23q-35 0 -64 -50zM360 -13q-123 0 -203 71q-80 72 -80 207v474h137v-462q0 -76 38.5 -116.5t107.5 -40.5q68 0 107 41t39 116v462h138v-474
q0 -135 -80 -207q-80 -71 -204 -71z" />
    <glyph glyph-name="utilde" unicode="&#x169;" horiz-adv-x="609" 
d="M180 622l-83 40q45 110 138 110q33 0 76 -22q43 -21 60 -21q32 0 58 47l82 -39q-39 -110 -131 -110q-31 0 -74 22t-63 22q-36 0 -63 -49zM304 -13q-114 0 -179.5 63.5t-65.5 176.5v316h131v-316q0 -55 30.5 -88t83.5 -33q54 0 84.5 33t30.5 88v316h131v-316
q0 -113 -65.5 -176.5t-180.5 -63.5z" />
    <glyph glyph-name="Umacron" unicode="&#x16a;" horiz-adv-x="720" 
d="M541 812l-362 -1v114h362v-113zM360 -13q-123 0 -203 71q-80 72 -80 207v474h137v-462q0 -76 38.5 -116.5t107.5 -40.5q68 0 107 41t39 116v462h138v-474q0 -135 -80 -207q-80 -71 -204 -71z" />
    <glyph glyph-name="umacron" unicode="&#x16b;" horiz-adv-x="609" 
d="M466 638l-323 -1v114h323v-113zM304 -13q-114 0 -179.5 63.5t-65.5 176.5v316h131v-316q0 -55 30.5 -88t83.5 -33q54 0 84.5 33t30.5 88v316h131v-316q0 -113 -65.5 -176.5t-180.5 -63.5z" />
    <glyph glyph-name="Ubreve" unicode="&#x16c;" horiz-adv-x="720" 
d="M170 970h108q2 -43 23.5 -67t59.5 -24t59.5 24.5t22.5 66.5h109q-4 -86 -55.5 -135t-135.5 -49t-135.5 49t-55.5 135zM360 -13q-123 0 -203 71q-80 72 -80 207v474h137v-462q0 -76 38.5 -116.5t107.5 -40.5q68 0 107 41t39 116v462h138v-474q0 -135 -80 -207
q-80 -71 -204 -71z" />
    <glyph glyph-name="ubreve" unicode="&#x16d;" horiz-adv-x="609" 
d="M120 798h105q2 -42 23 -65.5t57 -23.5q37 0 58 24t22 65h106q-4 -83 -54 -131t-132 -48q-81 0 -131 48t-54 131zM304 -13q-114 0 -179.5 63.5t-65.5 176.5v316h131v-316q0 -55 30.5 -88t83.5 -33q54 0 84.5 33t30.5 88v316h131v-316q0 -113 -65.5 -176.5t-180.5 -63.5z
" />
    <glyph glyph-name="Uring" unicode="&#x16e;" horiz-adv-x="720" 
d="M454 816q-38 -37 -94 -37t-94 37q-39 37 -39 91q0 53 39 91q40 38 94 38t94 -38q39 -38 39 -91t-39 -91zM360 854q22 0 38 15.5t16 39.5q0 22 -16 37.5t-38 15.5q-23 0 -39 -15.5t-16 -37.5q0 -24 16 -39.5t39 -15.5zM360 -13q-123 0 -203 71q-80 72 -80 207v474h137
v-462q0 -76 38.5 -116.5t107.5 -40.5q68 0 107 41t39 116v462h138v-474q0 -135 -80 -207q-80 -71 -204 -71z" />
    <glyph glyph-name="uring" unicode="&#x16f;" horiz-adv-x="609" 
d="M395 632q-37 -36 -91 -36t-92 36q-37 36 -37 88t37 88q37 37 92 37q54 0 91 -37q38 -36 38 -88t-38 -88zM304 669q21 0 36.5 15t15.5 38q0 21 -15.5 36t-36.5 15q-22 0 -37.5 -15t-15.5 -36q0 -23 15.5 -38t37.5 -15zM304 -13q-114 0 -179.5 63.5t-65.5 176.5v316h131
v-316q0 -55 30.5 -88t83.5 -33q54 0 84.5 33t30.5 88v316h131v-316q0 -113 -65.5 -176.5t-180.5 -63.5z" />
    <glyph glyph-name="Uhungarumlaut" unicode="&#x170;" horiz-adv-x="721" 
d="M314 795h-112l44 179h147zM515 795h-115l58 179h151zM360 -13q-123 0 -203 71q-80 72 -80 207v474h137v-462q0 -76 38.5 -116.5t107.5 -40.5q68 0 107 41t39 116v462h138v-474q0 -135 -80 -207q-80 -71 -204 -71z" />
    <glyph glyph-name="uhungarumlaut" unicode="&#x171;" horiz-adv-x="606" 
d="M255 625h-109l43 174h143zM450 625h-111l56 174h146zM304 -13q-114 0 -179.5 63.5t-65.5 176.5v316h131v-316q0 -55 30.5 -88t83.5 -33q54 0 84.5 33t30.5 88v316h131v-316q0 -113 -65.5 -176.5t-180.5 -63.5z" />
    <glyph glyph-name="Uogonek" unicode="&#x172;" horiz-adv-x="720" 
d="M506 277v462h138v-474q0 -100 -45.5 -166.5t-127.5 -94.5q-42 -20 -70 -52.5t-28 -62.5q0 -19 12 -31t30 -12q19 0 42 12l33 -86q-52 -29 -104 -29q-56 0 -89 31.5t-33 82.5q0 72 74 131q-114 6 -188 77q-73 70 -73 200v474h137v-462q0 -76 38.5 -116.5t107.5 -40.5
q68 0 107 41t39 116z" />
    <glyph glyph-name="uogonek" unicode="&#x173;" horiz-adv-x="609" 
d="M419 227v316h131v-316q0 -86 -38.5 -144.5t-110.5 -81.5q-43 -21 -72.5 -54t-29.5 -63q0 -19 12 -31t30 -12q19 0 42 12l33 -86q-52 -29 -104 -29q-56 0 -89 31.5t-33 82.5q0 76 82 136q-100 9 -156.5 72t-56.5 167v316h131v-316q0 -55 30.5 -88t83.5 -33q54 0 84.5 33
t30.5 88z" />
    <glyph glyph-name="Wcircumflex" unicode="&#x174;" horiz-adv-x="1057" 
d="M459 794h-130l150 178h100l151 -178h-134l-68 90zM363 0h-109l-247 739h149l156 -507l174 507h83l178 -507l153 507h149l-246 -739h-108l-167 500z" />
    <glyph glyph-name="wcircumflex" unicode="&#x175;" horiz-adv-x="868" 
d="M367 625h-126l146 173h97l146 -173h-130l-66 87zM307 1h-113l-185 542h136l114 -368l129 368h91l132 -368l111 368h136l-182 -542h-113l-129 355z" />
    <glyph glyph-name="Ycircumflex" unicode="&#x176;" horiz-adv-x="670" 
d="M265 794h-130l150 178h100l151 -178h-134l-68 90zM501 739h157l-255 -480v-259h-137v259l-253 480h158l163 -336z" />
    <glyph glyph-name="ycircumflex" unicode="&#x177;" horiz-adv-x="588" 
d="M367 624l-66 87l-67 -87h-126l146 173h97l146 -173h-130zM307 176l129 367h142l-220 -578q-40 -101 -92.5 -148.5t-128.5 -47.5q-62 0 -100 26l21 110q38 -18 69 -18q66 0 106 88l13 30l-237 538h151z" />
    <glyph glyph-name="Ydieresis" unicode="&#x178;" horiz-adv-x="670" 
d="M232 799q-33 0 -55.5 22t-22.5 56q0 32 22.5 54t55.5 22q32 0 54.5 -22t22.5 -54q0 -33 -22.5 -55.5t-54.5 -22.5zM359 877q0 31 23 53.5t55 22.5q33 0 55 -22t22 -54q0 -34 -22 -56t-55 -22t-55.5 22t-22.5 56zM501 739h157l-255 -480v-259h-137v259l-253 480h158
l163 -336z" />
    <glyph glyph-name="Zacute" unicode="&#x179;" horiz-adv-x="643" 
d="M382 794h-120l64 179h151zM607 0h-573v95l374 517h-359v127h547v-99l-368 -513h379v-127z" />
    <glyph glyph-name="zacute" unicode="&#x17a;" horiz-adv-x="531" 
d="M315 625h-116l62 174h147zM487 456l-277 -347h287v-109h-465v88l281 345h-267v109h441v-86z" />
    <glyph glyph-name="Zdotaccent" unicode="&#x17b;" horiz-adv-x="643" 
d="M328 796q-36 0 -60 23t-24 59q0 35 24.5 58.5t59.5 23.5t58.5 -23.5t23.5 -58.5q0 -36 -23.5 -59t-58.5 -23zM607 0h-573v95l374 517h-359v127h547v-99l-368 -513h379v-127z" />
    <glyph glyph-name="zdotaccent" unicode="&#x17c;" horiz-adv-x="531" 
d="M274 609q-36 0 -60 23t-24 59q0 35 24.5 58.5t59.5 23.5t58.5 -23.5t23.5 -58.5q0 -36 -23.5 -59t-58.5 -23zM487 456l-277 -347h287v-109h-465v88l281 345h-267v109h441v-86z" />
    <glyph glyph-name="Zcaron" unicode="&#x17d;" horiz-adv-x="643" 
d="M282 796l-146 173h126l67 -87l66 87h130l-146 -173h-97zM607 0h-573v95l374 517h-359v127h547v-99l-368 -513h379v-127z" />
    <glyph glyph-name="zcaron" unicode="&#x17e;" horiz-adv-x="531" 
d="M217 625l-146 173h126l67 -87l66 87h130l-146 -173h-97zM487 456l-277 -347h287v-109h-465v88l281 345h-267v109h441v-86z" />
    <glyph glyph-name="Scommaaccent" unicode="&#x218;" horiz-adv-x="589" 
d="M437 391q122 -62 122 -181q0 -98 -74 -160t-191 -62q-85 0 -157 36.5t-116 104.5l82 94q71 -107 192 -107q50 0 81.5 24.5t31.5 61.5q0 50 -69 84q-17 8 -73 30q-56 23 -87 41q-116 68 -116 182q0 91 68 151q67 61 177 61q144 0 237 -102l-76 -98q-30 34 -73.5 53
t-85.5 19q-45 0 -72.5 -21.5t-27.5 -56.5q0 -47 61 -78l78 -36q47 -19 88 -40zM377 -129q0 -88 -143 -185l-44 58q57 42 81 68q-24 4 -41 24.5t-17 45.5q0 31 24 54t57 23q34 0 58.5 -25t24.5 -63z" />
    <glyph glyph-name="scommaaccent" unicode="&#x219;" horiz-adv-x="481" 
d="M360 296q92 -50 92 -138q0 -74 -58 -123t-153 -49q-141 0 -219 108l74 80q27 -36 66.5 -56.5t79.5 -20.5q35 0 57.5 16.5t22.5 40.5q0 32 -41 52q-13 8 -66 27q-47 18 -69 29q-91 45 -91 138q0 71 54 116t143 45q115 0 186 -80l-68 -83q-53 56 -122 56q-30 0 -48 -14.5
t-18 -36.5q0 -36 47 -53q119 -47 131 -54zM242 -48q34 0 58 -25t24 -61q0 -86 -140 -182l-44 57q60 45 79 67q-24 5 -40 24.5t-16 44.5q0 30 23 52.5t56 22.5z" />
    <glyph glyph-name="uni021A" unicode="&#x21a;" horiz-adv-x="592" 
d="M14 607v132h564v-132h-213v-607h-138v607h-213zM377 -116q0 -88 -143 -185l-44 58q57 42 81 68q-24 4 -41 24.5t-17 45.5q0 31 24 54t57 23q34 0 58.5 -25t24.5 -63z" />
    <glyph glyph-name="uni021B" unicode="&#x21b;" horiz-adv-x="453" 
d="M409 134l41 -102q-64 -45 -157 -45q-186 0 -186 212v234h-90v110h92v192h129v-192h182v-110h-182v-229q0 -98 79 -98q46 0 92 28zM277 -50q34 0 58 -25t24 -61q0 -86 -140 -182l-44 57q60 45 79 67q-24 5 -40 24.5t-16 44.5q0 30 23 52.5t56 22.5z" />
    <glyph glyph-name="uni0237" unicode="&#x237;" horiz-adv-x="287" 
d="M20 -231q-77 0 -118 26l25 104q45 -15 72 -15q91 0 91 108v551h131v-555q0 -106 -54 -162.5t-147 -56.5z" />
    <glyph glyph-name="circumflex" unicode="&#x2c6;" horiz-adv-x="564" 
d="M165 622h-126l146 173h97l146 -173h-130l-66 87z" />
    <glyph glyph-name="caron" unicode="&#x2c7;" horiz-adv-x="548" 
d="M185 623l-146 173h126l67 -87l66 87h130l-146 -173h-97z" />
    <glyph glyph-name="breve" unicode="&#x2d8;" horiz-adv-x="462" 
d="M40 795h105q2 -42 23 -65.5t57 -23.5q37 0 58 24t22 65h106q-4 -83 -54 -131t-132 -48q-81 0 -131 48t-54 131z" />
    <glyph glyph-name="dotaccent" unicode="&#x2d9;" horiz-adv-x="300" 
d="M124 604q-36 0 -60 23t-24 59q0 35 24.5 58.5t59.5 23.5t58.5 -23.5t23.5 -58.5q0 -36 -23.5 -59t-58.5 -23z" />
    <glyph glyph-name="ring" unicode="&#x2da;" horiz-adv-x="381" 
d="M260 632q-38 -36 -91 -36q-55 0 -92 36t-37 88t37 88q37 37 92 37q54 0 91 -37q38 -36 38 -88t-38 -88zM169 669q21 0 36.5 15t15.5 38q0 21 -15.5 36t-36.5 15q-22 0 -37.5 -15t-15.5 -36q0 -23 15.5 -38t37.5 -15z" />
    <glyph glyph-name="ogonek" unicode="&#x2db;" horiz-adv-x="366" 
d="M233 -148l33 -86q-52 -29 -104 -29q-56 0 -89 31.5t-33 82.5q0 99 132 167l79 -18q-43 -21 -72.5 -54t-29.5 -63q0 -19 12 -31t30 -12q19 0 42 12z" />
    <glyph glyph-name="tilde" unicode="&#x2dc;" horiz-adv-x="550" 
d="M123 634l-83 40q45 110 138 110q32 0 75 -22q44 -21 61 -21q32 0 58 47l82 -39q-39 -110 -131 -110q-31 0 -74 22t-63 22q-36 0 -63 -49z" />
    <glyph glyph-name="hungarumlaut" unicode="&#x2dd;" horiz-adv-x="538" 
d="M155 620h-109l43 174h143zM350 620h-111l56 174h146z" />
    <glyph glyph-name="uni0394" unicode="&#x394;" horiz-adv-x="749" 
d="M729 0h-708v95l308 644h92l308 -644v-95zM374 569l-197 -440h395z" />
    <glyph glyph-name="uni03A9" unicode="&#x3a9;" horiz-adv-x="863" 
d="M384 0h-333v120h152q-63 38 -104 112q-40 73 -40 163q0 149 108 253q109 104 265 104q157 0 264 -104q108 -104 108 -253q0 -88 -39 -162t-104 -113h151v-120h-333v122q83 28 132 99q50 71 50 158q0 103 -66 167q-65 66 -163 66t-164 -66q-66 -64 -66 -167q0 -87 50 -158
t132 -99v-122z" />
    <glyph glyph-name="uni03BC" unicode="&#x3bc;" horiz-adv-x="645" 
d="M448 268v267h131v-535h-125v78q-47 -89 -146 -89q-75 0 -115 58v-265h-127v753h131v-290q0 -66 31 -101.5t86 -35.5q61 0 97.5 42t36.5 118z" />
    <glyph glyph-name="pi" unicode="&#x3c0;" horiz-adv-x="631" 
d="M238 0h-130v421h-78v114h571v-114h-78v-421h-131v421h-154v-421z" />
    <glyph glyph-name="uni0401" unicode="&#x401;" horiz-adv-x="630" 
d="M230 799q-33 0 -55.5 22t-22.5 56q0 32 22.5 54t55.5 22q32 0 54.5 -22t22.5 -54q0 -33 -22.5 -55.5t-54.5 -22.5zM357 877q0 31 23 53.5t55 22.5q33 0 55 -22t22 -54q0 -34 -22 -56t-55 -22t-55.5 22t-22.5 56zM576 0h-491v739h491v-128h-354v-174h327v-127h-327v-182
h354v-128z" />
    <glyph glyph-name="uni0410" unicode="&#x410;" horiz-adv-x="691" 
d="M682 0h-145l-61 168h-262l-61 -168h-145l286 739h105zM437 291l-91 253l-92 -253h183z" />
    <glyph glyph-name="uni0411" unicode="&#x411;" horiz-adv-x="662" 
d="M220 465h146q62 0 110 -16t76.5 -41t46.5 -57.5t24.5 -62.5t6.5 -60q0 -97 -67 -163q-68 -65 -186 -65h-292v739h475v-121h-340v-153zM220 122h134q64 0 99 30.5t35 80.5q0 48 -32.5 79t-94.5 31h-141v-221z" />
    <glyph glyph-name="uni0412" unicode="&#x412;" horiz-adv-x="687" 
d="M507 405q67 -18 103.5 -69.5t36.5 -120.5q0 -90 -63 -153q-64 -62 -170 -62h-329v739h314q99 0 154 -55t55 -129q0 -51 -28 -92.5t-73 -57.5zM377 618h-157v-171h152q46 0 72.5 25t26.5 63q0 35 -25.5 59t-68.5 24zM220 122h168q54 0 86 30t32 73q0 46 -31.5 76t-86.5 30
h-168v-209z" />
    <glyph glyph-name="uni0413" unicode="&#x413;" horiz-adv-x="553" 
d="M220 0h-135v739h455v-124h-320v-615z" />
    <glyph glyph-name="uni0414" unicode="&#x414;" horiz-adv-x="790" 
d="M456 739l221 -615h82v-274h-132v150h-464v-150h-133v274h81l224 615h121zM395 554l-143 -430h283z" />
    <glyph glyph-name="uni0415" unicode="&#x415;" horiz-adv-x="630" 
d="M576 0h-491v739h491v-128h-354v-174h327v-127h-327v-182h354v-128z" />
    <glyph glyph-name="uni0416" unicode="&#x416;" horiz-adv-x="1025" 
d="M998 121l7 -117q-35 -15 -79 -15q-45 0 -74 14q-39 20 -54 38q-33 39 -44 57l-20 34l-22 39q-7 14 -22 41q-31 54 -40 65q-21 28 -51 28h-18v-306h-137v306h-17q-29 0 -52 -28q-11 -15 -40 -65l-23 -41l-21 -39q-26 -45 -42 -66q-39 -42 -48 -48q-49 -29 -102 -29
q-45 0 -79 15l7 117q25 -9 54 -9q37 0 64 33q27 35 109 176q25 37 39 50q-28 21 -54 68l-19 42q-4 10 -10 22.5t-6 13.5l-26 48q-7 13 -22 32q-21 28 -61 28q-14 0 -42 -5l-12 112q33 18 76 18q73 0 112 -43q41 -42 90 -154l27 -60q14 -31 21 -38q1 -1 6 -5.5t10 -8.5t9 -5
q36 -4 40 -4h12v306h137v-306h13q47 0 64 24q7 5 21 36q25 55 28 61q50 113 88 154q40 43 114 43q42 0 75 -18l-12 -112q-28 5 -42 5q-37 0 -57 -23q-19 -22 -52 -85l-21 -45q-33 -72 -65 -104q14 -13 36 -47q82 -141 109 -176q27 -33 64 -33q28 0 54 9z" />
    <glyph glyph-name="uni0417" unicode="&#x417;" horiz-adv-x="611" 
d="M19 62l52 111q109 -61 209 -61q66 0 105.5 29t39.5 75q0 45 -36.5 71.5t-98.5 26.5h-129v120h101q63 0 102 28t39 73q1 41 -33 66t-88 25q-86 0 -183 -61l-62 99q49 41 118.5 64.5t141.5 23.5q111 0 179 -57t68 -138q0 -54 -31.5 -95.5t-88.5 -62.5l-1 -4
q67 -16 105.5 -64.5t38.5 -116.5q0 -98 -78 -162q-76 -64 -213 -64q-135 0 -257 74z" />
    <glyph glyph-name="uni0418" unicode="&#x418;" horiz-adv-x="783" 
d="M169 0h-84v739h135v-504l394 504h84v-739h-135v499z" />
    <glyph glyph-name="uni0419" unicode="&#x419;" horiz-adv-x="783" 
d="M406 774q-123 0 -213 113l69 72q38 -45 71.5 -64t73.5 -19q76 0 144 83l71 -72q-92 -113 -216 -113zM169 0h-84v739h135v-504l394 504h84v-739h-135v499z" />
    <glyph glyph-name="uni041A" unicode="&#x41a;" horiz-adv-x="689" 
d="M701 0h-168l-219 301l-93 -113v-188h-136v739h136v-363l294 363h165l-276 -338z" />
    <glyph glyph-name="uni041B" unicode="&#x41b;" horiz-adv-x="675" 
d="M159 0h-149l269 739h121l265 -739h-149l-177 536z" />
    <glyph glyph-name="uni041C" unicode="&#x41c;" horiz-adv-x="934" 
d="M220 0h-135v739h86l296 -431l295 431h87v-739h-136v438l-224 -324h-45l-224 324v-438z" />
    <glyph glyph-name="uni041D" unicode="&#x41d;" horiz-adv-x="768" 
d="M222 0h-137v739h137v-299h324v299h137v-739h-137v308h-324v-308z" />
    <glyph glyph-name="uni041E" unicode="&#x41e;" horiz-adv-x="850" 
d="M41 367q0 161 111 273q112 112 273 112t272 -112q112 -112 112 -271t-112 -270q-111 -111 -274 -111q-164 0 -273 109t-109 270zM667 369q0 106 -71 177t-171 71q-101 0 -172 -71q-70 -70 -70 -177t69 -177q70 -70 173 -70t173 70t69 177z" />
    <glyph glyph-name="uni041F" unicode="&#x41f;" horiz-adv-x="768" 
d="M222 0h-137v739h598v-739h-137v607h-324v-607z" />
    <glyph glyph-name="uni0420" unicode="&#x420;" horiz-adv-x="632" 
d="M85 739h267q126 0 191 -71q64 -70 64 -170q0 -102 -67 -169q-66 -68 -199 -68h-120v-261h-136v739zM221 386h124q58 0 90.5 32.5t32.5 81.5t-30.5 80.5t-82.5 31.5h-134v-226z" />
    <glyph glyph-name="uni0421" unicode="&#x421;" horiz-adv-x="768" 
d="M422 -11q-162 0 -271 105q-109 106 -109 273q0 168 111 276q112 109 271 109q98 0 183.5 -42t134.5 -113l-93 -89q-90 112 -219 112q-104 0 -176 -72q-71 -73 -71 -181q0 -107 70 -177t176 -70q136 0 223 112l95 -86q-53 -71 -139 -114t-186 -43z" />
    <glyph glyph-name="uni0422" unicode="&#x422;" horiz-adv-x="592" 
d="M227 0v607h-213v132h564v-132h-213v-607h-138z" />
    <glyph glyph-name="uni0423" unicode="&#x423;" horiz-adv-x="624" 
d="M135 -12q-50 0 -92 21l12 113q29 -13 62 -13q43 0 76 33t68 100l-237 496h160l149 -348l139 348h156l-108 -242l-128 -282q-24 -51 -45 -84q-19 -31 -51 -70q-62 -72 -161 -72z" />
    <glyph glyph-name="uni0424" unicode="&#x424;" horiz-adv-x="938" 
d="M900 371q0 -148 -101 -249q-100 -100 -262 -112v-90h-137v90q-164 14 -263 113q-100 100 -100 248t101 247q101 100 262 112v89h137v-89q162 -11 262 -111q101 -101 101 -248zM537 606v-473q103 7 164 71t61 165q0 99 -62 164q-61 64 -163 73zM400 133v473
q-102 -9 -163 -73t-61 -164t61 -164q62 -65 163 -72z" />
    <glyph glyph-name="uni0425" unicode="&#x425;" horiz-adv-x="659" 
d="M167 0h-162l239 374l-224 365h158l152 -262l158 262h161l-235 -365l235 -374h-159l-161 267z" />
    <glyph glyph-name="uni0426" unicode="&#x426;" horiz-adv-x="740" 
d="M699 -150h-137v150h-477v739h137v-607h263v607h138v-607h76v-282z" />
    <glyph glyph-name="uni0427" unicode="&#x427;" horiz-adv-x="693" 
d="M471 372v367h138v-739h-138v242q-83 -30 -156 -30q-122 0 -195 61q-72 61 -72 196v270h137v-243q0 -82 33 -117q34 -34 105 -34q72 0 148 27z" />
    <glyph glyph-name="uni0428" unicode="&#x428;" horiz-adv-x="1095" 
d="M1011 0h-926v739h137v-607h257v607h137v-607h257v607h138v-739z" />
    <glyph glyph-name="uni0429" unicode="&#x429;" horiz-adv-x="1128" 
d="M1087 -150h-137v150h-865v739h137v-607h257v607h137v-607h257v607h138v-607h76v-282z" />
    <glyph glyph-name="uni042A" unicode="&#x42a;" horiz-adv-x="756" 
d="M461 506q116 0 192 -68q76 -67 76 -188q0 -104 -68 -178q-67 -72 -199 -72h-278v618h-169v121h304v-258q66 25 142 25zM319 124h119q74 0 112 34.5t38 95.5q0 63 -37.5 95.5t-105.5 32.5q-60 0 -126 -25v-233z" />
    <glyph glyph-name="uni042B" unicode="&#x42b;" horiz-adv-x="946" 
d="M222 484h144q74 0 129.5 -23.5t84.5 -63.5q52 -73 52 -158q0 -103 -67 -171q-68 -68 -186 -68h-292v739h135v-255zM724 0v739h137v-739h-137zM222 123h134q64 0 99 33.5t35 86.5t-34 86t-96 33h-138v-239z" />
    <glyph glyph-name="uni042C" unicode="&#x42c;" horiz-adv-x="657" 
d="M362 506q116 0 192 -68q76 -67 76 -188q0 -104 -68 -178q-68 -72 -199 -72h-278v739h135v-258q66 25 142 25zM220 124h118q74 0 112 34.5t38 95.5q0 63 -37 95.5t-105 32.5q-60 0 -126 -25v-233z" />
    <glyph glyph-name="uni042D" unicode="&#x42d;" horiz-adv-x="772" 
d="M348 752q160 0 270 -109q112 -108 112 -276q0 -166 -110 -273q-110 -105 -270 -105q-100 0 -186 43t-139 114l95 86q87 -112 223 -112q88 0 154 51q65 52 85 135h-365v124h365q-19 84 -86 137t-154 53q-129 0 -219 -112l-93 89q49 71 134.5 113t183.5 42z" />
    <glyph glyph-name="uni042E" unicode="&#x42e;" horiz-adv-x="1124" 
d="M699 752q161 0 272 -112q112 -112 112 -271t-112 -270q-111 -111 -274 -111q-146 0 -250 88q-104 89 -127 226h-98v-302h-137v739h137v-305h99q23 138 129 228t249 90zM941 369q0 106 -71 177t-171 71q-101 0 -172 -71q-70 -70 -70 -177t69 -177q70 -70 173 -70t173 70
t69 177z" />
    <glyph glyph-name="uni042F" unicode="&#x42f;" horiz-adv-x="670" 
d="M329 739h256v-739h-135v263q-53 -10 -113 -10l-149 -253h-158l171 273q-72 27 -108 86t-36 136q0 105 69 174q69 70 203 70zM343 374q63 0 107 10v229h-111q-71 0 -106 -31.5t-35 -86.5q0 -121 145 -121z" />
    <glyph glyph-name="uni0430" unicode="&#x430;" horiz-adv-x="675" 
d="M483 474v69h124v-543h-124v67q-71 -80 -177 -80q-117 0 -193 82t-76 205t76 202q77 80 193 80q104 0 177 -82zM486 272q0 69 -45 117t-115 48t-115 -48q-44 -49 -44 -117q0 -69 44 -118q45 -48 115 -48t115 48t45 118z" />
    <glyph glyph-name="uni0431" unicode="&#x431;" horiz-adv-x="682" 
d="M377 534q107 0 187 -74q81 -74 81 -195q0 -119 -80 -199t-211 -80q-65 0 -118 21.5t-88 58t-59.5 86.5t-35 106t-10.5 118q0 151 63.5 243.5t179.5 119.5l66 12l65 13q65 18 134 71l50 -107q-42 -43 -85 -59q-42 -16 -154 -39q-50 -10 -76 -20.5t-54 -32.5
q-56 -44 -66 -166q29 58 86 90.5t125 32.5zM356 104q67 0 112 46t45 113q0 65 -45 110q-45 46 -109 46t-111 -44t-47 -110q0 -67 43 -114q44 -47 112 -47z" />
    <glyph glyph-name="uni0432" unicode="&#x432;" horiz-adv-x="640" 
d="M468 421q64 -17 99.5 -70t35.5 -129q0 -98 -73 -167q-73 -68 -196 -68q-57 0 -104.5 16t-88 50t-63 95.5t-22.5 144.5v181q0 146 75 224q75 79 199 79q109 0 174 -55.5t65 -149.5q0 -49 -28.5 -92t-72.5 -59zM329 657q-66 0 -104.5 -52t-38.5 -142v-7h135q60 0 89 28.5
t29 73.5q0 47 -29.5 73t-80.5 26zM336 106q62 0 98.5 34.5t36.5 87.5t-32 83.5t-98 30.5h-155v-48q0 -95 40.5 -141.5t109.5 -46.5z" />
    <glyph glyph-name="uni0433" unicode="&#x433;" horiz-adv-x="506" 
d="M246 -13q-101 0 -157.5 40t-56.5 110q0 51 27.5 89t71.5 60q22 11 62 26.5t62.5 25t41 25t18.5 33.5q0 23 -21 37t-59 14q-67 0 -151 -32l-31 101q95 40 202 40q92 0 148.5 -38t56.5 -105q0 -48 -27.5 -83.5t-71.5 -55.5l-49 -19.5l-51 -20.5t-40 -20.5t-31.5 -27
t-10.5 -31.5q0 -27 24.5 -41.5t66.5 -14.5q86 0 176 44l30 -104q-111 -52 -230 -52z" />
    <glyph glyph-name="uni0434" unicode="&#x434;" horiz-adv-x="672" 
d="M485 478v65h122v-476q0 -146 -79.5 -222t-227.5 -76q-106 0 -219 40l27 107q96 -33 187 -33q186 0 186 158v32q-66 -74 -173 -74q-119 0 -195 79t-76 199q0 122 79 200q79 79 197 79q105 0 172 -78zM327 113q68 0 113 46q45 47 45 117t-45 115q-45 46 -113 46
q-69 0 -114 -46q-45 -45 -45 -115t45 -117q45 -46 114 -46z" />
    <glyph glyph-name="uni0435" unicode="&#x435;" horiz-adv-x="623" 
d="M588 283q0 -26 -4 -58h-414q13 -58 55.5 -91.5t110.5 -33.5q99 0 179 56l52 -93q-101 -75 -236 -75q-74 0 -131.5 24t-92.5 64.5t-52.5 90t-17.5 105.5q0 124 78 203q79 81 204 81q117 0 193 -74q76 -73 76 -199zM319 447q-57 0 -96.5 -33t-52.5 -90h290q-8 57 -46.5 90
t-94.5 33z" />
    <glyph glyph-name="uni0436" unicode="&#x436;" horiz-adv-x="874" 
d="M848 103l6 -100q-34 -12 -71 -12q-41 0 -65 10q-36 17 -47 28q-25 25 -35 39q-12 19 -14 21l-14 25q-8 16 -14 24q-26 42 -41.5 57t-37.5 15h-15v-211h-126v211h-15q-22 0 -37.5 -15t-41.5 -57l-16 -27l-17 -28q-22 -36 -36 -47q-31 -28 -49 -33q-41 -12 -71 -12
q-37 0 -71 12l6 100q22 -6 43 -6q28 0 48 20q21 22 72 97q7 12 16 24q18 26 27 33q-22 15 -38 41l-9 15q-11 26 -16 34q-13 27 -24 47q-20 37 -61 37q-16 0 -36 -4l-10 96q30 14 67 14q62 0 97.5 -27.5t63.5 -94.5l10 -24l10 -22q1 -2 5 -9.5l7.5 -14t5.5 -8.5
q20 -23 59 -23h11v215h126v-215h11q41 0 58 23q7 8 18 32q5 9 22 46q29 65 61 93q35 29 99 29q37 0 67 -14l-10 -96q-20 4 -36 4q-22 0 -38 -12q-17 -12 -24 -25q-4 -7 -23 -47l-8 -17l-17 -32q-16 -26 -38 -41q9 -7 27 -33q67 -100 85 -119q21 -22 51 -22q21 0 43 6z" />
    <glyph glyph-name="uni0437" unicode="&#x437;" horiz-adv-x="554" 
d="M255 -229q-134 0 -247 80l48 102q97 -65 182 -65q68 0 107.5 32t39.5 86q0 51 -36.5 79.5t-97.5 28.5h-109v113h75q70 0 109 31t39 80q0 46 -34 73.5t-87 27.5q-76 0 -166 -66l-60 92q45 40 109 65q69 26 135 26q102 0 170 -59t68 -141q0 -54 -31.5 -98.5t-85.5 -66.5v-4
q63 -16 100.5 -67.5t37.5 -121.5q0 -98 -72 -162q-71 -65 -194 -65z" />
    <glyph glyph-name="uni0438" unicode="&#x438;" horiz-adv-x="647" 
d="M451 543h130v-543h-125v77q-22 -39 -73.5 -64.5t-113.5 -25.5q-89 0 -150 56q-59 56 -59 175v325h131v-308q0 -129 114 -129q67 0 106.5 41.5t39.5 113.5v282z" />
    <glyph glyph-name="uni0439" unicode="&#x439;" horiz-adv-x="647" 
d="M133 680l62 65q62 -74 131 -74q67 0 129 74l64 -65q-83 -101 -194 -101t-192 101zM451 543h130v-543h-125v77q-22 -39 -73.5 -64.5t-113.5 -25.5q-89 0 -150 56q-59 56 -59 175v325h131v-308q0 -129 114 -129q67 0 106.5 41.5t39.5 113.5v282z" />
    <glyph glyph-name="uni043A" unicode="&#x43a;" horiz-adv-x="574" 
d="M584 0h-162l-186 237l-40 -36v-201h-130v760h130v-411l209 194h166l-245 -224z" />
    <glyph glyph-name="uni043B" unicode="&#x43b;" horiz-adv-x="599" 
d="M153 0h-144l233 543h119l229 -543h-144l-144 377z" />
    <glyph glyph-name="uni043C" unicode="&#x43c;" horiz-adv-x="779" 
d="M193 0h-127v543h91l233 -301l232 301h90v-543h-126v303l-175 -221h-44l-174 221v-303z" />
    <glyph glyph-name="uni043D" unicode="&#x43d;" horiz-adv-x="625" 
d="M429 331v212h129v-543h-129v215h-233v-215h-130v543h130v-212h233z" />
    <glyph glyph-name="uni043E" unicode="&#x43e;" horiz-adv-x="652" 
d="M36 272q0 120 81 202q83 83 209 83q127 0 208 -83q82 -82 82 -202q0 -122 -82 -204q-81 -82 -208 -82t-209 82q-81 82 -81 204zM485 272q0 69 -46 116q-47 48 -113 48t-113 -48q-46 -47 -46 -116q0 -70 46 -117q47 -48 113 -48t113 48q46 47 46 117z" />
    <glyph glyph-name="uni043F" unicode="&#x43f;" horiz-adv-x="637" 
d="M196 0h-130v543h128v-76q22 42 67 66t104 24q89 0 151 -59t62 -167v-331h-131v295q0 67 -32 105t-87 38q-58 0 -95 -40.5t-37 -104.5v-293z" />
    <glyph glyph-name="uni0440" unicode="&#x440;" horiz-adv-x="678" 
d="M373 556q115 0 192 -83q76 -82 76 -201q0 -120 -77 -203q-76 -82 -192 -82q-104 0 -175 81v-291h-131v766h130v-72q70 85 177 85zM194 271q0 -69 44 -118q44 -47 114 -47t114 47q44 49 44 118q0 70 -44 117q-44 48 -114 48t-114 -48q-44 -49 -44 -117z" />
    <glyph glyph-name="uni0441" unicode="&#x441;" horiz-adv-x="602" 
d="M324 -12q-125 0 -207 80q-80 80 -80 204t81 204q82 80 210 80q84 0 151.5 -39.5t100.5 -109.5l-106 -57q-52 86 -144 86q-70 0 -117 -47q-46 -46 -46 -117q0 -70 45 -117t114 -47q45 0 85.5 23.5t60.5 61.5l106 -62q-36 -66 -103.5 -104.5t-150.5 -38.5z" />
    <glyph glyph-name="uni0442" unicode="&#x442;" horiz-adv-x="996" 
d="M716 558q96 0 158 -62t62 -169v-327h-131v303q0 65 -30.5 100t-82.5 35q-55 0 -90 -38t-35 -101v-299h-130v302q0 63 -31.5 99.5t-83.5 36.5q-55 0 -90.5 -38.5t-35.5 -101.5v-298h-130v543h128v-78q23 43 67.5 68t97.5 25q55 -1 98 -26t64 -71q29 46 81 71.5t114 25.5z
" />
    <glyph glyph-name="uni0443" unicode="&#x443;" horiz-adv-x="588" 
d="M306 176l129 367h142l-220 -578q-40 -101 -92.5 -148.5t-128.5 -47.5q-62 0 -100 26l21 110q37 -18 69 -18q66 0 106 88l13 30l-237 538h151z" />
    <glyph glyph-name="uni0444" unicode="&#x444;" horiz-adv-x="844" 
d="M808 271q0 -128 -89 -203q-89 -76 -236 -80v-215h-122v215q-147 4 -236 80q-88 76 -88 204t88 204t236 81v203h122v-203q147 -5 235 -81q90 -75 90 -205zM163 272q0 -80 52.5 -125.5t145.5 -47.5v344q-93 -1 -145.5 -46.5t-52.5 -124.5zM483 443v-344q92 1 145.5 47
t53.5 126q0 79 -52 124.5t-147 46.5z" />
    <glyph glyph-name="uni0445" unicode="&#x445;" horiz-adv-x="543" 
d="M355 274l177 -274h-150l-111 184l-114 -184h-151l182 278l-163 265h150l99 -172l105 172h148z" />
    <glyph glyph-name="uni0446" unicode="&#x446;" horiz-adv-x="710" 
d="M581 543v-381q-1 -44 28.5 -60.5t93.5 -16.5v-265h-115v171q-49 0 -83.5 28t-39.5 75q-20 -47 -75 -77q-54 -30 -121 -30q-89 0 -150 56q-59 56 -59 175v325h131v-308q0 -129 114 -129q67 0 106.5 41.5t39.5 113.5v282h130z" />
    <glyph glyph-name="uni0447" unicode="&#x447;" horiz-adv-x="581" 
d="M384 285v258h130v-543h-130v168q-68 -17 -125 -17q-101 0 -162 47q-59 47 -59 164v181h130v-171q0 -102 105 -102q60 0 111 15z" />
    <glyph glyph-name="uni0448" unicode="&#x448;" horiz-adv-x="975" 
d="M778 255v288h131v-543h-123v77q-21 -39 -69 -64.5t-102 -25.5q-52 0 -94 24t-63 69q-26 -46 -76 -69.5t-110 -23.5q-88 0 -150 57t-62 177v322h131v-308q0 -129 106 -129q57 0 89.5 39.5t32.5 109.5v288h131v-313q0 -59 27 -91.5t77 -32.5q57 0 90.5 41t33.5 108z" />
    <glyph glyph-name="uni0449" unicode="&#x449;" horiz-adv-x="1040" 
d="M908 543v-381q0 -44 30 -60.5t94 -16.5v-265h-115v171q-50 0 -84 28t-38 75q-21 -48 -71.5 -77.5t-112.5 -29.5q-51 0 -92 24t-61 69q-27 -46 -76.5 -69.5t-108.5 -23.5q-89 0 -151 57t-62 177v322h131v-308q0 -129 106 -129q57 0 89.5 39.5t32.5 109.5v288h131v-313
q0 -59 27 -91.5t76 -32.5q57 0 91 41t34 108v288h130z" />
    <glyph glyph-name="uni044A" unicode="&#x44a;" horiz-adv-x="652" 
d="M394 441q98 0 162 -64q65 -63 65 -161q0 -94 -62 -162q-61 -67 -183 -67q-110 0 -170 60q-67 72 -67 201v184h-127v111h255v-138q57 36 127 36zM378 101q55 0 84.5 31t29.5 83q0 51 -30 81q-30 31 -87 31q-58 0 -108 -28v-65q0 -133 111 -133z" />
    <glyph glyph-name="uni044B" unicode="&#x44b;" horiz-adv-x="787" 
d="M192 372h115q61 0 106 -17t68.5 -45t34 -58.5t10.5 -64.5q0 -80 -56 -134q-56 -53 -157 -53h-247v543h126v-171zM591 0v543h130v-543h-130zM191 107h109q50 0 74.5 21.5t24.5 58.5q0 35 -24.5 56.5t-70.5 21.5h-113v-158z" />
    <glyph glyph-name="uni044C" unicode="&#x44c;" horiz-adv-x="572" 
d="M313 441q99 0 163 -64q65 -63 65 -161q0 -94 -62 -162q-61 -67 -183 -67q-110 0 -170 60q-67 72 -67 201v295h129v-136q58 34 125 34zM299 101q53 0 83 32t30 82q0 52 -30.5 82t-86.5 30q-55 0 -107 -27v-66q0 -133 111 -133z" />
    <glyph glyph-name="uni044D" unicode="&#x44d;" horiz-adv-x="603" 
d="M280 556q126 0 206 -80q81 -80 81 -204t-80 -204t-204 -80q-85 0 -153.5 38.5t-102.5 104.5l103 61q19 -37 61 -62t89 -25q54 0 96 33t57 85h-204v98h204q-15 52 -58 85t-99 33q-95 0 -149 -88l-103 56q33 71 102 110t154 39z" />
    <glyph glyph-name="uni044E" unicode="&#x44e;" horiz-adv-x="872" 
d="M546 557q127 0 208 -83q82 -82 82 -202q0 -122 -81 -204t-209 -82q-112 0 -189 64q-77 65 -95 166h-67v-216h-129v760h129v-437h66q18 101 95 168q78 66 190 66zM705 272q0 69 -46 116q-47 48 -113 48t-113 -48q-46 -47 -46 -116q0 -70 46 -117q47 -48 113 -48t113 48
q46 47 46 117z" />
    <glyph glyph-name="uni044F" unicode="&#x44f;" horiz-adv-x="574" 
d="M286 543h221v-543h-127v186q-41 -7 -96 -8l-115 -178h-144l136 196q-55 21 -82.5 64.5t-27.5 99.5q0 83 60.5 133t174.5 50zM288 283q46 0 92 8v146h-91q-109 0 -109 -78q0 -76 108 -76z" />
    <glyph glyph-name="uni0451" unicode="&#x451;" horiz-adv-x="623" 
d="M139 677q0 33 23.5 56t57.5 23t57 -23t23 -56q0 -35 -23 -58t-57 -23t-57.5 23t-23.5 58zM433 596q-35 0 -58 23t-23 58q0 33 23.5 56t57.5 23t57 -23t23 -56q0 -35 -23 -58t-57 -23zM588 283q0 -26 -4 -58h-414q13 -58 55.5 -91.5t110.5 -33.5q99 0 179 56l52 -93
q-101 -75 -236 -75q-74 0 -131.5 24t-92.5 64.5t-52.5 90t-17.5 105.5q0 124 78 203q79 81 204 81q117 0 193 -74q76 -73 76 -199zM319 447q-57 0 -96.5 -33t-52.5 -90h290q-8 57 -46.5 90t-94.5 33z" />
    <glyph glyph-name="Wgrave" unicode="&#x1e80;" horiz-adv-x="1057" 
d="M529 975l64 -180h-121l-97 180h154zM363 0h-109l-247 739h149l156 -507l174 507h83l178 -507l153 507h149l-246 -739h-108l-167 500z" />
    <glyph glyph-name="wgrave" unicode="&#x1e81;" horiz-adv-x="868" 
d="M439 799l61 -174h-115l-94 174h148zM307 1h-113l-185 542h136l114 -368l129 368h91l132 -368l111 368h136l-182 -542h-113l-129 355z" />
    <glyph glyph-name="Wacute" unicode="&#x1e82;" horiz-adv-x="1057" 
d="M595 794h-120l64 179h151zM363 0h-109l-247 739h149l156 -507l174 507h83l178 -507l153 507h149l-246 -739h-108l-167 500z" />
    <glyph glyph-name="wacute" unicode="&#x1e83;" horiz-adv-x="868" 
d="M496 625h-116l62 174h147zM307 1h-113l-185 542h136l114 -368l129 368h91l132 -368l111 368h136l-182 -542h-113l-129 355z" />
    <glyph glyph-name="Wdieresis" unicode="&#x1e84;" horiz-adv-x="1057" 
d="M426 799q-33 0 -55.5 22t-22.5 56q0 32 22.5 54t55.5 22q32 0 54.5 -22t22.5 -54q0 -33 -22.5 -55.5t-54.5 -22.5zM553 877q0 31 23 53.5t55 22.5q33 0 55 -22t22 -54q0 -34 -22 -56t-55 -22t-55.5 22t-22.5 56zM363 0h-109l-247 739h149l156 -507l174 507h83l178 -507
l153 507h149l-246 -739h-108l-167 500z" />
    <glyph glyph-name="wdieresis" unicode="&#x1e85;" horiz-adv-x="868" 
d="M247 697q0 33 23.5 56t57.5 23t57 -23t23 -56q0 -35 -23 -58t-57 -23t-57.5 23t-23.5 58zM541 616q-35 0 -58 23t-23 58q0 33 23.5 56t57.5 23t57 -23t23 -56q0 -35 -23 -58t-57 -23zM307 1h-113l-185 542h136l114 -368l129 368h91l132 -368l111 368h136l-182 -542h-113
l-129 355z" />
    <glyph glyph-name="Ygrave" unicode="&#x1ef2;" horiz-adv-x="670" 
d="M342 975l64 -180h-121l-97 180h154zM501 739h157l-255 -480v-259h-137v259l-253 480h158l163 -336z" />
    <glyph glyph-name="ygrave" unicode="&#x1ef3;" horiz-adv-x="588" 
d="M305 799l61 -174h-115l-94 174h148zM307 176l129 367h142l-220 -578q-40 -101 -92.5 -148.5t-128.5 -47.5q-62 0 -100 26l21 110q38 -18 69 -18q66 0 106 88l13 30l-237 538h151z" />
    <glyph glyph-name="uni2009" unicode="&#x2009;" horiz-adv-x="78" 
 />
    <glyph glyph-name="endash" unicode="&#x2013;" horiz-adv-x="719" 
d="M658 216h-597v122h597v-122z" />
    <glyph glyph-name="emdash" unicode="&#x2014;" horiz-adv-x="1038" 
d="M977 216h-916v122h916v-122z" />
    <glyph glyph-name="quoteleft" unicode="&#x2018;" horiz-adv-x="248" 
d="M128 666h2q27 0 47 -21t20 -49q0 -31 -23.5 -53t-55.5 -22q-36 0 -59.5 25t-23.5 64q0 99 142 190l38 -53q-71 -53 -87 -81z" />
    <glyph glyph-name="quoteright" unicode="&#x2019;" horiz-adv-x="246" 
d="M135 796q35 0 58.5 -25.5t23.5 -63.5q0 -100 -142 -191l-37 54q69 50 86 80h-1q-28 0 -47.5 20.5t-19.5 49.5q0 32 23 54t56 22z" />
    <glyph glyph-name="quotesinglbase" unicode="&#x201a;" horiz-adv-x="254" 
d="M126 137q35 0 58.5 -25.5t23.5 -63.5q0 -100 -142 -191l-37 54q69 50 86 80h-1q-28 0 -47.5 20.5t-19.5 49.5q0 32 23 54t56 22z" />
    <glyph glyph-name="quotedblleft" unicode="&#x201c;" horiz-adv-x="497" 
d="M180 800l38 -53q-70 -53 -87 -81h2q27 0 47 -21t20 -49q0 -31 -23.5 -53t-55.5 -22q-36 0 -59.5 25t-23.5 64q0 99 142 190zM378 666h2q27 0 47 -21t20 -49q0 -31 -23.5 -53t-55.5 -22q-36 0 -59.5 25t-23.5 64q0 99 142 190l38 -53q-71 -53 -87 -81z" />
    <glyph glyph-name="quotedblright" unicode="&#x201d;" horiz-adv-x="490" 
d="M132 799q36 0 59.5 -25t23.5 -64q0 -99 -142 -190l-38 53q71 53 87 81h-2q-27 0 -47 21t-20 49q0 31 23.5 53t55.5 22zM378 799q36 0 59.5 -25t23.5 -64q0 -99 -142 -190l-38 53q71 53 87 81h-2q-27 0 -47 21t-20 49q0 31 23.5 53t55.5 22z" />
    <glyph glyph-name="quotedblbase" unicode="&#x201e;" horiz-adv-x="497" 
d="M122 135q36 0 59.5 -25t23.5 -64q0 -99 -142 -190l-38 53q71 53 87 81h-2q-27 0 -47 21t-20 49q0 31 23.5 53t55.5 22zM368 135q36 0 59.5 -25t23.5 -64q0 -99 -142 -190l-38 53q71 53 87 81h-2q-27 0 -47 21t-20 49q0 31 23.5 53t55.5 22z" />
    <glyph glyph-name="dagger" unicode="&#x2020;" horiz-adv-x="502" 
d="M314 528h151v-117h-151v-589h-126v589h-151v117h151v321h126v-321z" />
    <glyph glyph-name="daggerdbl" unicode="&#x2021;" horiz-adv-x="502" 
d="M465 570v-117h-151v-236h151v-117h-151v-278h-126v278h-151v117h151v236h-151v117h151v279h126v-279h151z" />
    <glyph glyph-name="bullet" unicode="&#x2022;" horiz-adv-x="449" 
d="M67 340q0 66 46 112t111 46t111 -46q47 -47 47 -112q0 -63 -47 -110q-46 -46 -111 -46t-111 46t-46 110z" />
    <glyph glyph-name="ellipsis" unicode="&#x2026;" horiz-adv-x="733" 
d="M122 -16q-33 0 -56 22.5t-23 55.5q0 32 23 54t56 22q32 0 54 -22t22 -54q0 -33 -22 -55.5t-54 -22.5zM367 -16q-33 0 -56 22.5t-23 55.5q0 32 23 54t56 22q32 0 54 -22t22 -54q0 -33 -22 -55.5t-54 -22.5zM612 -16q-33 0 -56 22.5t-23 55.5q0 32 23 54t56 22q32 0 54 -22
t22 -54q0 -33 -22 -55.5t-54 -22.5z" />
    <glyph glyph-name="perthousand" unicode="&#x2030;" horiz-adv-x="1310" 
d="M356 439q-56 -53 -134 -53q-79 0 -135 53q-55 52 -55 129q0 76 55 130t135 54q78 0 134 -54q55 -54 55 -130q0 -77 -55 -129zM240 0h-128l540 739h129zM222 478q37 0 64 26t27 64t-27 64.5t-64 26.5q-39 0 -65 -26t-26 -65t26 -64.5t65 -25.5zM486 170q0 77 55 129
q55 54 135 54q78 0 134 -54q56 -53 56 -129q0 -75 -56 -129q-56 -53 -134 -53q-79 0 -135 53q-55 54 -55 129zM1229 41q-56 -53 -134 -53q-79 0 -135 53q-55 54 -55 129t55 129q56 54 135 54t134 -54q56 -54 56 -129t-56 -129zM1095 78q39 0 66 26.5t27 65.5q0 40 -27 67
t-66 27t-66 -27t-27 -67q0 -39 27 -65.5t66 -26.5zM676 80q39 0 64 25q27 26 27 65t-27 65q-18 21 -46 25.5t-52.5 -5.5t-41.5 -33t-15 -52q0 -38 27 -64t64 -26z" />
    <glyph glyph-name="guilsinglleft" unicode="&#x2039;" horiz-adv-x="354" 
d="M307 88h-135l-137 203l137 203h135l-141 -203z" />
    <glyph glyph-name="guilsinglright" unicode="&#x203a;" horiz-adv-x="354" 
d="M319 291l-137 -203h-135l141 203l-141 203h135z" />
    <glyph glyph-name="fraction" unicode="&#x2044;" horiz-adv-x="208" 
d="M-129 0h-108l578 739h106z" />
    <glyph glyph-name="uni2070" unicode="&#x2070;" horiz-adv-x="383" 
d="M192 501q-83 0 -126 58t-43 147q0 93 44 149.5t125 56.5q80 0 124 -56.5t44 -149.5q0 -89 -43 -147t-125 -58zM192 583q76 0 76 123t-76 123q-77 0 -77 -123t77 -123z" />
    <glyph glyph-name="uni2074" unicode="&#x2074;" horiz-adv-x="369" 
d="M293 669h43v-71h-43v-91h-80v91h-179l-19 52l212 253h66v-234zM213 787l-100 -118h100v118z" />
    <glyph glyph-name="uni2075" unicode="&#x2075;" horiz-adv-x="343" 
d="M176 763q60 0 97.5 -36t37.5 -93q0 -58 -42 -96t-110 -38q-77 0 -138 46l35 68q51 -36 98 -36q32 0 52.5 17t20.5 42q0 24 -18.5 40.5t-48.5 16.5q-38 0 -68 -27l-45 39l24 195h214v-73h-154l-9 -75q24 10 54 10z" />
    <glyph glyph-name="uni2076" unicode="&#x2076;" horiz-adv-x="353" 
d="M194 763q58 0 95.5 -36t37.5 -92q0 -58 -42 -97q-41 -38 -104 -38q-75 0 -116 52.5t-41 139.5q0 95 46 157q46 63 135 63q67 0 114 -35l-34 -63q-37 25 -75 25q-44 0 -73.5 -33.5t-34.5 -82.5q28 40 92 40zM181 572q28 0 46.5 18.5t18.5 44.5t-18.5 43t-46.5 17
q-27 0 -45.5 -17t-18.5 -44q0 -26 18.5 -44t45.5 -18z" />
    <glyph glyph-name="uni2077" unicode="&#x2077;" horiz-adv-x="297" 
d="M13 822v79h271v-61l-151 -331h-94l145 313h-171z" />
    <glyph glyph-name="uni2078" unicode="&#x2078;" horiz-adv-x="377" 
d="M35 616q0 72 80 102v1q-63 26 -63 85q0 48 37.5 78t99.5 30q61 0 99 -30t38 -78q0 -58 -64 -85v-1q39 -15 60 -41.5t21 -59.5q0 -51 -42 -83.5t-112 -32.5t-112 32t-42 83zM189 748q25 0 40.5 13.5t15.5 33.5t-16 34t-40 14q-25 0 -41 -13.5t-16 -34.5t15.5 -34t41.5 -13
zM189 572q29 0 48.5 15.5t19.5 38.5q0 24 -19 39.5t-49 15.5q-31 0 -50 -15.5t-19 -39.5q0 -23 19 -38.5t50 -15.5z" />
    <glyph glyph-name="uni2079" unicode="&#x2079;" horiz-adv-x="368" 
d="M176 912q74 0 114.5 -52.5t40.5 -141.5q0 -94 -45 -155q-45 -62 -133 -62q-68 0 -114 34l32 64q37 -25 77 -25q46 0 74 32.5t33 85.5q-34 -43 -94 -43q-59 0 -95.5 36t-36.5 91q0 60 41 98t106 38zM175 717q27 0 45 17.5t18 43.5q0 27 -18 45t-45 18q-28 0 -46 -18
t-18 -45q0 -26 18 -43.5t46 -17.5z" />
    <glyph glyph-name="uni2080" unicode="&#x2080;" horiz-adv-x="383" 
d="M192 -161q-83 0 -126 58t-43 147q0 93 44 149.5t125 56.5q80 0 124 -56.5t44 -149.5q0 -89 -43 -147t-125 -58zM192 -79q76 0 76 123t-76 123q-77 0 -77 -123t77 -123z" />
    <glyph glyph-name="uni2081" unicode="&#x2081;" horiz-adv-x="274" 
d="M12 130l141 109h66v-394h-89v271l-72 -55z" />
    <glyph glyph-name="uni2082" unicode="&#x2082;" horiz-adv-x="346" 
d="M250 13l-88 -90h146v-78h-271v71l130 131q48 49 48 79q0 20 -14 32.5t-36 12.5q-41 0 -96 -51l-43 65q65 65 144 65q43 1 76.5 -20t49 -54t5 -77.5t-50.5 -85.5z" />
    <glyph glyph-name="uni2083" unicode="&#x2083;" horiz-adv-x="333" 
d="M12 -122l36 69q56 -29 95 -29q30 0 47.5 12.5t17.5 33.5t-18 33.5t-47 12.5h-53v75h48q25 0 43 11.5t18 31.5q0 19 -15.5 30.5t-38.5 11.5q-37 0 -81 -29l-42 62q53 47 133 47q58 0 95 -31q39 -30 39 -74q0 -32 -19.5 -55.5t-52.5 -33.5v-2q39 -9 60.5 -35t21.5 -62
q0 -52 -42 -85t-110 -33q-67 0 -135 39z" />
    <glyph glyph-name="uni2084" unicode="&#x2084;" horiz-adv-x="369" 
d="M293 7h43v-71h-43v-91h-80v91h-179l-19 52l212 253h66v-234zM213 125l-100 -118h100v118z" />
    <glyph glyph-name="uni2085" unicode="&#x2085;" horiz-adv-x="343" 
d="M176 101q60 0 97.5 -36t37.5 -93q0 -58 -42 -96t-110 -38q-77 0 -138 46l35 68q51 -36 98 -36q32 0 52.5 17t20.5 42q0 24 -18.5 40.5t-48.5 16.5q-38 0 -68 -27l-45 39l24 195h214v-73h-154l-9 -75q24 10 54 10z" />
    <glyph glyph-name="uni2086" unicode="&#x2086;" horiz-adv-x="353" 
d="M194 101q58 0 95.5 -36t37.5 -92q0 -59 -42 -96q-40 -39 -104 -39q-75 0 -116 52.5t-41 139.5q0 95 46 157q46 63 135 63q67 0 114 -35l-34 -63q-37 25 -75 25q-44 0 -73.5 -33.5t-34.5 -82.5q28 40 92 40zM181 -90q28 0 46.5 18.5t18.5 44.5t-18.5 43t-46.5 17
q-27 0 -45.5 -17t-18.5 -44q0 -26 18.5 -44t45.5 -18z" />
    <glyph glyph-name="uni2087" unicode="&#x2087;" horiz-adv-x="297" 
d="M13 160v79h271v-61l-151 -331h-94l145 313h-171z" />
    <glyph glyph-name="uni2088" unicode="&#x2088;" horiz-adv-x="377" 
d="M35 -46q0 72 80 102v1q-63 26 -63 85q0 48 37.5 78t99.5 30q61 0 99 -30t38 -78q0 -58 -64 -85v-1q39 -15 60 -41.5t21 -59.5q0 -51 -42 -83.5t-112 -32.5t-112 32t-42 83zM189 86q25 0 40.5 13.5t15.5 33.5t-16 34t-40 14q-25 0 -41 -13.5t-16 -34.5t15.5 -34t41.5 -13z
M189 -90q29 0 48.5 15.5t19.5 38.5q0 24 -19 39.5t-49 15.5q-31 0 -50 -15.5t-19 -39.5q0 -23 19 -38.5t50 -15.5z" />
    <glyph glyph-name="uni2089" unicode="&#x2089;" horiz-adv-x="368" 
d="M176 250q74 0 114.5 -52.5t40.5 -141.5q0 -94 -45 -155q-45 -62 -133 -62q-68 0 -114 34l32 64q37 -25 77 -25q46 0 74 32.5t33 85.5q-34 -43 -94 -43q-59 0 -95.5 36t-36.5 91q0 60 41 98t106 38zM175 55q27 0 45 17.5t18 43.5q0 27 -18 45t-45 18q-28 0 -46 -18
t-18 -45q0 -26 18 -43.5t46 -17.5z" />
    <glyph glyph-name="Euro" unicode="&#x20ac;" horiz-adv-x="762" 
d="M550 249h-257q30 -63 86.5 -98.5t125.5 -35.5q93 0 184 51v-130q-85 -47 -198 -47q-121 0 -218 71q-96 73 -130 189h-114l38 92h60q-2 28 0 56h-84l37 92h63q35 119 129 191t219 72q139 0 236 -69l-63 -108q-73 51 -157 51q-69 0 -126.5 -37t-87.5 -100h354l-42 -92h-338
q-2 -28 0 -56h320z" />
    <glyph glyph-name="trademark" unicode="&#x2122;" horiz-adv-x="817" 
d="M131 665h-98v74h276v-74h-97v-276h-81v276zM543 542l147 197h52v-350h-79v186l-104 -137h-31l-103 137v-186h-79v350h52z" />
    <glyph glyph-name="estimated" unicode="&#x212e;" horiz-adv-x="954" 
d="M484 -17q-184 0 -312 110q-127 109 -127 273q0 165 127 274q128 111 312 111q183 0 310 -109q129 -109 129 -281v-21q0 -5 -7 -5h-686v-230q0 -3 4 -4q103 -72 250 -72q103 0 189 37t137 105l35 -29q-60 -75 -155.5 -117t-205.5 -42zM230 628v-243h508v244q0 3 -3 4
q-106 73 -251 73q-146 0 -252 -73q-2 -2 -2 -5z" />
    <glyph glyph-name="uni2150" unicode="&#x2150;" horiz-adv-x="877" 
d="M241 346h-89v272l-72 -55l-46 69l141 109h66v-395zM89 0l578 739h107l-577 -739h-108zM560 315v79h271v-61l-151 -331h-94l145 313h-171z" />
    <glyph glyph-name="uni2151" unicode="&#x2151;" horiz-adv-x="897" 
d="M239 346h-89v272l-72 -55l-46 69l141 109h66v-395zM89 0l578 739h106l-577 -739h-107zM702 405q74 0 114.5 -52.5t40.5 -141.5q0 -94 -45 -155q-45 -62 -133 -62q-68 0 -114 34l32 64q37 -25 77 -25q46 0 74 32.5t33 85.5q-34 -43 -94 -43q-59 0 -95.5 36t-36.5 91
q0 60 41 98t106 38zM701 210q27 0 45 17.5t18 43.5q0 27 -18 45t-45 18q-28 0 -46 -18t-18 -45q0 -26 18 -43.5t46 -17.5z" />
    <glyph glyph-name="uni2153" unicode="&#x2153;" horiz-adv-x="867" 
d="M239 346h-89v272l-72 -55l-46 69l141 109h66v-395zM84 0l578 739h106l-576 -739h-108zM743 212v-2q39 -9 60.5 -35t21.5 -62q0 -52 -42 -85t-110 -33q-67 0 -135 39l36 69q56 -29 95 -29q30 0 47.5 12.5t17.5 33.5t-18 33.5t-47 12.5h-53v75h48q25 0 43 11.5t18 31.5
q0 19 -15.5 30.5t-38.5 11.5q-37 0 -81 -29l-42 62q53 47 133 47q58 0 95 -31q39 -30 39 -74q0 -32 -19.5 -55.5t-52.5 -33.5z" />
    <glyph glyph-name="uni2154" unicode="&#x2154;" horiz-adv-x="866" 
d="M45 347v71l130 131q48 49 48 79q0 20 -14 32.5t-36 12.5q-41 0 -96 -51l-43 65q65 65 144 65q43 1 76.5 -20t49 -54t5 -77.5t-50.5 -85.5l-88 -90h146v-78h-271zM116 0l578 739h106l-576 -739h-108zM730 210v-2q39 -9 60.5 -35t21.5 -62q0 -52 -42 -85t-110 -33t-135 39
l36 69q56 -29 95 -29q30 0 47.5 12.5t17.5 33.5t-18 33.5t-47 12.5h-53v75h48q25 0 43 11.5t18 31.5q0 19 -15.5 30.5t-38.5 11.5q-37 0 -81 -29l-42 62q53 47 133 47q58 0 95 -31q39 -30 39 -74q0 -32 -19.5 -55.5t-52.5 -33.5z" />
    <glyph glyph-name="uni2155" unicode="&#x2155;" horiz-adv-x="862" 
d="M239 346h-89v272l-72 -55l-46 69l141 109h66v-395zM84 0l578 739h106l-576 -739h-108zM695 256q60 0 97.5 -36t37.5 -93q0 -58 -42 -96t-110 -38q-77 0 -138 46l35 68q51 -36 98 -36q32 0 52.5 17t20.5 42q0 24 -18.5 40.5t-48.5 16.5q-38 0 -68 -27l-45 39l24 195h214
v-73h-154l-9 -75q24 10 54 10z" />
    <glyph glyph-name="uni2156" unicode="&#x2156;" horiz-adv-x="863" 
d="M44 347v71l130 131q48 49 48 79q0 20 -14 32.5t-36 12.5q-40 0 -96 -51l-43 65q65 65 144 65q43 1 76.5 -20t49 -54t5 -77.5t-50.5 -85.5l-88 -90h146v-78h-271zM113 0l578 739h107l-577 -739h-108zM680 256q60 0 97.5 -36t37.5 -93q0 -58 -42 -96t-110 -38
q-77 0 -138 46l35 68q51 -36 98 -36q32 0 52.5 17t20.5 42q0 24 -18.5 40.5t-48.5 16.5q-38 0 -68 -27l-45 39l24 195h214v-73h-154l-9 -75q24 10 54 10z" />
    <glyph glyph-name="uni2157" unicode="&#x2157;" horiz-adv-x="834" 
d="M152 420q30 0 47.5 12.5t17.5 33.5t-18 33.5t-47 12.5h-53v75h48q25 0 43 11.5t18 31.5q0 19 -15.5 30.5t-38.5 11.5q-37 0 -81 -29l-42 62q53 47 133 47q58 0 95 -31q39 -30 39 -74q0 -32 -19.5 -55.5t-52.5 -33.5v-2q39 -9 60.5 -35t21.5 -62q0 -52 -42 -85t-110 -33
t-135 39l36 69q56 -29 95 -29zM86 0l578 739h106l-577 -739h-107zM656 256q60 0 97.5 -36t37.5 -93q0 -58 -42 -96t-110 -38q-77 0 -138 46l35 68q51 -36 98 -36q32 0 52.5 17t20.5 42q0 24 -18.5 40.5t-48.5 16.5q-38 0 -68 -27l-45 39l24 195h214v-73h-154l-9 -75
q24 10 54 10z" />
    <glyph glyph-name="uni2158" unicode="&#x2158;" horiz-adv-x="890" 
d="M305 347h-80v91h-179l-19 52l212 253h66v-234h43v-71h-43v-91zM135 0l578 739h106l-576 -739h-108zM225 627l-100 -118h100v118zM700 256q60 0 97.5 -36t37.5 -93q0 -58 -42 -96t-110 -38q-77 0 -138 46l35 68q51 -36 98 -36q32 0 52.5 17t20.5 42q0 24 -18.5 40.5
t-48.5 16.5q-38 0 -68 -27l-45 39l24 195h214v-73h-154l-9 -75q24 10 54 10z" />
    <glyph glyph-name="uni2159" unicode="&#x2159;" horiz-adv-x="858" 
d="M239 346h-89v272l-72 -55l-46 69l141 109h66v-395zM79 0l578 739h106l-576 -739h-108zM686 256q60 0 97.5 -36t37.5 -93q0 -58 -42 -96t-110 -38q-77 0 -138 46l35 68q51 -36 98 -36q32 0 52.5 17t20.5 42q0 24 -18.5 40.5t-48.5 16.5q-38 0 -68 -27l-45 39l24 195h214
v-73h-154l-9 -75q24 10 54 10z" />
    <glyph glyph-name="uni215A" unicode="&#x215a;" horiz-adv-x="870" 
d="M162 418q32 0 52.5 17t20.5 42q0 24 -18.5 40.5t-48.5 16.5q-38 0 -68 -27l-45 39l24 195h214v-73h-154l-9 -75q24 10 54 10q60 0 97.5 -36t37.5 -93q0 -58 -42 -96t-110 -38q-77 0 -138 46l35 68q51 -36 98 -36zM103 0l578 739h106l-576 -739h-108zM686 256
q58 0 95.5 -36t37.5 -92q0 -58 -42 -97q-41 -38 -104 -38q-75 0 -116 52.5t-41 139.5q0 95 46 157q46 63 135 63q67 0 114 -35l-34 -63q-37 25 -75 25q-44 0 -73.5 -33.5t-34.5 -82.5q28 40 92 40zM673 65q28 0 46.5 18.5t18.5 44.5t-18.5 43t-46.5 17q-27 0 -45.5 -17
t-18.5 -44q0 -26 18.5 -44t45.5 -18z" />
    <glyph glyph-name="oneeighth" unicode="&#x215b;" horiz-adv-x="884" 
d="M239 346h-89v272l-72 -55l-46 69l141 109h66v-395zM92 0l578 739h106l-577 -739h-107zM767 212v-1q39 -15 60 -41.5t21 -59.5q0 -51 -42 -83.5t-112 -32.5t-112 32t-42 83q0 72 80 102v1q-63 26 -63 85q0 48 37.5 78t99.5 30q61 0 99 -30t38 -78q0 -58 -64 -85zM694 336
q-25 0 -41 -13.5t-16 -34.5t15.5 -34t41.5 -13q25 0 40.5 13.5t15.5 33.5t-16 34t-40 14zM694 65q29 0 48.5 15.5t19.5 38.5q0 24 -19 39.5t-49 15.5q-31 0 -50 -15.5t-19 -39.5q0 -23 19 -38.5t50 -15.5z" />
    <glyph glyph-name="threeeighths" unicode="&#x215c;" horiz-adv-x="868" 
d="M21 380l36 69q56 -29 95 -29q30 0 47.5 12.5t17.5 33.5t-18 33.5t-47 12.5h-53v75h48q25 0 43 11.5t18 31.5q0 19 -15.5 30.5t-38.5 11.5q-37 0 -81 -29l-42 62q53 47 133 47q58 0 95 -31q39 -30 39 -74q0 -32 -19.5 -55.5t-52.5 -33.5v-2q39 -9 60.5 -35t21.5 -62
q0 -52 -42 -85t-110 -33t-135 39zM209 0h-108l578 739h106zM527 109q0 72 80 102v1q-63 26 -63 85q0 48 37.5 78t99.5 30q61 0 99 -30t38 -78q0 -58 -64 -85v-1q39 -15 60 -41.5t21 -59.5q0 -51 -42 -83.5t-112 -32.5t-112 32t-42 83zM681 241q25 0 40.5 13.5t15.5 33.5
t-16 34t-40 14q-25 0 -41 -13.5t-16 -34.5t15.5 -34t41.5 -13zM681 65q29 0 48.5 15.5t19.5 38.5q0 24 -19 39.5t-49 15.5q-31 0 -50 -15.5t-19 -39.5q0 -23 19 -38.5t50 -15.5z" />
    <glyph glyph-name="fiveeighths" unicode="&#x215d;" horiz-adv-x="877" 
d="M162 418q32 0 52.5 17t20.5 42q0 24 -18.5 40.5t-48.5 16.5q-38 0 -68 -27l-45 39l24 195h214v-73h-154l-9 -75q24 10 54 10q60 0 97.5 -36t37.5 -93q0 -58 -42 -96t-110 -38q-77 0 -138 46l35 68q51 -36 98 -36zM110 0l578 739h106l-577 -739h-107zM763 212v-1
q39 -15 60 -41.5t21 -59.5q0 -51 -42 -83.5t-112 -32.5t-112 32t-42 83q0 72 80 102v1q-63 26 -63 85q0 48 37.5 78t99.5 30q61 0 99 -30t38 -78q0 -58 -64 -85zM690 336q-25 0 -41 -13.5t-16 -34.5t15.5 -34t41.5 -13q25 0 40.5 13.5t15.5 33.5t-16 34t-40 14zM690 65
q29 0 48.5 15.5t19.5 38.5q0 24 -19 39.5t-49 15.5q-31 0 -50 -15.5t-19 -39.5q0 -23 19 -38.5t50 -15.5z" />
    <glyph glyph-name="seveneighths" unicode="&#x215e;" horiz-adv-x="818" 
d="M148 349h-94l145 313h-171v79h271v-61zM44 0l578 739h106l-576 -739h-108zM704 212v-1q39 -15 60 -41.5t21 -59.5q0 -51 -42 -83.5t-112 -32.5t-112 32t-42 83q0 72 80 102v1q-63 26 -63 85q0 48 37.5 78t99.5 30q61 0 99 -30t38 -78q0 -58 -64 -85zM631 336
q-25 0 -41 -13.5t-16 -34.5t15.5 -34t41.5 -13q25 0 40.5 13.5t15.5 33.5t-16 34t-40 14zM631 65q29 0 48.5 15.5t19.5 38.5q0 24 -19 39.5t-49 15.5q-31 0 -50 -15.5t-19 -39.5q0 -23 19 -38.5t50 -15.5z" />
    <glyph glyph-name="partialdiff" unicode="&#x2202;" horiz-adv-x="622" 
d="M291 -12q-109 0 -183 72q-72 72 -72 181q0 106 68 179q68 72 174 74q110 0 168 -91q-18 95 -85 177t-169 133l77 90q87 -42 160 -115q148 -136 151 -350q0 -150 -81 -250t-208 -100zM295 101q58 0 97 41q40 41 40 102q0 59 -40 98q-39 39 -95 39q-57 0 -96 -41
q-38 -41 -38 -100t37 -99t95 -40z" />
    <glyph glyph-name="product" unicode="&#x220f;" horiz-adv-x="751" 
d="M34 734h682v-132h-93v-720h-137v720h-221v-720h-137v720h-94v132z" />
    <glyph glyph-name="summation" unicode="&#x2211;" horiz-adv-x="650" 
d="M615 -179h-570v113l209 345l-209 347v113h570v-130h-399l192 -330l-192 -328h399v-130z" />
    <glyph glyph-name="minus" unicode="&#x2212;" horiz-adv-x="592" 
d="M527 273h-462v122h462v-122z" />
    <glyph glyph-name="radical" unicode="&#x221a;" horiz-adv-x="723" 
d="M407 -118h-115l-169 432h-121v121h220l129 -352l247 725h145z" />
    <glyph glyph-name="infinity" unicode="&#x221e;" horiz-adv-x="936" 
d="M688 573q84 0 144 -60t60 -143q0 -84 -61 -144t-145 -60q-56 0 -103 30q-44 28 -115 101q-70 -72 -120 -102q-49 -29 -103 -29q-83 0 -143 60q-59 61 -59 143q0 83 61 143q61 61 144 61q52 0 99 -28q50 -29 121 -100q70 71 120 99q50 29 100 29zM246 271q32 0 65.5 22
t85.5 77q-53 54 -85 74.5t-60 20.5q-41 0 -69.5 -28.5t-28.5 -69.5q0 -40 26.5 -68t65.5 -28zM682 271q41 0 70 28.5t29 70.5q0 40 -28.5 67.5t-68.5 27.5q-33 0 -64 -20t-81 -73q56 -59 86 -81q29 -20 57 -20z" />
    <glyph glyph-name="integral" unicode="&#x222b;" horiz-adv-x="467" 
d="M101 -210q-69 0 -122 32l32 107q34 -21 71 -21q41 0 65.5 28t24.5 85v587q0 105 52 160.5t138 55.5q69 0 128 -35l-38 -106q-25 16 -53 19.5t-53 -5t-40.5 -36.5t-13.5 -71v-586q0 -107 -57 -160q-57 -54 -134 -54z" />
    <glyph glyph-name="approxequal" unicode="&#x2248;" horiz-adv-x="654" 
d="M418 387q-53 0 -116 31q-66 32 -89 32q-25 0 -45 -13t-47 -48l-77 63q57 109 175 109q49 0 115 -32q63 -31 91 -31q26 0 45 13.5t47 51.5l80 -65q-63 -111 -179 -111zM422 173q-53 0 -116 31q-66 32 -89 32q-25 0 -45 -13t-47 -48l-77 63q57 109 175 109q49 0 115 -32
q63 -31 91 -31q26 0 45 13.5t47 51.5l80 -65q-63 -111 -179 -111z" />
    <glyph glyph-name="notequal" unicode="&#x2260;" horiz-adv-x="592" 
d="M527 477v-109h-174l-34 -81h208v-109h-254l-46 -107h-81l45 107h-126v109h172l35 81h-207v109h253l46 109h82l-46 -109h127z" />
    <glyph glyph-name="lessequal" unicode="&#x2264;" horiz-adv-x="581" 
d="M510 318v-125l-452 189v85l452 192v-125l-286 -108zM510 153v-110h-457v110h457z" />
    <glyph glyph-name="greaterequal" unicode="&#x2265;" horiz-adv-x="581" 
d="M523 382l-452 -189v125l286 108l-286 108v125l452 -192v-85zM528 43h-457v110h457v-110z" />
    <glyph glyph-name="lozenge" unicode="&#x25ca;" horiz-adv-x="705" 
d="M406 -42h-108l-268 418l268 416h108l268 -416zM183 378l169 -270l170 270l-170 266z" />
    <glyph glyph-name="NULL" horiz-adv-x="0" 
 />
    <glyph glyph-name="Euro.osf" horiz-adv-x="585" 
d="M458 240h-255q15 -71 68.5 -113t130.5 -42q75 0 154 43v-102q-65 -37 -164 -37q-117 0 -199 70q-82 71 -98 181h-86l9 21h-11l34 77h53q16 115 100 187q83 73 200 73q116 0 196 -56l-46 -83q-65 41 -139 41q-76 0 -133 -45q-57 -46 -70 -117h296l-10 -21h4z" />
    <glyph glyph-name="I_J.loclNLD" horiz-adv-x="882" 
d="M85 0v739h137v-739h-137zM535 -12q-136 0 -225 92l70 106q63 -67 146 -67q66 0 104 41.5t38 113.5v465h137v-471q0 -139 -76 -209q-76 -71 -194 -71z" />
    <glyph glyph-name="Iacute_J.loclNLD" horiz-adv-x="880" 
d="M213 795h-120l64 179h151zM792 794h-120l64 179h151zM85 0v739h137v-739h-137zM535 -12q-136 0 -225 92l70 106q63 -67 146 -67q66 0 104 41.5t38 113.5v465h137v-471q0 -139 -76 -209q-76 -71 -194 -71z" />
    <glyph glyph-name="J.loclNLD" horiz-adv-x="575" 
d="M488 794h-120l64 179h151zM231 -12q-136 0 -225 92l70 106q63 -67 146 -67q66 0 104 41.5t38 113.5v465h137v-471q0 -139 -76 -209q-76 -71 -194 -71z" />
    <glyph glyph-name="Jacute" horiz-adv-x="575" 
d="M490 794h-120l64 179h151zM231 -12q-136 0 -225 92l70 106q63 -67 146 -67q66 0 104 41.5t38 113.5v465h137v-471q0 -139 -76 -209q-76 -71 -194 -71z" />
    <glyph glyph-name="_1" horiz-adv-x="0" 
 />
    <glyph glyph-name="a.ss02" horiz-adv-x="581" 
d="M274 556q106 0 176.5 -56t70.5 -176v-324h-118v64q-61 -78 -178 -78q-91 0 -143.5 48.5t-52.5 127.5q0 80 64 125t176 46q103 3 130 5q-11 104 -130 104q-89 0 -168 -46l-49 97q100 63 222 63zM246 93q62 0 104 41t47 105q-39 -4 -98 -4q-77 -1 -110 -16t-33 -55
q0 -33 24.5 -52t65.5 -19z" />
    <glyph glyph-name="aacute.ss02" horiz-adv-x="581" 
d="M284 799h147l-93 -174h-116zM274 556q106 0 176.5 -56t70.5 -176v-324h-118v64q-61 -78 -178 -78q-91 0 -143.5 48.5t-52.5 127.5q0 80 64 125t176 46q103 3 130 5q-11 104 -130 104q-89 0 -168 -46l-49 97q100 63 222 63zM246 93q62 0 104 41t47 105q-39 -4 -98 -4
q-77 -1 -110 -16t-33 -55q0 -33 24.5 -52t65.5 -19z" />
    <glyph glyph-name="abreve.ss02" horiz-adv-x="581" 
d="M103 800h105q2 -42 23 -65.5t57 -23.5q37 0 58 24t22 65h106q-4 -83 -54 -131t-132 -48q-81 0 -131 48t-54 131zM274 556q106 0 176.5 -56t70.5 -176v-324h-118v64q-61 -78 -178 -78q-91 0 -143.5 48.5t-52.5 127.5q0 80 64 125t176 46q103 3 130 5q-11 104 -130 104
q-89 0 -168 -46l-49 97q100 63 222 63zM246 93q62 0 104 41t47 105q-39 -4 -98 -4q-77 -1 -110 -16t-33 -55q0 -33 24.5 -52t65.5 -19z" />
    <glyph glyph-name="acircumflex.ss02" horiz-adv-x="581" 
d="M350 625l-66 87l-67 -87h-126l146 173h97l146 -173h-130zM274 556q106 0 176.5 -56t70.5 -176v-324h-118v64q-61 -78 -178 -78q-91 0 -143.5 48.5t-52.5 127.5q0 80 64 125t176 46q103 3 130 5q-11 104 -130 104q-89 0 -168 -46l-49 97q100 63 222 63zM246 93
q62 0 104 41t47 105q-39 -4 -98 -4q-77 -1 -110 -16t-33 -55q0 -33 24.5 -52t65.5 -19z" />
    <glyph glyph-name="acute.case" horiz-adv-x="335" 
d="M160 795h-120l64 179h151z" />
    <glyph glyph-name="adieresis.ss02" horiz-adv-x="581" 
d="M102 698q0 33 23.5 56t57.5 23t57 -23t23 -56q0 -35 -23 -58t-57 -23t-57.5 23t-23.5 58zM396 617q-35 0 -58 23t-23 58q0 33 23.5 56t57.5 23t57 -23t23 -56q0 -35 -23 -58t-57 -23zM274 556q106 0 176.5 -56t70.5 -176v-324h-118v64q-61 -78 -178 -78
q-91 0 -143.5 48.5t-52.5 127.5q0 80 64 125t176 46q103 3 130 5q-11 104 -130 104q-89 0 -168 -46l-49 97q100 63 222 63zM246 93q62 0 104 41t47 105q-39 -4 -98 -4q-77 -1 -110 -16t-33 -55q0 -33 24.5 -52t65.5 -19z" />
    <glyph glyph-name="agrave.ss02" horiz-adv-x="581" 
d="M298 800l61 -174h-115l-94 174h148zM274 556q106 0 176.5 -56t70.5 -176v-324h-118v64q-61 -78 -178 -78q-91 0 -143.5 48.5t-52.5 127.5q0 80 64 125t176 46q103 3 130 5q-11 104 -130 104q-89 0 -168 -46l-49 97q100 63 222 63zM246 93q62 0 104 41t47 105
q-39 -4 -98 -4q-77 -1 -110 -16t-33 -55q0 -33 24.5 -52t65.5 -19z" />
    <glyph glyph-name="amacron.ss02" horiz-adv-x="581" 
d="M127 752h323v-113l-323 -1v114zM274 556q106 0 176.5 -56t70.5 -176v-324h-118v64q-61 -78 -178 -78q-91 0 -143.5 48.5t-52.5 127.5q0 80 64 125t176 46q103 3 130 5q-11 104 -130 104q-89 0 -168 -46l-49 97q100 63 222 63zM246 93q62 0 104 41t47 105q-39 -4 -98 -4
q-77 -1 -110 -16t-33 -55q0 -33 24.5 -52t65.5 -19z" />
    <glyph glyph-name="aogonek.ss02" horiz-adv-x="579" 
d="M503 -148l33 -86q-52 -29 -104 -29q-56 0 -89 31.5t-33 82.5q0 84 101 149h-8v64q-61 -78 -178 -78q-91 0 -143.5 48.5t-52.5 127.5q0 80 64 125t176 46q103 3 130 5q-11 104 -130 104q-89 0 -168 -46l-49 97q100 63 222 63q106 0 176.5 -56t70.5 -176v-324
q-43 -21 -72.5 -54t-29.5 -63q0 -19 12 -31t30 -12q19 0 42 12zM246 93q62 0 104 41t47 105q-39 -4 -98 -4q-77 -1 -110 -16t-33 -55q0 -33 24.5 -52t65.5 -19z" />
    <glyph glyph-name="aring.ss02" horiz-adv-x="581" 
d="M379 641q-37 -36 -91 -36t-92 36q-37 36 -37 88t37 88q37 37 92 37q54 0 91 -37q38 -36 38 -88t-38 -88zM288 782q-22 0 -37.5 -15t-15.5 -36q0 -23 15.5 -38t37.5 -15q21 0 36.5 15t15.5 38q0 21 -15.5 36t-36.5 15zM274 556q106 0 176.5 -56t70.5 -176v-324h-118v64
q-61 -78 -178 -78q-91 0 -143.5 48.5t-52.5 127.5q0 80 64 125t176 46q103 3 130 5q-11 104 -130 104q-89 0 -168 -46l-49 97q100 63 222 63zM246 93q62 0 104 41t47 105q-39 -4 -98 -4q-77 -1 -110 -16t-33 -55q0 -33 24.5 -52t65.5 -19z" />
    <glyph glyph-name="at.case" horiz-adv-x="968" 
d="M594 523v45h100v-262q0 -31 13 -48t34 -17q38 0 67 47q29 49 29 120q0 134 -101 227t-242 92q-148 -1 -250 -107q-101 -106 -101 -254q0 -150 107 -257q106 -106 262 -106q149 0 269 93l47 -78q-54 -46 -140 -77q-88 -32 -182 -32q-194 0 -330 134q-134 136 -134 323
q0 188 132 320q132 133 321 133q185 0 313 -120q127 -120 127 -287q0 -114 -61 -190q-60 -75 -149 -75q-44 0 -74.5 20.5t-43.5 55.5q-52 -76 -152 -76q-86 0 -145 62t-59 155q0 91 59 155q58 64 147 64q87 0 137 -60zM593 364q0 54 -34 89q-34 37 -84 37q-51 0 -85 -35.5
t-34 -89.5q0 -53 34 -88.5t84 -35.5q49 0 84 35q35 37 35 88z" />
    <glyph glyph-name="atilde.ss02" horiz-adv-x="581" 
d="M230 673q-36 0 -63 -49l-83 40q45 110 138 110q32 0 75 -22q43 -21 61 -21q32 0 58 47l82 -39q-39 -110 -131 -110q-31 0 -74 22t-63 22zM274 556q106 0 176.5 -56t70.5 -176v-324h-118v64q-61 -78 -178 -78q-91 0 -143.5 48.5t-52.5 127.5q0 80 64 125t176 46
q103 3 130 5q-11 104 -130 104q-89 0 -168 -46l-49 97q100 63 222 63zM246 93q62 0 104 41t47 105q-39 -4 -98 -4q-77 -1 -110 -16t-33 -55q0 -33 24.5 -52t65.5 -19z" />
    <glyph glyph-name="backslash.case" horiz-adv-x="584" 
d="M159 739l404 -739h-139l-405 739h140z" />
    <glyph glyph-name="braceleft.case" horiz-adv-x="406" 
d="M171 368v-4q42 -13 71.5 -47t29.5 -80q0 -19 -5 -94q-5 -73 -5 -94q0 -82 83 -82h30v-121h-63q-181 0 -181 184q0 40 4 97t4 90q0 55 -36 75q-28 18 -79 24v101q61 9 88 30t27 69q0 31 -4 90q-4 60 -4 102q0 180 187 180h57v-122h-30q-83 0 -83 -82q0 -20 5 -95t5 -93
q0 -46 -29.5 -80.5t-71.5 -47.5z" />
    <glyph glyph-name="braceright.case" horiz-adv-x="407" 
d="M236 365v4q-44 13 -73 47t-29 81q0 17 5 92t5 96q0 82 -83 82h-29v121h57q187 0 187 -180q0 -42 -4 -101t-4 -90q0 -48 27 -69t88 -30v-101q-51 -6 -80 -24q-35 -20 -35 -75q0 -33 4 -90t4 -97q0 -185 -181 -185h-63v121h29q83 0 83 83q0 21 -5 94q-5 75 -5 94
q0 46 29.5 80t72.5 47z" />
    <glyph glyph-name="bracketleft.case" horiz-adv-x="408" 
d="M385 -149h-300v1038h300v-115h-167v-809h167v-114z" />
    <glyph glyph-name="bracketright.case" horiz-adv-x="408" 
d="M323 -149h-301v114h167v809h-167v115h301v-1038z" />
    <glyph glyph-name="breve.case" horiz-adv-x="474" 
d="M40 973h108q2 -43 23.5 -67t59.5 -24t59.5 24.5t22.5 66.5h109q-4 -86 -55.5 -135t-135.5 -49t-135.5 49t-55.5 135z" />
    <glyph glyph-name="brevecombcy" horiz-adv-x="0" 
d="M-234 592q-123 0 -213 113l69 72q38 -45 71.5 -64t73.5 -19q76 0 144 83l71 -72q-92 -113 -216 -113z" />
    <glyph glyph-name="caron.alt" horiz-adv-x="309" 
d="M136 623h-110l62 177h138z" />
    <glyph glyph-name="caron.case" horiz-adv-x="525" 
d="M215 792l-146 173h126l67 -87l66 87h130l-146 -173h-97z" />
    <glyph glyph-name="cedilla.case" horiz-adv-x="338" 
d="M223 18l-27 -66q46 -1 77 -27.5t31 -70.5q0 -50 -38 -84t-104 -34q-58 0 -122 30l30 77q45 -20 81 -20q25 0 39 10.5t14 27.5q0 35 -54 35h-55l-8 26l39 98z" />
    <glyph glyph-name="circumflex.case" horiz-adv-x="518" 
d="M169 796h-130l150 178h100l151 -178h-134l-68 90z" />
    <glyph glyph-name="colon.case" horiz-adv-x="286" 
d="M144 445q-33 0 -56 22.5t-23 55.5q0 32 23 54t56 22q32 0 54 -22t22 -54q0 -33 -22 -55.5t-54 -22.5zM144 106q-33 0 -56 22.5t-23 55.5q0 32 23 54t56 22q32 0 54 -22t22 -54q0 -33 -22 -55.5t-54 -22.5z" />
    <glyph glyph-name="comma.ss03" horiz-adv-x="242" 
d="M8 -179l78 310h127l-105 -310h-100z" />
    <glyph glyph-name="commaccent" horiz-adv-x="245" 
d="M135 -68q34 0 58 -25t24 -61q0 -86 -140 -182l-44 57q60 45 79 67q-24 5 -40 24.5t-16 44.5q0 30 23 52.5t56 22.5z" />
    <glyph glyph-name="commaccent.case" horiz-adv-x="215" 
d="M222 -157q0 -88 -143 -185l-44 58q57 42 81 68q-24 4 -41 24.5t-17 45.5q0 31 24 54t57 23q34 0 58.5 -25t24.5 -63z" />
    <glyph glyph-name="dieresis.case" horiz-adv-x="457" 
d="M122 805q-33 0 -55.5 22t-22.5 56q0 32 22.5 54t55.5 22q32 0 54.5 -22t22.5 -54q0 -33 -22.5 -55.5t-54.5 -22.5zM249 883q0 31 23 53.5t55 22.5q33 0 55 -22t22 -54q0 -34 -22 -56t-55 -22t-55.5 22t-22.5 56z" />
    <glyph glyph-name="dollar.osf" horiz-adv-x="513" 
d="M487 165q0 -63 -45.5 -110t-119.5 -62v-115h-113v113q-126 19 -185 121l82 74q26 -41 67 -64.5t88 -23.5q42 0 67 17t25 46q0 20 -14 33t-47 29q-115 50 -139 64q-96 55 -96 141q0 64 43 108t116 57v107h113v-109q82 -17 143 -76l-70 -83q-62 57 -134 57q-39 0 -62.5 -15
t-23.5 -41q0 -34 68 -66l69 -30q58 -25 75 -35q93 -51 93 -137z" />
    <glyph glyph-name="dotaccent.case" horiz-adv-x="301" 
d="M124 802q-36 0 -60 23t-24 59q0 35 24.5 58.5t59.5 23.5t58.5 -23.5t23.5 -58.5q0 -36 -23.5 -59t-58.5 -23z" />
    <glyph glyph-name="eight.dnom" horiz-adv-x="377" 
d="M35 109q0 72 80 102v1q-63 26 -63 85q0 48 37.5 78t99.5 30q61 0 99 -30t38 -78q0 -58 -64 -85v-1q39 -15 60 -41.5t21 -59.5q0 -51 -42 -83.5t-112 -32.5t-112 32t-42 83zM189 241q25 0 40.5 13.5t15.5 33.5t-16 34t-40 14q-25 0 -41 -13.5t-16 -34.5t15.5 -34t41.5 -13
zM189 65q29 0 48.5 15.5t19.5 38.5q0 24 -19 39.5t-49 15.5q-31 0 -50 -15.5t-19 -39.5q0 -23 19 -38.5t50 -15.5z" />
    <glyph glyph-name="eight.lf" horiz-adv-x="633" 
d="M317 -12q-121 0 -198 60q-76 60 -76 154q0 63 38 115t102 75v2q-51 24 -80 66t-29 95q0 86 67 141q68 56 176 56q107 0 175 -56q67 -55 67 -141q0 -53 -29.5 -95t-81.5 -66v-3q65 -22 103.5 -73.5t38.5 -115.5q0 -94 -76 -154t-197 -60zM432 541q0 43 -32 71t-83 28
t-84 -28t-33 -71t32 -70.5t84 -27.5t84 27.5t32 70.5zM317 108q60 0 98 31.5t38 79.5t-37.5 78.5t-98.5 30.5q-62 0 -100 -30.5t-38 -78.5t39 -79.5t99 -31.5z" />
    <glyph glyph-name="eight.num" horiz-adv-x="377" 
d="M35 456q0 72 80 102v1q-63 26 -63 85q0 48 37.5 78t99.5 30q61 0 99 -30t38 -78q0 -58 -64 -85v-1q39 -15 60 -41.5t21 -59.5q0 -51 -42 -83.5t-112 -32.5t-112 32t-42 83zM189 588q25 0 40.5 13.5t15.5 33.5t-16 34t-40 14q-25 0 -41 -13.5t-16 -34.5t15.5 -34t41.5 -13
zM189 412q29 0 48.5 15.5t19.5 38.5q0 24 -19 39.5t-49 15.5q-31 0 -50 -15.5t-19 -39.5q0 -23 19 -38.5t50 -15.5z" />
    <glyph glyph-name="eight.osf" horiz-adv-x="627" 
d="M314 -11q-122 0 -198 57q-76 58 -76 148q0 60 38 109.5t102 71.5v2q-51 24 -80 64t-29 90q0 83 67 135q68 53 176 53q107 0 175 -53q67 -52 67 -135q0 -51 -29.5 -91.5t-81.5 -62.5v-3q65 -22 103 -71t38 -109q0 -90 -76 -148q-75 -57 -196 -57zM314 610
q-53 0 -85.5 -26.5t-32.5 -66.5q0 -39 32 -66q32 -26 85 -26q52 0 84 26t32 66t-32 66.5t-83 26.5zM314 105q60 0 98 29.5t38 75.5t-37 74.5t-99 28.5t-100.5 -29t-38.5 -74q0 -46 39 -75.5t100 -29.5z" />
    <glyph glyph-name="eight.tf" horiz-adv-x="613" 
d="M307 -12q-121 0 -198 60q-76 60 -76 154q0 63 38 115t102 75v2q-51 24 -80 66t-29 95q0 86 67 141q68 56 176 56q107 0 175 -56q67 -55 67 -141q0 -53 -29.5 -95t-81.5 -66v-3q65 -22 103.5 -73.5t38.5 -115.5q0 -94 -76 -154t-197 -60zM422 541q0 43 -32 71t-83 28
t-84 -28t-33 -71t32 -70.5t84 -27.5t84 27.5t32 70.5zM307 108q60 0 98 31.5t38 79.5t-37.5 78.5t-98.5 30.5q-62 0 -100 -30.5t-38 -78.5t39 -79.5t99 -31.5z" />
    <glyph glyph-name="eight_fraction_nine" horiz-adv-x="868" 
d="M344 457q0 -51 -42 -83.5t-112 -32.5t-112 32t-42 83q0 72 80 102v1q-63 26 -63 85q0 48 37.5 78t99.5 30q61 0 99 -30t38 -78q0 -58 -64 -85v-1q39 -15 60 -41.5t21 -59.5zM96 -1l578 739h106l-576 -739h-108zM190 683q-25 0 -41 -13.5t-16 -34.5t15.5 -34t41.5 -13
q25 0 40.5 13.5t15.5 33.5t-16 34t-40 14zM121 466q0 -23 19 -38.5t50 -15.5q29 0 48.5 15.5t19.5 38.5q0 24 -19 39.5t-49 15.5q-31 0 -50 -15.5t-19 -39.5zM674 405q74 0 114.5 -52.5t40.5 -141.5q0 -94 -45 -155q-45 -62 -133 -62q-68 0 -114 34l32 64q37 -25 77 -25
q46 0 74 32.5t33 85.5q-34 -43 -94 -43q-59 0 -95.5 36t-36.5 91q0 60 41 98t106 38zM673 210q27 0 45 17.5t18 43.5q0 27 -18 45t-45 18q-28 0 -46 -18t-18 -45q0 -26 18 -43.5t46 -17.5z" />
    <glyph glyph-name="emdash.case" horiz-adv-x="1046" 
d="M981 310h-916v131h916v-131z" />
    <glyph glyph-name="endash.case" horiz-adv-x="727" 
d="M662 310h-597v131h597v-131z" />
    <glyph glyph-name="exclamdown.case" horiz-adv-x="297" 
d="M164 756q32 0 54 -22.5t22 -55.5q0 -32 -22 -54t-54 -22q-33 0 -56 22t-23 54q0 33 23 55.5t56 22.5zM94 -7l7 552h122l9 -552h-138z" />
    <glyph glyph-name="five.dnom" horiz-adv-x="343" 
d="M176 256q60 0 97.5 -36t37.5 -93q0 -58 -42 -96t-110 -38q-77 0 -138 46l35 68q51 -36 98 -36q32 0 52.5 17t20.5 42q0 24 -18.5 40.5t-48.5 16.5q-38 0 -68 -27l-45 39l24 195h214v-73h-154l-9 -75q24 10 54 10z" />
    <glyph glyph-name="five.lf" horiz-adv-x="585" 
d="M298 478q107 0 177 -67q72 -67 72 -173q0 -108 -75 -179q-76 -71 -197 -71q-132 0 -245 83l55 109q93 -66 184 -66q63 0 102 35t39 89q0 52 -37.5 86.5t-95.5 34.5q-74 0 -126 -52l-81 62l41 370h386v-125h-284l-19 -157q48 21 104 21z" />
    <glyph glyph-name="five.num" horiz-adv-x="343" 
d="M176 603q60 0 97.5 -36t37.5 -93q0 -58 -42 -96t-110 -38q-77 0 -138 46l35 68q51 -36 98 -36q32 0 52.5 17t20.5 42q0 24 -18.5 40.5t-48.5 16.5q-38 0 -68 -27l-45 39l24 195h214v-73h-154l-9 -75q24 10 54 10z" />
    <glyph glyph-name="five.osf" horiz-adv-x="567" 
d="M290 341q105 0 176 -62q72 -61 72 -160q0 -101 -75 -166q-75 -66 -197 -66q-132 0 -244 76l56 103q93 -60 182 -60q63 0 102 31.5t39 79.5q0 47 -37.5 78.5t-94.5 31.5q-74 0 -126 -46l-80 59l40 343h384v-117h-282l-18 -144q51 19 103 19z" />
    <glyph glyph-name="five.tf" horiz-adv-x="613" 
d="M309 478q107 0 177 -67q72 -67 72 -173q0 -108 -75 -179q-76 -71 -197 -71q-132 0 -245 83l55 109q93 -66 184 -66q63 0 102 35t39 89q0 52 -37.5 86.5t-95.5 34.5q-74 0 -126 -52l-81 62l41 370h386v-125h-284l-19 -157q48 21 104 21z" />
    <glyph glyph-name="five_fraction_nine" horiz-adv-x="866" 
d="M162 418q32 0 52.5 17t20.5 42q0 24 -18.5 40.5t-48.5 16.5q-38 0 -68 -27l-45 39l24 195h214v-73h-154l-9 -75q24 10 54 10q60 0 97.5 -36t37.5 -93q0 -58 -42 -96t-110 -38q-77 0 -138 46l35 68q51 -36 98 -36zM93 -1l578 739h106l-576 -739h-108zM672 405
q74 0 114.5 -52.5t40.5 -141.5q0 -94 -45 -155q-45 -62 -133 -62q-68 0 -114 34l32 64q37 -25 77 -25q46 0 74 32.5t33 85.5q-34 -43 -94 -43q-59 0 -95.5 36t-36.5 91q0 60 41 98t106 38zM671 210q27 0 45 17.5t18 43.5q0 27 -18 45t-45 18q-28 0 -46 -18t-18 -45
q0 -26 18 -43.5t46 -17.5z" />
    <glyph glyph-name="five_fraction_seven" horiz-adv-x="863" 
d="M166 418q32 0 52.5 17t20.5 42q0 24 -18.5 40.5t-48.5 16.5q-38 0 -68 -27l-45 39l24 195h214v-73h-154l-9 -75q24 10 54 10q60 0 97.5 -36t37.5 -93q0 -58 -42 -96t-110 -38q-77 0 -138 46l35 68q51 -36 98 -36zM95 0l578 739h106l-576 -739h-108zM547 315v79h271v-61
l-151 -331h-94l145 313h-171z" />
    <glyph glyph-name="four.dnom" horiz-adv-x="369" 
d="M293 162h43v-71h-43v-91h-80v91h-179l-19 52l212 253h66v-234zM213 280l-100 -118h100v118z" />
    <glyph glyph-name="four.lf" horiz-adv-x="611" 
d="M491 290h80v-115h-80v-175h-128v175h-330l-27 87l390 477h95v-449zM363 534l-198 -244h198v244z" />
    <glyph glyph-name="four.num" horiz-adv-x="369" 
d="M293 509h43v-71h-43v-91h-80v91h-179l-19 52l212 253h66v-234zM213 627l-100 -118h100v118z" />
    <glyph glyph-name="four.osf" horiz-adv-x="610" 
d="M493 169h80v-109h-80v-159h-128v159h-323l-27 85l384 441h94v-417zM365 390l-190 -221h190v221z" />
    <glyph glyph-name="four.tf" horiz-adv-x="613" 
d="M503 290h80v-115h-80v-175h-128v175h-330l-27 87l390 477h95v-449zM375 534l-198 -244h198v244z" />
    <glyph glyph-name="four_fraction_nine" horiz-adv-x="938" 
d="M305 347h-80v91h-179l-19 52l212 253h66v-234h43v-71h-43v-91zM153 -1l578 739h106l-576 -739h-108zM225 627l-100 -118h100v118zM735 405q74 0 114.5 -52.5t40.5 -141.5q0 -94 -45 -155q-45 -62 -133 -62q-68 0 -114 34l32 64q37 -25 77 -25q46 0 74 32.5t33 85.5
q-34 -43 -94 -43q-59 0 -95.5 36t-36.5 91q0 60 41 98t106 38zM734 210q27 0 45 17.5t18 43.5q0 27 -18 45t-45 18q-28 0 -46 -18t-18 -45q0 -26 18 -43.5t46 -17.5z" />
    <glyph glyph-name="four_fraction_seven" horiz-adv-x="904" 
d="M305 347h-80v91h-179l-19 52l212 253h66v-234h43v-71h-43v-91zM131 0l578 739h106l-576 -739h-108zM225 627l-100 -118h100v118zM583 315v79h271v-61l-151 -331h-94l145 313h-171z" />
    <glyph glyph-name="grave.case" horiz-adv-x="325" 
d="M194 975l64 -180h-121l-97 180h154z" />
    <glyph glyph-name="guillemotleft.case" horiz-adv-x="579" 
d="M312 174h-135l-137 203l137 203h135l-141 -203zM527 174h-136l-136 203l137 203h135l-140 -203z" />
    <glyph glyph-name="guillemotright.case" horiz-adv-x="579" 
d="M324 377l-136 -203h-136l140 203l-140 203h135zM539 377l-137 -203h-135l141 203l-141 203h135z" />
    <glyph glyph-name="guilsinglleft.case" horiz-adv-x="364" 
d="M312 174h-135l-137 203l137 203h135l-141 -203z" />
    <glyph glyph-name="guilsinglright.case" horiz-adv-x="364" 
d="M324 377l-137 -203h-135l141 203l-141 203h135z" />
    <glyph glyph-name="hungarumlaut.case" horiz-adv-x="546" 
d="M159 795h-112l44 179h147zM360 795h-115l58 179h151z" />
    <glyph glyph-name="hyphen.case" horiz-adv-x="536" 
d="M470 310h-405v131h405v-131z" />
    <glyph glyph-name="i.loclTRK" 
d="M135 608q-36 0 -60 23t-24 59q0 35 24.5 58.5t59.5 23.5t58.5 -23.5t23.5 -58.5q0 -36 -23.5 -59t-58.5 -23zM199 543v-543h-131v543h131z" />
    <glyph glyph-name="i_j.loclNLD" horiz-adv-x="574" 
d="M135 608q-36 0 -60 23t-24 59q0 35 24.5 58.5t59.5 23.5t58.5 -23.5t23.5 -58.5q0 -36 -23.5 -59t-58.5 -23zM410 608q-36 0 -60 23t-24 59q0 35 24.5 58.5t59.5 23.5t58.5 -23.5t23.5 -58.5q0 -36 -23.5 -59t-58.5 -23zM199 543v-543h-131v543h131zM275 -231
q-77 0 -118 26l25 104q45 -15 72 -15q91 0 91 108v551h131v-555q0 -106 -54 -162.5t-147 -56.5z" />
    <glyph glyph-name="iacute_j.loclNLD" horiz-adv-x="542" 
d="M188 625h-116l62 174h147zM472 625h-116l62 174h147zM197 543v-543h-131v543h131zM275 -231q-77 0 -118 26l25 104q45 -15 72 -15q91 0 91 108v551h131v-555q0 -106 -54 -162.5t-147 -56.5z" />
    <glyph glyph-name="j.loclNLD" horiz-adv-x="287" 
d="M155 608q-36 0 -60 23t-24 59q0 35 24.5 58.5t59.5 23.5t58.5 -23.5t23.5 -58.5q0 -36 -23.5 -59t-58.5 -23zM20 -231q-77 0 -118 26l25 104q45 -15 72 -15q91 0 91 108v551h131v-555q0 -106 -54 -162.5t-147 -56.5z" />
    <glyph glyph-name="jacute" horiz-adv-x="287" 
d="M209 625h-116l62 174h147zM20 -231q-77 0 -118 26l25 104q45 -15 72 -15q91 0 91 108v551h131v-555q0 -106 -54 -162.5t-147 -56.5z" />
    <glyph glyph-name="macron.case" horiz-adv-x="478" 
d="M404 819l-362 -1v114h362v-113z" />
    <glyph glyph-name="nine.dnom" horiz-adv-x="368" 
d="M176 405q74 0 114.5 -52.5t40.5 -141.5q0 -94 -45 -155q-45 -62 -133 -62q-68 0 -114 34l32 64q37 -25 77 -25q46 0 74 32.5t33 85.5q-34 -43 -94 -43q-59 0 -95.5 36t-36.5 91q0 60 41 98t106 38zM175 210q27 0 45 17.5t18 43.5q0 27 -18 45t-45 18q-28 0 -46 -18
t-18 -45q0 -26 18 -43.5t46 -17.5z" />
    <glyph glyph-name="nine.lf" horiz-adv-x="619" 
d="M301 752q135 0 205 -99q71 -100 71 -259q0 -82 -18.5 -153.5t-55.5 -129t-98 -90.5t-140 -33q-119 0 -201 64l51 103q68 -47 143 -47q87 0 134 65q48 65 56 169q-27 -36 -73 -56.5t-100 -20.5q-102 0 -169 67q-66 68 -66 170q0 109 73 179q74 71 188 71zM425 506
q0 55 -37 92q-36 37 -89 37q-54 0 -90.5 -36.5t-36.5 -93.5q0 -54 36 -89.5t90 -35.5t90.5 36t36.5 90z" />
    <glyph glyph-name="nine.num" horiz-adv-x="368" 
d="M176 752q74 0 114.5 -52.5t40.5 -141.5q0 -94 -45 -155q-45 -62 -133 -62q-68 0 -114 34l32 64q37 -25 77 -25q46 0 74 32.5t33 85.5q-34 -43 -94 -43q-59 0 -95.5 36t-36.5 91q0 60 41 98t106 38zM175 557q27 0 45 17.5t18 43.5q0 27 -18 45t-45 18q-28 0 -46 -18
t-18 -45q0 -26 18 -43.5t46 -17.5z" />
    <glyph glyph-name="nine.osf" horiz-adv-x="605" 
d="M292 611q132 0 202 -94q70 -92 70 -244q0 -105 -31 -190t-102.5 -140.5t-174.5 -55.5q-120 0 -199 61l50 99q67 -44 142 -44q84 0 131.5 59t56.5 161q-26 -35 -72.5 -54t-98.5 -19q-101 0 -167 63q-66 65 -66 162q0 103 72 169q71 67 187 67zM415 377q0 51 -37 85
q-37 35 -89 35q-54 0 -90 -34t-36 -87q0 -51 35.5 -84t89.5 -33t90.5 33.5t36.5 84.5z" />
    <glyph glyph-name="nine.tf" horiz-adv-x="613" 
d="M298 752q134 0 205 -99q71 -100 71 -259q0 -82 -18.5 -153.5t-55.5 -129t-98 -90.5t-140 -33q-119 0 -201 64l51 103q68 -47 143 -47q87 0 134 65q48 65 56 169q-27 -36 -73 -56.5t-100 -20.5q-102 0 -169 67q-66 68 -66 170q0 109 73 179q74 71 188 71zM422 506
q0 55 -37 92q-36 37 -89 37q-54 0 -90.5 -36.5t-36.5 -93.5q0 -54 36 -89.5t90 -35.5t90.5 36t36.5 90z" />
    <glyph glyph-name="ogonek.case" horiz-adv-x="326" 
d="M233 -148l33 -86q-52 -29 -104 -29q-56 0 -89 31.5t-33 82.5q0 99 132 167l79 -18q-43 -21 -72.5 -54t-29.5 -63q0 -19 12 -31t30 -12q19 0 42 12z" />
    <glyph glyph-name="one.dnom" horiz-adv-x="274" 
d="M12 285l141 109h66v-395h-89v272l-72 -55z" />
    <glyph glyph-name="one.lf" horiz-adv-x="410" 
d="M-1 558l224 181h102v-739h-134v557l-121 -95z" />
    <glyph glyph-name="one.num" horiz-adv-x="274" 
d="M12 632l141 109h66v-394h-89v271l-72 -55z" />
    <glyph glyph-name="one.numalt" horiz-adv-x="336" 
d="M23 632l141 109h66v-395h-89v272l-72 -55z" />
    <glyph glyph-name="one.osf" horiz-adv-x="497" 
d="M347 589v-477h137v-112h-440v112h173v321l-155 -101l-61 98l239 159h107z" />
    <glyph glyph-name="one.tf" horiz-adv-x="613" 
d="M394 739v-614h155v-125h-448v125h159v432l-121 -95l-71 96l224 181h102z" />
    <glyph glyph-name="parenleft.case" horiz-adv-x="412" 
d="M401 -45l-60 -101q-146 79 -224 212.5t-78 302.5q0 171 78.5 303.5t227.5 211.5l56 -103q-220 -147 -220 -412q0 -261 220 -414z" />
    <glyph glyph-name="parenright.case" horiz-adv-x="412" 
d="M70 -146l-58 101q220 154 220 414q0 265 -220 412l55 103q149 -78 228 -211t79 -304q0 -169 -78.5 -302.5t-225.5 -212.5z" />
    <glyph glyph-name="periodcentered.case" 
d="M132 288q-33 0 -56 22.5t-23 55.5q0 32 23 54t56 22q32 0 54 -22t22 -54q0 -33 -22 -55.5t-54 -22.5z" />
    <glyph glyph-name="questiondown.case" horiz-adv-x="541" 
d="M301 756q33 0 56 -22t23 -55t-23 -55t-56 -22q-32 0 -54.5 22t-22.5 55t22.5 55t54.5 22zM240 555h125v-67q0 -42 -19 -77.5t-46.5 -60.5l-55 -48.5t-47 -51.5t-19.5 -59q0 -42 31 -69.5t77 -27.5q75 0 150 85l81 -90q-97 -118 -241 -118q-100 0 -168 60q-67 61 -67 153
q0 86 70 151l42.5 37t45 41t27.5 37t14 44v61z" />
    <glyph glyph-name="quotedblbase.ss03" horiz-adv-x="497" 
d="M26 -150l78 310h127l-105 -310h-100zM258 -150l78 310h127l-105 -310h-100z" />
    <glyph glyph-name="quotedblleft.ss03" horiz-adv-x="478" 
d="M239 845l-78 -310h-127l105 310h100zM472 845l-78 -310h-127l105 310h100z" />
    <glyph glyph-name="quotedblright.ss03" horiz-adv-x="490" 
d="M31 536l78 310h127l-105 -310h-100zM264 536l78 310h127l-105 -310h-100z" />
    <glyph glyph-name="quoteleft.ss03" horiz-adv-x="248" 
d="M234 845l-78 -310h-127l105 310h100z" />
    <glyph glyph-name="quoteright.ss03" horiz-adv-x="246" 
d="M34 536l78 310h127l-105 -310h-100z" />
    <glyph glyph-name="quotesinglbase.ss03" horiz-adv-x="254" 
d="M4 -150l78 310h127l-105 -310h-100z" />
    <glyph glyph-name="ring.case" horiz-adv-x="355" 
d="M267 813q-38 -37 -94 -37t-94 37q-39 37 -39 91q0 53 39 91q40 38 94 38t94 -38q39 -38 39 -91q0 -54 -39 -91zM173 851q22 0 38 15.5t16 39.5q0 22 -16 37.5t-38 15.5q-23 0 -39 -15.5t-16 -37.5q0 -24 16 -39.5t39 -15.5z" />
    <glyph glyph-name="semicolon.case" horiz-adv-x="301" 
d="M79 523q0 33 23.5 55.5t56.5 22.5q32 0 55 -22.5t23 -55.5q0 -34 -22.5 -56.5t-55.5 -22.5t-56.5 23t-23.5 56zM156 270q36 0 60 -25.5t24 -64.5q0 -106 -147 -200l-39 53l40 31q37 30 53 59h-3q-28 0 -48 20.5t-20 49.5q0 33 23.5 55t56.5 22z" />
    <glyph glyph-name="semicolon.case.ss03" horiz-adv-x="301" 
d="M79 523q0 33 23.5 55.5t56.5 22.5q32 0 55 -22.5t23 -55.5q0 -34 -22.5 -56.5t-55.5 -22.5t-56.5 23t-23.5 56zM13 -149l78 310h127l-105 -310h-100z" />
    <glyph glyph-name="semicolon.ss03" horiz-adv-x="284" 
d="M72 424q0 33 23.5 55.5t56.5 22.5q32 0 55 -22.5t23 -55.5q0 -34 -22.5 -56.5t-55.5 -22.5t-56.5 23t-23.5 56zM12 -179l78 310h127l-105 -310h-100z" />
    <glyph glyph-name="seven.dnom" horiz-adv-x="297" 
d="M13 315v79h271v-61l-151 -331h-94l145 313h-171z" />
    <glyph glyph-name="seven.lf" horiz-adv-x="519" 
d="M21 614v125h478v-92l-270 -647h-144l261 614h-325z" />
    <glyph glyph-name="seven.num" horiz-adv-x="297" 
d="M13 662v79h271v-61l-151 -331h-94l145 313h-171z" />
    <glyph glyph-name="seven.osf" horiz-adv-x="509" 
d="M16 462v121h478v-90l-271 -592h-144l260 561h-323z" />
    <glyph glyph-name="seven.tf" horiz-adv-x="613" 
d="M70 617v122h496v-85l-318 -654h-145l306 617h-339z" />
    <glyph glyph-name="seven_fraction_nine" horiz-adv-x="823" 
d="M147 349h-94l145 313h-171v79h271v-61zM32 -1l578 739h107l-577 -739h-108zM628 405q74 0 114.5 -52.5t40.5 -141.5q0 -94 -45 -155q-45 -62 -133 -62q-68 0 -114 34l32 64q37 -25 77 -25q46 0 74 32.5t33 85.5q-34 -43 -94 -43q-59 0 -95.5 36t-36.5 91q0 60 41 98
t106 38zM627 210q27 0 45 17.5t18 43.5q0 27 -18 45t-45 18q-28 0 -46 -18t-18 -45q0 -26 18 -43.5t46 -17.5z" />
    <glyph glyph-name="six.dnom" horiz-adv-x="353" 
d="M194 256q58 0 95.5 -36t37.5 -92q0 -58 -42 -97q-41 -38 -104 -38q-75 0 -116 52.5t-41 139.5q0 95 46 157q46 63 135 63q67 0 114 -35l-34 -63q-37 25 -75 25q-44 0 -73.5 -33.5t-34.5 -82.5q28 40 92 40zM181 65q28 0 46.5 18.5t18.5 44.5t-18.5 43t-46.5 17
q-27 0 -45.5 -17t-18.5 -44q0 -26 18.5 -44t45.5 -18z" />
    <glyph glyph-name="six.lf" horiz-adv-x="624" 
d="M351 477q103 0 170 -67q68 -68 68 -170q0 -107 -74 -178t-188 -71q-136 0 -208 100q-72 101 -72 256q0 107 33 196.5t106.5 149t177.5 59.5q115 0 200 -64l-58 -103q-62 46 -134 46q-62 0 -106 -37q-82 -68 -89 -205q54 88 174 88zM327 109q54 0 91 37t37 92q0 54 -36 89
t-90 35q-55 0 -92 -35.5t-37 -89.5t37 -91t90 -37z" />
    <glyph glyph-name="six.num" horiz-adv-x="353" 
d="M194 603q58 0 95.5 -36t37.5 -92q0 -58 -42 -97q-41 -38 -104 -38q-75 0 -116 52.5t-41 139.5q0 95 46 157q46 63 135 63q67 0 114 -35l-34 -63q-37 25 -75 25q-44 0 -73.5 -33.5t-34.5 -82.5q28 40 92 40zM181 412q28 0 46.5 18.5t18.5 44.5t-18.5 43t-46.5 17
q-27 0 -45.5 -17t-18.5 -44q0 -26 18.5 -44t45.5 -18z" />
    <glyph glyph-name="six.osf" horiz-adv-x="614" 
d="M338 455q101 0 169 -65q67 -64 67 -162q0 -104 -73 -171t-187 -67q-136 0 -206 96q-71 97 -71 244q0 155 75 267q39 57 100.5 89t138.5 32q113 0 198 -62l-58 -99q-61 43 -132 43q-88 -1 -140 -70.5t-54 -160.5q53 86 173 86zM315 105q54 0 90 34.5t36 86.5
q0 51 -36 84.5t-89 33.5q-54 0 -90.5 -33.5t-36.5 -84.5q0 -52 36 -87q37 -34 90 -34z" />
    <glyph glyph-name="six.tf" horiz-adv-x="613" 
d="M345 477q103 0 170 -67q68 -68 68 -170q0 -107 -74 -178t-188 -71q-136 0 -208 100q-72 101 -72 256q0 107 33 196.5t106.5 149t177.5 59.5q115 0 200 -64l-58 -103q-62 46 -134 46q-62 0 -106 -37q-82 -68 -89 -205q54 88 174 88zM321 109q54 0 91 37t37 92q0 54 -36 89
t-90 35q-55 0 -92 -35.5t-37 -89.5t37 -91t90 -37z" />
    <glyph glyph-name="six_fraction_seven" horiz-adv-x="867" 
d="M330 475q0 -58 -42 -97q-41 -38 -104 -38q-75 0 -116 52.5t-41 139.5q0 95 46 157q47 63 135 63q67 0 114 -35l-34 -63q-37 25 -75 25q-44 0 -73.5 -33.5t-34.5 -82.5q28 40 92 40q58 0 95.5 -36t37.5 -92zM96 0l578 739h106l-576 -739h-108zM120 474q0 -26 18.5 -44
t45.5 -18q28 0 46.5 18.5t18.5 44.5t-18.5 43t-46.5 17q-27 0 -45.5 -17t-18.5 -44zM551 315v79h271v-61l-151 -331h-94l145 313h-171z" />
    <glyph glyph-name="slash.case" horiz-adv-x="584" 
d="M159 0h-138l404 739h140z" />
    <glyph glyph-name="sterling.osf" horiz-adv-x="489" 
d="M238 231q0 -67 -56 -120h299v-111h-444v90q80 63 80 135q0 12 -3 24h-80v89h48q-13 30 -13 67q0 86 61 138t152 54q139 0 202 -110l-84 -66q-37 67 -107 67q-44 0 -72 -28t-28 -71q0 -21 11 -51h217v-89h-184q1 -4 1 -18z" />
    <glyph glyph-name="three.dnom" horiz-adv-x="333" 
d="M12 33l36 69q56 -29 95 -29q30 0 47.5 12.5t17.5 33.5t-18 33.5t-47 12.5h-53v75h48q25 0 43 11.5t18 31.5q0 19 -15.5 30.5t-38.5 11.5q-37 0 -81 -29l-42 62q53 47 133 47q58 0 95 -31q39 -30 39 -74q0 -32 -19.5 -55.5t-52.5 -33.5v-2q39 -9 60.5 -35t21.5 -62
q0 -52 -42 -85t-110 -33q-67 0 -135 39z" />
    <glyph glyph-name="three.lf" horiz-adv-x="562" 
d="M252 -12q-124 0 -237 73l58 110q91 -57 173 -57q59 0 93.5 27.5t34.5 72.5t-34 73t-89 28h-94v122h83q54 0 86 26.5t32 68.5t-30.5 67t-78.5 25q-68 0 -151 -59l-66 98q43 41 104.5 65t127.5 24q99 0 166 -56q67 -55 67 -137q0 -58 -35 -103t-91 -64v-4q67 -15 106 -64.5
t39 -117.5q0 -95 -74 -157q-73 -61 -190 -61z" />
    <glyph glyph-name="three.num" horiz-adv-x="333" 
d="M12 380l36 69q56 -29 95 -29q30 0 47.5 12.5t17.5 33.5t-18 33.5t-47 12.5h-53v75h48q25 0 43 11.5t18 31.5q0 19 -15.5 30.5t-38.5 11.5q-37 0 -81 -29l-42 62q53 47 133 47q58 0 95 -31q39 -30 39 -74q0 -32 -19.5 -55.5t-52.5 -33.5v-2q39 -9 60.5 -35t21.5 -62
q0 -52 -42 -85t-110 -33q-67 0 -135 39z" />
    <glyph glyph-name="three.osf" horiz-adv-x="545" 
d="M244 -113q-122 0 -237 68l59 105q95 -53 175 -53q59 0 93 25t34 67q0 40 -33.5 65t-88.5 25h-97v117h87q53 0 85 24t32 61q0 38 -30.5 61t-78.5 23q-70 0 -153 -54l-67 94q95 83 232 83q100 0 165 -52q66 -52 66 -128q0 -53 -34.5 -95t-90.5 -60v-3q67 -14 105.5 -60
t38.5 -110q0 -91 -73 -146q-73 -57 -189 -57z" />
    <glyph glyph-name="three.tf" horiz-adv-x="613" 
d="M273 -12q-124 0 -237 73l58 110q92 -57 173 -57q59 0 93.5 27.5t34.5 72.5t-34 73t-89 28h-94v122h83q54 0 86 26.5t32 68.5t-30.5 67t-78.5 25q-68 0 -151 -59l-66 98q43 41 104.5 65t127.5 24q99 0 166 -56q67 -55 67 -137q0 -58 -35 -103t-91 -64v-4q67 -15 106 -64.5
t39 -117.5q0 -95 -74 -157q-73 -61 -190 -61z" />
    <glyph glyph-name="three_fraction_seven" horiz-adv-x="873" 
d="M155 420q30 0 47.5 12.5t17.5 33.5t-18 33.5t-47 12.5h-53v75h48q25 0 43 11.5t18 31.5q0 19 -15.5 30.5t-38.5 11.5q-37 0 -81 -29l-42 62q53 47 133 47q58 0 95 -31q39 -30 39 -74q0 -32 -19.5 -55.5t-52.5 -33.5v-2q39 -9 60.5 -35t21.5 -62q0 -52 -42 -85t-110 -33
q-67 0 -135 39l36 69q56 -29 95 -29zM98 0l578 739h107l-577 -739h-108zM557 315v79h271v-61l-151 -331h-94l145 313h-171z" />
    <glyph glyph-name="tilde.case" horiz-adv-x="557" 
d="M124 814l-84 41q45 112 140 112q34 0 77 -22t62 -22q33 0 59 48l84 -40q-19 -54 -54 -83t-80 -29q-32 0 -76 22q-44 23 -64 23q-35 0 -64 -50z" />
    <glyph glyph-name="two.dnom" horiz-adv-x="346" 
d="M250 168l-88 -90h146v-78h-271v71l130 131q48 50 48 79q0 20 -14 32.5t-36 12.5q-41 0 -96 -51l-43 65q65 65 144 65q43 1 76.5 -20t49 -54t5 -77.5t-50.5 -85.5z" />
    <glyph glyph-name="two.lf" horiz-adv-x="579" 
d="M390 285l-150 -160h287v-125h-477v113l231 245q17 17 50 53q50 60 50 111q0 45 -31 73.5t-79 28.5q-81 0 -169 -82l-74 98q112 112 253 112q103 0 171 -63q67 -63 67 -162q0 -104 -129 -242z" />
    <glyph glyph-name="two.num" horiz-adv-x="346" 
d="M250 515l-88 -90h146v-78h-271v71l130 131q48 49 48 79q0 20 -14 32.5t-36 12.5q-41 0 -96 -51l-43 65q65 65 144 65q43 1 76.5 -20t49 -54t5 -77.5t-50.5 -85.5z" />
    <glyph glyph-name="two.osf" horiz-adv-x="543" 
d="M343 200l-104 -88h256v-112h-445v103l198 168q62 51 84.5 79t22.5 58q0 32 -23.5 51.5t-64.5 19.5q-68 0 -171 -86l-68 94q119 110 244 110q96 0 157 -53q60 -52 60 -128q0 -51 -34.5 -101.5t-111.5 -114.5z" />
    <glyph glyph-name="two.tf" horiz-adv-x="613" 
d="M407 285l-150 -160h287v-125h-477v113l231 245q17 17 50 53q50 60 50 111q0 45 -31 73.5t-79 28.5q-81 0 -169 -82l-74 98q112 112 253 112q104 0 171 -63t67 -162q0 -104 -129 -242z" />
    <glyph glyph-name="two_fraction_nine" horiz-adv-x="903" 
d="M44 347v71l130 131q48 49 48 79q0 20 -14 32.5t-36 12.5q-40 0 -96 -51l-43 65q65 65 144 65q43 1 76.5 -20t49 -54t5 -77.5t-50.5 -85.5l-88 -90h146v-78h-271zM129 0l578 739h106l-577 -739h-107zM710 405q74 0 114.5 -52.5t40.5 -141.5q0 -94 -45 -155
q-45 -62 -133 -62q-68 0 -114 34l32 64q37 -25 77 -25q46 0 74 32.5t33 85.5q-34 -43 -94 -43q-59 0 -95.5 36t-36.5 91q0 60 41 98t106 38zM709 210q27 0 45 17.5t18 43.5q0 27 -18 45t-45 18q-28 0 -46 -18t-18 -45q0 -26 18 -43.5t46 -17.5z" />
    <glyph glyph-name="two_fraction_seven" horiz-adv-x="898" 
d="M48 347v71l130 131q48 49 48 79q0 20 -14 32.5t-36 12.5q-40 0 -96 -51l-43 65q65 65 144 65q43 1 76.5 -20t49 -54t5 -77.5t-50.5 -85.5l-88 -90h146v-78h-271zM129 0l578 739h107l-577 -739h-108zM582 315v79h271v-61l-151 -331h-94l145 313h-171z" />
    <glyph glyph-name="uni0414.ss01" horiz-adv-x="769" 
d="M652 739v-611h76v-278h-136v150h-425v-150h-136v278h61q32 55 59 158q26 102 47 278l22 175h432zM239 128h277v481h-176l-7 -48q-39 -308 -94 -433z" />
    <glyph glyph-name="uni0416.ss01" horiz-adv-x="925" 
d="M637 378l295 -378h-161l-242 316v-316h-133v314l-242 -314h-160l294 378l-280 361h156l232 -307v307h133v-306l232 306h157z" />
    <glyph glyph-name="uni041B.ss01" horiz-adv-x="739" 
d="M73 -9q-18 0 -43 5l-21 118q6 -1 25 -1q61 0 95 52q15 23 27 62q13 36 21 73q10 47 16 99q6 38 13 101l2.5 28.5l4 44.5l4.5 47q7 78 12 119h425v-739h-138v607h-164l-6 -61l-6 -64l-7 -60q-5 -52 -8 -64l-9 -57q-6 -37 -12 -59q-26 -101 -53 -144q-62 -107 -178 -107z
" />
    <glyph glyph-name="uni0424.ss01" horiz-adv-x="968" 
d="M553 39v-119h-138v120q-173 8 -275 95q-104 89 -104 236t104 236q103 88 275 94v118h138v-118q168 -7 273 -96q106 -88 106 -234t-106 -236q-105 -89 -273 -96zM175 371q0 -93 65 -150q65 -56 175 -59v415q-110 -3 -175 -58.5t-65 -147.5zM553 577v-415q108 3 174 60
t66 149q0 90 -66 146q-66 55 -174 60z" />
    <glyph glyph-name="uni042A.ss01" horiz-adv-x="755" 
d="M320 484h144q74 0 129.5 -23.5t84.5 -63.5q52 -73 52 -158q0 -103 -67 -171q-68 -68 -186 -68h-292v618h-170v121h305v-255zM320 123h134q64 0 99 33.5t35 86.5t-34 86t-96 33h-138v-239z" />
    <glyph glyph-name="uni042C.ss01" horiz-adv-x="654" 
d="M220 484h144q74 0 129.5 -23.5t84.5 -63.5q52 -73 52 -158q0 -103 -67 -171q-68 -68 -186 -68h-292v739h135v-255zM220 123h134q64 0 99 33.5t35 86.5t-34 86t-96 33h-138v-239z" />
    <glyph glyph-name="uni0431.ss01" horiz-adv-x="674" 
d="M366 534q107 0 189 -74q82 -73 82 -197q0 -117 -80 -197t-205 -80q-79 0 -140.5 33t-97 87.5t-53 118t-17.5 131.5q0 98 26 171q25 70 62.5 111t99.5 72q62 32 114 45q20 5 66 18t59 16q72 19 118 39v-126q-51 -22 -108 -37l-108 -29q-186 -49 -211 -201q30 47 85 73
t119 26zM354 104q65 0 110 47t45 113q0 64 -45 109q-45 46 -109 46t-111 -44q-46 -43 -46 -110q0 -64 44 -113q44 -48 112 -48z" />
    <glyph glyph-name="uni0432.ss01" horiz-adv-x="583" 
d="M438 302q52 -12 80.5 -50t28.5 -90q0 -71 -52 -116.5t-138 -45.5h-291v543h281q78 0 123.5 -38.5t45.5 -95.5q0 -80 -78 -107zM336 440h-147v-108h148q39 -1 54.5 27t-0.5 55.5t-55 25.5zM189 104h157q35 0 55 19t20 49t-19 48.5t-54 18.5h-159v-135z" />
    <glyph glyph-name="uni0433.ss01" horiz-adv-x="446" 
d="M66 543h370v-115h-240v-428h-130v543z" />
    <glyph glyph-name="uni0434.ss01" horiz-adv-x="653" 
d="M557 543v-430h58v-232h-123v119h-345v-119h-123v232h60q54 91 87 319l17 111h369zM296 437l-6 -36q-28 -197 -72 -288h211v324h-133z" />
    <glyph glyph-name="uni0436.ss01" horiz-adv-x="768" 
d="M544 278l229 -278h-146l-183 225v-225h-120v225l-184 -225h-145l229 278l-214 265h141l173 -222v222h120v-222l173 222h141z" />
    <glyph glyph-name="uni0437.ss01" horiz-adv-x="523" 
d="M242 -12q-120 0 -223 57l44 97q93 -45 180 -45q54 0 84.5 18.5t30.5 50.5q0 59 -101 59h-116v102h85q56 0 85 16.5t29 44.5q0 29 -26 44t-70 15q-74 0 -156 -45l-55 89q89 65 222 65q96 0 152 -43q58 -42 58 -101q0 -39 -27.5 -69.5t-77.5 -46.5l-1 -3q59 -14 93 -50.5
t34 -86.5q0 -70 -66 -119q-64 -49 -178 -49z" />
    <glyph glyph-name="uni0438.ss01" horiz-adv-x="647" 
d="M149 0h-83v543h127v-343l305 343h82v-543h-126v339z" />
    <glyph glyph-name="uni0439.ss01" horiz-adv-x="647" 
d="M139 679l62 65q62 -74 131 -74q67 0 129 74l64 -65q-83 -101 -194 -101t-192 101zM149 0h-83v543h127v-343l305 343h82v-543h-126v339z" />
    <glyph glyph-name="uni043A.ss01" horiz-adv-x="566" 
d="M572 0h-156l-178 229l-44 -42v-187h-128v543h128v-205l212 205h161l-241 -230z" />
    <glyph glyph-name="uni043B.ss01" horiz-adv-x="623" 
d="M72 -8q-14 0 -34 4l-31 98q8 -1 24 -1q50 0 80 41q31 42 46 128q16 93 32 241l4 40h364v-543h-130v427h-121l-6 -47q-2 -16 -4 -34l-3 -17l-6 -46q-4 -34 -9 -49q-13 -65 -22 -88q-18 -47 -34 -73q-52 -81 -150 -81z" />
    <glyph glyph-name="uni043F.ss01" horiz-adv-x="613" 
d="M66 543h481v-543h-130v427h-221v-427h-130v543z" />
    <glyph glyph-name="uni0442.ss01" horiz-adv-x="489" 
d="M11 543h467v-113h-169v-430h-129v430h-169v113z" />
    <glyph glyph-name="uni0444.ss01" horiz-adv-x="845" 
d="M808 271q0 -128 -88 -203q-89 -76 -236 -80v-146h-123v146q-147 6 -236 81q-88 75 -88 203t88 204t236 81v146h123v-146q147 -5 235 -81q89 -77 89 -205zM163 272q0 -80 52.5 -125.5t145.5 -47.5v344q-93 -1 -145.5 -46.5t-52.5 -124.5zM484 443v-344q92 1 145 47t53 126
q0 79 -52.5 124.5t-145.5 46.5z" />
    <glyph glyph-name="uni0446.ss01" horiz-adv-x="659" 
d="M636 -180h-125v180h-445v543h130v-424h223v424h130v-424h87v-299z" />
    <glyph glyph-name="uni0448.ss01" horiz-adv-x="923" 
d="M856 0h-790v543h130v-424h200v424h130v-424h200v424h130v-543z" />
    <glyph glyph-name="uni0449.ss01" horiz-adv-x="966" 
d="M856 543v-424h87v-299h-125v180h-752v543h130v-424h200v424h130v-424h200v424h130z" />
    <glyph glyph-name="uni044A.ss01" horiz-adv-x="616" 
d="M264 372h110q116 0 168 -55.5t52 -129.5q0 -80 -56 -134q-56 -53 -158 -53h-242v428h-122v115h248v-171zM263 107h104q50 0 74.5 21.5t24.5 58.5q0 35 -24.5 56.5t-70.5 21.5h-108v-158z" />
    <glyph glyph-name="uni044C.ss01" horiz-adv-x="549" 
d="M192 372h115q61 0 106 -17t68.5 -45t34 -58.5t10.5 -64.5q0 -80 -56 -134q-56 -53 -157 -53h-247v543h126v-171zM191 107h109q50 0 74.5 21.5t24.5 58.5q0 35 -24.5 56.5t-70.5 21.5h-113v-158z" />
    <glyph glyph-name="uni044E.ss01" horiz-adv-x="872" 
d="M546 557q127 0 208 -83q82 -82 82 -202q0 -122 -81 -204t-209 -82q-112 0 -189 64q-77 65 -95 166h-67v-216h-129v543h129v-220h66q18 101 95 168q78 66 190 66zM705 272q0 69 -46 116q-47 48 -113 48t-113 -48q-46 -47 -46 -116q0 -70 46 -117q47 -48 113 -48t113 48
q46 47 46 117z" />
    <glyph glyph-name="yen.osf" horiz-adv-x="502" 
d="M383 589h132l-149 -267h91v-86h-139l-3 -6v-28h142v-86h-142v-116h-125v116h-143v86h143v28l-3 6h-140v86h92l-148 267h134l128 -251z" />
    <glyph glyph-name="zero.dnom" horiz-adv-x="383" 
d="M192 -5q-83 0 -126 58t-43 147q0 93 44 149.5t125 56.5q80 0 124 -56.5t44 -149.5q0 -89 -43 -147t-125 -58zM192 77q76 0 76 123t-76 123q-77 0 -77 -123t77 -123z" />
    <glyph glyph-name="zero.lf" horiz-adv-x="686" 
d="M343 -12q-99 0 -168 55.5t-99 139.5t-30 187t30 187t99 139.5t168 55.5q60 0 110 -21t84 -56.5t57.5 -84.5t34.5 -104t11 -116t-11 -116t-34.5 -104t-57.5 -84.5t-84 -56.5t-110 -21zM343 116q81 0 120 70q40 70 40 184q0 113 -40 183q-41 71 -120 71t-120 -71
q-40 -70 -40 -183q0 -114 40 -184t120 -70z" />
    <glyph glyph-name="zero.num" horiz-adv-x="383" 
d="M192 341q-83 0 -126 58t-43 147q0 93 44 149.5t125 56.5q80 0 124 -56.5t44 -149.5q0 -89 -43 -147t-125 -58zM192 423q76 0 76 123t-76 123q-77 0 -77 -123t77 -123z" />
    <glyph glyph-name="zero.osf" horiz-adv-x="617" 
d="M504 75q-68 -87 -195 -87q-129 0 -196 87q-67 88 -67 218q0 131 67 217q67 88 196 88q127 0 195 -87q67 -86 67 -218t-67 -218zM442 293q0 88 -34 139t-98 51q-66 0 -100 -52q-33 -51 -33 -138t33 -139q34 -51 99 -51q64 0 98.5 50.5t34.5 139.5z" />
    <glyph glyph-name="zero.slash" horiz-adv-x="686" 
d="M343 752q60 0 110 -21t84 -56.5t57.5 -84.5t34.5 -104t11 -116t-11 -116t-34.5 -104t-57.5 -84.5t-84 -56.5t-110 -21q-99 0 -168 55.5t-99 139.5t-30 187t30 187t99 139.5t168 55.5zM343 637q-83 0 -125 -75t-42 -192q0 -89 23 -152l247 375q-39 44 -103 44zM343 103
q85 0 126 74q42 75 42 193q0 83 -19 141l-245 -371q38 -37 96 -37z" />
    <glyph glyph-name="zero.tf" horiz-adv-x="613" 
d="M432 19q-55 -31 -126 -31t-126 31q-100 59 -138 207q-37 145 0 287q38 151 138 207q56 32 126 32t126 -32q102 -56 140 -207q37 -142 0 -287q-38 -149 -140 -207zM456 370q0 113 -37 183q-38 71 -112 71q-75 0 -113 -71q-37 -70 -37 -183q0 -114 37 -184t113 -70
q75 0 112 70t37 184z" />
    </font>
</defs>
</svg>
