<?xml version="1.0" standalone="no"?>
<!DOCTYPE svg PUBLIC "-//W3C//DTD SVG 1.1//EN" "http://www.w3.org/Graphics/SVG/1.1/DTD/svg11.dtd" >
<svg>
<metadata>
Created by FontForge 20090622 at Sat Aug 26 09:16:43 2017
 By deploy user
Copyright &#194;&#169; 2017 by Kastelov. All rights reserved.
</metadata>
<defs>
<font id="Axiforma-Regular" horiz-adv-x="611" >
  <font-face 
    font-family="Axiforma"
    font-weight="400"
    font-stretch="normal"
    units-per-em="1000"
    panose-1="0 0 5 0 0 0 0 0 0 0"
    ascent="771"
    descent="-229"
    x-height="535"
    cap-height="739"
    bbox="-415 -317 1271 1007"
    underline-thickness="50"
    underline-position="-50"
    unicode-range="U+000D-U+25CA"
  />
<missing-glyph horiz-adv-x="130" 
 />
    <glyph glyph-name="f_b" unicode="fb" horiz-adv-x="1062" 
d="M119 536v34q0 94 49.5 147t132.5 53q65 0 121 -30l-30 -78q-45 19 -79 19q-98 0 -98 -112v-33h171v-82h-171v-454h-96v454h-93v82h93zM754 549q114 0 190 -82q77 -82 77 -199t-77 -200q-76 -81 -191 -81q-116 0 -188 91v-78h-96v757h96v-302q73 94 189 94zM742 77
q82 0 131 55q51 56 51 137q0 79 -51 135q-49 55 -131 55q-83 0 -132 -55t-49 -135q0 -82 49 -137t132 -55z" />
    <glyph glyph-name="f_f" unicode="ff" horiz-adv-x="769" 
d="M702 681q-55 0 -84 -28.5t-29 -83.5v-33h170v-82h-170v-454h-96v454h-278v-454h-96v454h-93v82h93v35q0 94 58 146.5t158 52.5q78 0 152 -38l-34 -78q-67 27 -109 27q-61 0 -95 -29t-34 -83v-33h278v35q0 94 53.5 146.5t144.5 52.5q66 0 122 -29l-30 -79q-45 19 -81 19z
" />
    <glyph glyph-name="f_f_i" unicode="ffi" horiz-adv-x="1019" 
d="M687 681q-98 0 -98 -112v-33h195v-82h-195v-454h-96v454h-278v-454h-96v454h-93v82h93v35q0 94 58 146.5t158 52.5q78 0 152 -38l-33 -78q-68 27 -111 27q-60 0 -94 -29t-34 -83v-33h278v34q0 94 49.5 147t133.5 53q66 0 121 -30l-31 -78q-45 19 -79 19zM898 750
q28 0 48 -20t20 -48q0 -30 -19.5 -49.5t-48.5 -19.5t-49 19.5t-20 49.5q0 29 20 48.5t49 19.5zM945 0h-96v536h96v-536z" />
    <glyph glyph-name="f_f_j" unicode="ffj" horiz-adv-x="1019" 
d="M770 536v-82h-181v-454h-96v454h-278v-454h-96v454h-93v82h93v35q0 94 58 146.5t158 52.5q76 0 152 -38l-33 -78q-68 27 -111 27q-60 0 -94 -29t-34 -83v-33h278v34q0 94 49.5 147t133.5 53q66 0 121 -30l-31 -78q-45 19 -79 19q-98 0 -98 -112v-33h181zM898 750
q28 0 48 -20t20 -48q0 -30 -19.5 -49.5t-48.5 -19.5t-49 19.5t-20 49.5q0 29 20 48.5t49 19.5zM849 -31v567h96v-561q0 -98 -47 -151t-130 -53q-61 0 -95 22l19 80q39 -14 64 -14q93 0 93 110z" />
    <glyph glyph-name="f_h" unicode="fh" horiz-adv-x="1011" 
d="M119 536v34q0 94 49.5 147t132.5 53q65 0 121 -30l-30 -78q-45 19 -79 19q-98 0 -98 -112v-33h171v-82h-171v-454h-96v454h-93v82h93zM732 550q89 0 150 -58t61 -167v-325h-95v298q0 77 -37 120t-99 43q-65 0 -106 -45.5t-41 -117.5v-298h-96v757h93v-287
q25 37 70.5 58.5t99.5 21.5z" />
    <glyph glyph-name="f_i" unicode="fi" horiz-adv-x="645" 
d="M119 536v34q0 94 49.5 147t133.5 53q66 0 121 -30l-31 -78q-45 19 -79 19q-98 0 -98 -112v-33h171v-82h-171v-454h-96v454h-93v82h93zM524 749q28 0 48 -19.5t20 -48.5q0 -30 -19.5 -49.5t-48.5 -19.5t-49 19.5t-20 49.5q0 29 20 48.5t49 19.5zM571 0h-96v536h96v-536z
" />
    <glyph glyph-name="f_j" unicode="fj" horiz-adv-x="645" 
d="M395 536v-82h-180v-454h-96v454h-93v82h93v34q0 94 49.5 147t133.5 53q66 0 121 -30l-31 -78q-45 19 -79 19q-98 0 -98 -112v-33h180zM524 749q28 0 48 -19.5t20 -48.5q0 -30 -19.5 -49.5t-48.5 -19.5t-49 19.5t-20 49.5q0 29 20 48.5t49 19.5zM475 -31v567h96v-561
q0 -98 -47 -151t-130 -53q-61 0 -95 22l19 80q39 -14 64 -14q93 0 93 110z" />
    <glyph glyph-name="f_k" unicode="fk" horiz-adv-x="939" 
d="M119 536v34q0 94 49.5 147t132.5 53q65 0 121 -30l-30 -78q-45 19 -79 19q-98 0 -98 -112v-33h171v-82h-171v-454h-96v454h-93v82h93zM944 0h-126l-202 250l-51 -46v-204h-96v757h96v-438l240 217h130l-251 -225z" />
    <glyph glyph-name="f_l" unicode="fl" horiz-adv-x="639" 
d="M119 536v34q0 95 47.5 147.5t131.5 52.5q66 0 121 -30l-27 -78q-45 19 -79 19q-98 0 -98 -112v-33h171v-82h-171v-454h-96v454h-93v82h93zM469 0v757h96v-757h-96z" />
    <glyph glyph-name=".notdef" horiz-adv-x="130" 
 />
    <glyph glyph-name=".null" horiz-adv-x="0" 
 />
    <glyph glyph-name="nonmarkingreturn" horiz-adv-x="333" 
 />
    <glyph glyph-name="CR.001" horiz-adv-x="130" 
 />
    <glyph glyph-name="CR.001" horiz-adv-x="130" 
 />
    <glyph glyph-name="CR" unicode="&#xd;" horiz-adv-x="333" 
 />
    <glyph glyph-name="space" unicode=" " horiz-adv-x="247" 
 />
    <glyph glyph-name="exclam" unicode="!" horiz-adv-x="295" 
d="M195 180h-96l-4 561h106zM149 -12q-28 0 -46.5 18.5t-18.5 46.5q0 26 18.5 44t46.5 18q26 0 44.5 -18t18.5 -44q0 -28 -18 -46.5t-45 -18.5z" />
    <glyph glyph-name="quotedbl" unicode="&#x22;" horiz-adv-x="468" 
d="M135 446h-89l82 293h116zM338 446h-89l82 293h116z" />
    <glyph glyph-name="numbersign" unicode="#" horiz-adv-x="704" 
d="M670 540l-16 -79h-107l-32 -171h107l-15 -79h-107l-40 -211h-89l40 211h-173l-40 -211h-90l41 211h-114l14 79h115l33 171h-116l16 79h115l39 199h88l-38 -199h173l38 199h88l-38 -199h108zM253 290h173l33 171h-173z" />
    <glyph glyph-name="dollar" unicode="$" horiz-adv-x="565" 
d="M523 200q0 -84 -54 -139t-140 -69v-104h-74v101q-73 6 -132.5 45.5t-91.5 106.5l75 61q57 -118 174 -118q61 0 97.5 32t36.5 78q0 61 -76 104q-8 5 -72 34q-58 28 -86 46q-110 69 -110 175q0 79 53 134t140 64v92h74v-94q106 -19 170 -106l-68 -64q-60 79 -147 79
q-50 0 -82.5 -27.5t-32.5 -71.5q0 -57 64 -97q26 -15 85 -44q65 -31 94 -48q103 -63 103 -170z" />
    <glyph glyph-name="percent" unicode="%" horiz-adv-x="880" 
d="M354 441q-56 -53 -132 -53q-77 0 -133 53q-55 54 -55 129q0 76 55 128q56 54 133 54q76 0 132 -54q55 -52 55 -128q0 -75 -55 -129zM215 0h-100l544 739h101zM222 678q-47 0 -78 -31t-31 -77t31.5 -77.5t77.5 -31.5t77.5 31.5t31.5 77.5t-31.5 77t-77.5 31zM470 168
q0 75 55 129t133 54t133 -54q56 -54 56 -129q0 -74 -56 -127t-133 -53t-133 53q-55 52 -55 127zM658 61q47 0 78.5 30.5t31.5 76.5q0 47 -31.5 79t-78.5 32q-46 0 -77.5 -32t-31.5 -79q0 -45 32 -76t77 -31z" />
    <glyph glyph-name="ampersand" unicode="&#x26;" horiz-adv-x="698" 
d="M575 160l120 -105l-53 -62l-121 107q-112 -110 -238 -110q-101 0 -172 63q-70 64 -70 154q0 137 136 216q-44 64 -44 138q0 77 57 133q58 56 137 56q70 0 120 -44q51 -44 51 -110q0 -73 -58 -118q-44 -34 -122 -71l-16 -7l57 -51l154 -135q33 41 72 104l64 -50
q-30 -53 -74 -108zM325 679q-45 0 -76.5 -33.5t-31.5 -83.5q0 -58 31 -102q94 44 120 63q43 31 43 73q0 35 -24.5 59t-61.5 24zM293 72q84 0 167 82l-174 154q-36 32 -57 53q-93 -60 -93 -149q0 -59 44 -100q44 -40 113 -40z" />
    <glyph glyph-name="quotesingle" unicode="'" horiz-adv-x="262" 
d="M133 446h-89l82 293h116z" />
    <glyph glyph-name="parenleft" unicode="(" horiz-adv-x="391" 
d="M383 -148l-41 -72q-143 76 -223 212q-78 134 -78 302q0 169 78.5 303t223.5 212l40 -72q-238 -159 -238 -443q0 -283 238 -442z" />
    <glyph glyph-name="parenright" unicode=")" horiz-adv-x="391" 
d="M48 -220l-40 72q238 159 238 442q0 284 -238 443l40 72q145 -78 223.5 -212t78.5 -303t-78.5 -303t-223.5 -211z" />
    <glyph glyph-name="asterisk" unicode="*" horiz-adv-x="456" 
d="M229 506l-94 -118l-58 47l95 110l-134 60l33 67l123 -62l-3 146h74l-2 -146l124 62l30 -67l-132 -60l94 -110l-58 -47z" />
    <glyph glyph-name="plus" unicode="+" horiz-adv-x="536" 
d="M314 394h188v-90h-188v-189l-90 -1v190h-190v90h190v189h90v-189z" />
    <glyph glyph-name="comma" unicode="," horiz-adv-x="242" 
d="M119 108q30 0 49.5 -21t19.5 -53q0 -86 -124 -165l-31 43q61 46 74 66q3 3 7 11h-4q-23 0 -39.5 17t-16.5 40q0 25 19.5 43.5t45.5 18.5z" />
    <glyph glyph-name="hyphen" unicode="-" horiz-adv-x="518" 
d="M452 232h-386v90h386v-90z" />
    <glyph glyph-name="period" unicode="." horiz-adv-x="232" 
d="M52 49q0 26 18.5 44t45.5 18t45.5 -18t18.5 -44q0 -28 -18.5 -46.5t-45.5 -18.5t-45.5 18.5t-18.5 46.5z" />
    <glyph glyph-name="slash" unicode="/" horiz-adv-x="607" 
d="M114 -123h-94l472 948h94z" />
    <glyph glyph-name="zero" unicode="0" horiz-adv-x="679" 
d="M340 -12q-76 0 -134 33.5t-92 91.5q-63 111 -63 257t63 257q34 58 92 91.5t134 33.5q77 0 135 -34t90 -90.5t47.5 -121.5t15.5 -136t-15.5 -136t-47.5 -121.5t-90 -90.5t-135 -34zM527 370q0 127 -46 207q-46 82 -141 82t-141 -82q-46 -80 -46 -207q0 -128 46 -208
q47 -81 141 -81t141 81q46 80 46 208z" />
    <glyph glyph-name="one" unicode="1" horiz-adv-x="386" 
d="M4 563l209 176h79v-739h-99v606l-134 -112z" />
    <glyph glyph-name="two" unicode="2" horiz-adv-x="559" 
d="M397 319l-206 -227h318v-92h-461v83l237 254q64 67 91 109.5t27 88.5q0 54 -38.5 89.5t-95.5 35.5q-92 0 -179 -84l-55 71q106 105 236 105q101 0 165 -61t64 -161q0 -98 -103 -211z" />
    <glyph glyph-name="three" unicode="3" horiz-adv-x="554" 
d="M248 -12q-120 0 -227 73l45 81q98 -62 181 -62q69 0 109.5 34.5t40.5 91.5t-42.5 93t-109.5 36h-91v89h90q61 0 100 33.5t39 86.5t-37 84.5t-95 31.5q-77 0 -162 -65l-51 70q40 40 99.5 63.5t121.5 23.5q99 0 163 -56q63 -56 63 -139q0 -59 -35 -105t-93 -64v-4
q66 -15 105 -64.5t39 -116.5q0 -95 -71 -155q-70 -60 -182 -60z" />
    <glyph glyph-name="four" unicode="4" horiz-adv-x="594" 
d="M470 273h83v-87h-83v-186h-96v186h-344l-21 60l404 493h57v-466zM374 558l-233 -285h233v285z" />
    <glyph glyph-name="five" unicode="5" horiz-adv-x="572" 
d="M285 482q107 0 177 -70q71 -69 71 -175q0 -108 -74 -179q-73 -70 -188 -70q-130 0 -237 89l47 78q90 -75 186 -75q72 0 119 44q46 45 46 112q0 66 -45 110q-45 45 -114 45q-80 0 -136 -59l-66 38l42 369h370v-89h-293l-25 -197q56 29 120 29z" />
    <glyph glyph-name="six" unicode="6" horiz-adv-x="615" 
d="M320 -9q-130 0 -199 100q-69 101 -69 256q0 107 32 196.5t103 149t171 59.5q112 0 189 -62l-42 -75q-65 50 -141 50q-71 0 -122 -49.5t-72.5 -115t-20.5 -131.5v-4q24 51 75 81.5t116 30.5q100 0 166 -68q66 -67 66 -171q0 -106 -71 -177q-70 -70 -181 -70zM321 80
q65 0 109 45q45 47 45 113q0 65 -44 109q-43 43 -108 43q-66 0 -110 -44t-44 -109t44 -112q43 -45 108 -45z" />
    <glyph glyph-name="seven" unicode="7" horiz-adv-x="503" 
d="M21 650v89h465v-59l-288 -680h-107l282 650h-352z" />
    <glyph glyph-name="eight" unicode="8" horiz-adv-x="625" 
d="M313 -12q-117 0 -191 60t-74 151q0 62 39.5 114.5t105.5 77.5v2q-54 25 -84 69t-30 96q0 83 65 139q64 55 169 55q104 0 168 -55q65 -56 65 -139q0 -53 -30.5 -96.5t-84.5 -68.5v-3q66 -24 106 -76t40 -115q0 -91 -74 -151q-73 -60 -190 -60zM450 549q0 52 -38.5 85.5
t-98.5 33.5q-63 0 -101.5 -33.5t-38.5 -85.5q0 -51 38.5 -84.5t100.5 -33.5t100 33.5t38 84.5zM313 75q73 0 119 38.5t46 98.5q0 58 -45.5 95.5t-119.5 37.5q-75 0 -121 -37.5t-46 -95.5q0 -60 46.5 -98.5t120.5 -38.5z" />
    <glyph glyph-name="nine" unicode="9" horiz-adv-x="612" 
d="M295 752q129 0 196 -99q68 -98 68 -261q0 -82 -17 -153t-52 -128t-93.5 -90t-135.5 -33q-118 0 -192 62l38 77q70 -52 151 -52q104 0 156 86.5t52 212.5q-25 -49 -76.5 -79t-115.5 -30q-100 0 -166 68q-66 67 -66 171q0 107 71 178q70 70 182 70zM445 505q0 66 -44 113
q-43 46 -108 46q-67 0 -110 -46q-44 -46 -44 -114q0 -67 43 -110t109 -43q65 0 109 44q45 43 45 110z" />
    <glyph glyph-name="colon" unicode=":" horiz-adv-x="261" 
d="M66 418q0 26 18.5 44t45.5 18t45.5 -18t18.5 -44q0 -28 -18.5 -46.5t-45.5 -18.5t-45.5 18.5t-18.5 46.5zM66 49q0 26 18.5 44t45.5 18t45.5 -18t18.5 -44q0 -28 -18.5 -46.5t-45.5 -18.5t-45.5 18.5t-18.5 46.5z" />
    <glyph glyph-name="semicolon" unicode=";" horiz-adv-x="287" 
d="M83 417q0 26 18.5 44t45.5 18t46 -18t19 -44q0 -28 -19 -46.5t-46 -18.5t-45.5 18.5t-18.5 46.5zM144 108q30 0 49.5 -21t19.5 -53q0 -86 -124 -165l-31 43q61 46 74 66q3 3 7 11h-4q-23 0 -39.5 17t-16.5 40q0 25 19.5 43.5t45.5 18.5z" />
    <glyph glyph-name="less" unicode="&#x3c;" horiz-adv-x="572" 
d="M499 160v-101l-465 229v87l465 229v-100l-363 -173z" />
    <glyph glyph-name="equal" unicode="=" horiz-adv-x="602" 
d="M532 372h-462v86h462v-86zM532 197h-462v86h462v-86z" />
    <glyph glyph-name="greater" unicode="&#x3e;" horiz-adv-x="546" 
d="M516 288l-454 -242v101l333 172l-333 171v101l454 -243v-60z" />
    <glyph glyph-name="question" unicode="?" horiz-adv-x="511" 
d="M262 167h-90v73q0 39 20.5 73t50 60l59 51.5t50 57.5t20.5 68q0 53 -38 86.5t-96 33.5q-80 0 -152 -79l-59 67q41 47 98.5 74.5t118.5 27.5q93 0 158 -58q66 -58 66 -149q0 -87 -73 -153q-11 -10 -35.5 -30.5t-37.5 -32.5t-29 -29.5t-23.5 -34.5t-7.5 -34v-72zM153 53
q0 26 19 44t46 18q26 0 44.5 -18t18.5 -44q0 -28 -18 -46.5t-45 -18.5t-46 18.5t-19 46.5z" />
    <glyph glyph-name="at" unicode="@" horiz-adv-x="974" 
d="M617 439v50h77v-275q0 -33 16 -53.5t40 -20.5q45 0 77 53q33 52 33 134q0 139 -106 238q-105 99 -256 99q-154 -2 -261 -111q-107 -110 -107 -268q0 -156 112 -267t277 -111q157 0 278 98l41 -63q-58 -49 -143 -79q-89 -33 -183 -33q-125 -2 -234 60.5t-172 168.5
t-60 225q0 189 132 322q132 134 318 134q90 0 172.5 -33.5t141.5 -89.5t94 -132t35 -158q0 -111 -59 -185t-143 -74q-44 0 -74 22.5t-39 56.5q-26 -37 -68.5 -58t-90.5 -21q-85 0 -145 62q-59 64 -59 155q0 92 60 155q61 64 149 64q94 0 147 -65zM616 284q0 63 -39 105
q-37 43 -97 43q-58 0 -99 -42q-39 -40 -39 -104q0 -62 38 -105q39 -41 98 -41t98 41q40 41 40 103z" />
    <glyph glyph-name="A" unicode="A" horiz-adv-x="674" 
d="M661 0h-109l-75 192h-281l-75 -192h-109l299 739h54zM443 286l-106 279l-107 -279h213z" />
    <glyph glyph-name="B" unicode="B" horiz-adv-x="672" 
d="M488 404q66 -18 102.5 -70.5t36.5 -121.5q0 -87 -61 -149q-60 -63 -168 -63h-305v739h292q96 0 149 -56q54 -55 54 -129q0 -51 -27 -92t-73 -58zM372 646h-180v-206h177q53 0 85 31.5t32 76.5q0 41 -31.5 69.5t-82.5 28.5zM192 94h190q66 0 103 37q39 37 39 88
q0 55 -39.5 92.5t-106.5 37.5h-186v-255z" />
    <glyph glyph-name="C" unicode="C" horiz-adv-x="776" 
d="M426 -11q-160 0 -270 106q-110 107 -110 272q0 168 112 276q112 109 271 109q101 0 186 -45q85 -43 133 -117l-74 -62q-94 127 -243 127q-118 0 -200 -82t-82 -207q0 -122 80 -202q80 -79 201 -79q74 0 138 33t110 92l72 -61q-53 -74 -138.5 -117t-185.5 -43z" />
    <glyph glyph-name="D" unicode="D" horiz-adv-x="758" 
d="M358 0h-265v739h275q157 0 248 -100q92 -101 92 -271q0 -171 -94 -269q-93 -99 -256 -99zM193 644v-549h169q113 0 178 77q64 77 64 199q0 120 -64 196q-65 77 -178 77h-169z" />
    <glyph glyph-name="E" unicode="E" horiz-adv-x="609" 
d="M553 0h-460v739h460v-95h-360v-221h333v-95h-333v-233h360v-95z" />
    <glyph glyph-name="F" unicode="F" horiz-adv-x="573" 
d="M193 0h-100v739h452v-97h-352v-219h307v-97h-307v-326z" />
    <glyph glyph-name="G" unicode="G" horiz-adv-x="812" 
d="M424 -11q-163 0 -271 108q-107 109 -107 272q0 166 112 274q112 109 272 109q92 0 174.5 -37t133.5 -99l-71 -65q-93 104 -236 104q-119 0 -202 -81q-81 -81 -81 -206q0 -122 81 -203q82 -80 199 -80q65 0 128 28t109 76v147h-247v92h341v-283q-135 -156 -335 -156z" />
    <glyph glyph-name="H" unicode="H" horiz-adv-x="758" 
d="M194 0h-101v739h101v-312h371v312h100v-739h-100v331h-371v-331z" />
    <glyph glyph-name="I" unicode="I" horiz-adv-x="286" 
d="M93 0v739h100v-739h-100z" />
    <glyph glyph-name="J" unicode="J" horiz-adv-x="558" 
d="M225 -12q-129 0 -212 95l61 73q60 -73 151 -73q67 0 107 42.5t40 119.5v494h100v-499q0 -120 -69 -186q-67 -66 -178 -66z" />
    <glyph glyph-name="K" unicode="K" horiz-adv-x="666" 
d="M678 0h-124l-260 324l-101 -119v-205h-100v739h100v-402l339 402h119l-292 -348z" />
    <glyph glyph-name="L" unicode="L" horiz-adv-x="603" 
d="M590 0h-497v739h100v-642h397v-97z" />
    <glyph glyph-name="M" unicode="M" horiz-adv-x="919" 
d="M192 0h-99v739h48l319 -469l317 469h49v-739h-100v499l-254 -373h-26l-254 373v-499z" />
    <glyph glyph-name="N" unicode="N" horiz-adv-x="780" 
d="M588 212v527h99v-739h-52l-443 524v-524h-99v739h45z" />
    <glyph glyph-name="O" unicode="O" horiz-adv-x="855" 
d="M45 365q0 162 112 274q113 113 270 113t270 -113t113 -270t-113 -270q-113 -111 -273 -111q-161 0 -270 109t-109 268zM706 368q0 122 -81 204t-198 82q-116 0 -197 -83t-81 -203q0 -119 80 -202q79 -81 198 -81t198 81q81 81 81 202z" />
    <glyph glyph-name="P" unicode="P" horiz-adv-x="608" 
d="M93 739h247q116 0 178 -68q61 -67 61 -160q0 -95 -64 -162q-65 -66 -184 -66h-138v-283h-100v739zM193 376h140q69 0 107.5 39t38.5 98q0 56 -35.5 94t-97.5 38h-153v-269z" />
    <glyph glyph-name="Q" unicode="Q" horiz-adv-x="855" 
d="M710 -40q43 0 88 16l12 -84q-47 -19 -106 -19q-138 0 -246 116q-7 -1 -30 -1q-159 0 -271 112t-112 270q0 157 112 269q113 113 271 113t270 -112t112 -270q0 -120 -67 -217q-67 -96 -175 -139q65 -54 142 -54zM149 368q0 -121 81 -202t198 -81q118 0 198 81
q81 81 81 202q0 122 -81 204q-79 82 -198 82q-117 0 -198 -82t-81 -204z" />
    <glyph glyph-name="R" unicode="R" horiz-adv-x="641" 
d="M610 0h-123l-192 300h-102v-300h-100v739h251q111 0 171 -66q61 -64 61 -154q0 -75 -45.5 -134t-126.5 -77zM345 644h-152v-250h132q72 0 110.5 35t38.5 91q0 55 -34 89.5t-95 34.5z" />
    <glyph glyph-name="S" unicode="S" horiz-adv-x="564" 
d="M279 -12q-82 0 -149.5 39.5t-102.5 112.5l74 61q60 -118 177 -118q62 0 99 32t37 80q0 59 -77 103q-14 7 -76 36q-51 23 -83 42q-111 70 -111 176q0 85 61 142q61 58 162 58q138 0 217 -109l-67 -64q-60 79 -149 79q-51 0 -84 -27.5t-33 -72.5q0 -58 63 -95
q26 -16 86 -44q63 -30 93 -47q107 -65 107 -172q0 -95 -70 -153q-70 -59 -174 -59z" />
    <glyph glyph-name="T" unicode="T" horiz-adv-x="566" 
d="M233 0v642h-219v97h538v-97h-219v-642h-100z" />
    <glyph glyph-name="U" unicode="U" horiz-adv-x="706" 
d="M85 249v490h100v-472q0 -88 44 -135t124 -47q79 0 123 48t44 134v472h101v-490q0 -121 -74 -192q-73 -70 -194 -70t-194 70q-74 71 -74 192z" />
    <glyph glyph-name="V" unicode="V" horiz-adv-x="708" 
d="M356 172l233 567h109l-314 -739h-57l-319 739h114z" />
    <glyph glyph-name="W" unicode="W" horiz-adv-x="1029" 
d="M321 0h-56l-254 739h106l178 -541l196 541h45l201 -541l175 541h105l-252 -739h-55l-195 552z" />
    <glyph glyph-name="X" unicode="X" horiz-adv-x="627" 
d="M128 0h-120l246 375l-234 364h116l178 -288l180 288h120l-242 -364l244 -375h-116l-186 293z" />
    <glyph glyph-name="Y" unicode="Y" horiz-adv-x="639" 
d="M511 739h111l-253 -473v-266h-100v266l-250 473h111l189 -374z" />
    <glyph glyph-name="Z" unicode="Z" horiz-adv-x="618" 
d="M584 0h-553v62l402 583h-384v94h524v-63l-398 -582h409v-94z" />
    <glyph glyph-name="bracketleft" unicode="[" horiz-adv-x="370" 
d="M353 -227h-266v1038h266v-79h-167v-880h167v-79z" />
    <glyph glyph-name="backslash" unicode="\" horiz-adv-x="605" 
d="M115 825l471 -948h-94l-471 948h94z" />
    <glyph glyph-name="bracketright" unicode="]" horiz-adv-x="370" 
d="M282 -227h-265v79h167v880h-167v79h265v-1038z" />
    <glyph glyph-name="asciicircum" unicode="^" horiz-adv-x="520" 
d="M137 431h-97l193 311h56l191 -311h-95l-124 212z" />
    <glyph glyph-name="underscore" unicode="_" horiz-adv-x="582" 
d="M582 -170h-582v87h582v-87z" />
    <glyph glyph-name="grave" unicode="`" horiz-adv-x="421" 
d="M157 787l59 -167h-83l-93 167h117z" />
    <glyph glyph-name="a" unicode="a" horiz-adv-x="665" 
d="M498 458v78h92v-536h-92v76q-72 -89 -189 -89q-116 0 -192 82t-76 203t76 198q76 79 192 79q114 0 189 -91zM504 269q0 81 -51 136q-51 56 -133 56t-132 -56t-50 -137t50 -137t132 -56t133 56q51 55 51 138z" />
    <glyph glyph-name="b" unicode="b" horiz-adv-x="668" 
d="M359 549q114 0 190 -82q77 -82 77 -199t-77 -200q-77 -81 -191 -81q-116 0 -188 91v-78h-96v757h96v-302q73 94 189 94zM347 77q82 0 131 55q51 56 51 137q0 79 -51 135q-49 55 -131 55q-83 0 -132 -55t-49 -135q0 -82 49 -137t132 -55z" />
    <glyph glyph-name="c" unicode="c" horiz-adv-x="599" 
d="M324 -12q-125 0 -204 79t-79 201t80 202q80 79 208 79q79 0 145.5 -38t97.5 -102l-79 -46q-27 46 -70.5 72t-93.5 26q-82 0 -137 -55q-54 -56 -54 -138q0 -81 53 -137q52 -55 133 -55q50 0 96.5 27t69.5 69l80 -46q-34 -63 -100 -100q-68 -38 -146 -38z" />
    <glyph glyph-name="d" unicode="d" horiz-adv-x="667" 
d="M497 458v299h96v-757h-96v75q-70 -88 -186 -88q-118 0 -194 81q-76 82 -76 201q0 118 76 198q76 82 192 82q115 0 188 -91zM504 269q0 81 -51 136q-50 56 -132 56t-133 -56q-50 -56 -50 -136q0 -82 50 -138q51 -56 133 -56t132 56q51 55 51 138z" />
    <glyph glyph-name="e" unicode="e" 
d="M572 278q0 -10 -3 -49h-427q13 -71 60 -112t128 -41q48 0 99 16.5t88 43.5l41 -73q-42 -32 -104 -53.5t-126 -21.5q-73 0 -129.5 24t-89.5 65t-50 90t-17 103q0 120 75 200q76 79 196 79q114 0 186 -73q73 -73 73 -198zM142 312h331q-4 69 -48.5 110.5t-111.5 41.5
q-65 0 -112 -42.5t-59 -109.5z" />
    <glyph glyph-name="f" unicode="f" horiz-adv-x="395" 
d="M331 681q-116 0 -116 -112v-33h171v-82h-171v-454h-96v454h-93v82h93v35q0 94 54.5 146.5t145.5 52.5q64 0 120 -29l-29 -79q-45 19 -79 19z" />
    <glyph glyph-name="g" unicode="g" horiz-adv-x="667" 
d="M498 466v70h95v-481q0 -130 -78 -206q-79 -77 -209 -77q-131 0 -237 76l45 76q88 -65 191 -65q89 0 141 51q52 49 52 129v44q-72 -84 -188 -84t-192 79q-77 80 -77 197t79 195q79 79 195 79q111 0 183 -83zM190 139q52 -54 131 -54t131 54q52 53 52 135t-52 134
q-52 54 -131 54t-131 -54q-52 -52 -52 -134t52 -135z" />
    <glyph glyph-name="h" unicode="h" horiz-adv-x="616" 
d="M170 0h-96v757h93v-287q25 37 70.5 58.5t99.5 21.5q89 0 150 -58t61 -167v-325h-95v298q0 77 -37 120t-99 43q-65 0 -106 -45.5t-41 -117.5v-298z" />
    <glyph glyph-name="i" unicode="i" horiz-adv-x="245" 
d="M124 612q-30 0 -50 19.5t-20 49.5q0 29 20 48t50 19q28 0 48 -19.5t20 -47.5q0 -30 -20 -49.5t-48 -19.5zM170 536v-536h-96v536h96z" />
    <glyph glyph-name="j" unicode="j" horiz-adv-x="269" 
d="M147 612q-30 0 -50 19.5t-20 49.5q0 29 20 48t50 19q28 0 48 -19.5t20 -47.5q0 -30 -20 -49.5t-48 -19.5zM17 -229q-60 0 -95 22l19 80q39 -14 65 -14q92 0 92 110v567h96v-561q0 -98 -47 -151t-130 -53z" />
    <glyph glyph-name="k" unicode="k" horiz-adv-x="545" 
d="M549 0h-126l-202 250l-51 -46v-204h-96v757h96v-438l240 217h130l-251 -225z" />
    <glyph glyph-name="l" unicode="l" horiz-adv-x="245" 
d="M170 757v-757h-96v757h96z" />
    <glyph glyph-name="m" unicode="m" horiz-adv-x="974" 
d="M693 550q97 0 156 -63q58 -61 58 -168v-319h-96v304q0 75 -34.5 116t-94.5 41q-63 0 -103 -44t-40 -115v-302h-95v302q0 75 -35 117t-95 42q-63 0 -103.5 -44.5t-40.5 -116.5v-300h-96v536h94v-79q24 45 66.5 69.5t95.5 23.5q55 0 101 -26.5t67 -73.5q27 46 79.5 73
t115.5 27z" />
    <glyph glyph-name="n" unicode="n" horiz-adv-x="618" 
d="M170 0h-96v536h94v-76q51 90 170 90q90 0 151 -58t61 -167v-325h-95v298q0 77 -37.5 120t-99.5 43q-65 0 -107 -46q-41 -47 -41 -118v-297z" />
    <glyph glyph-name="o" unicode="o" horiz-adv-x="645" 
d="M323 -13q-123 0 -203 81q-79 82 -79 201t79 199q79 82 203 82q122 0 201 -82q80 -83 80 -199q0 -118 -80 -201q-80 -81 -201 -81zM508 269q0 79 -54 135q-54 57 -131 57t-131 -57q-54 -56 -54 -135q0 -80 54 -137t131 -57t131 57t54 137z" />
    <glyph glyph-name="p" unicode="p" horiz-adv-x="670" 
d="M361 549q115 0 191 -82q77 -83 77 -199q0 -117 -77 -200q-76 -81 -192 -81q-117 0 -190 91v-299h-96v757h96v-81q75 94 191 94zM533 269q0 81 -51 136q-51 56 -133 56t-133 -56q-50 -56 -50 -136q0 -82 50 -138q51 -56 133 -56t133 56q51 55 51 138z" />
    <glyph glyph-name="q" unicode="q" horiz-adv-x="670" 
d="M500 456v80h95v-757h-96v298q-74 -90 -190 -90q-115 0 -192 81q-76 82 -76 201q0 116 77 198q76 82 191 82q116 0 191 -93zM504 269q0 81 -51 136q-50 56 -132 56t-133 -56q-50 -56 -50 -136q0 -82 50 -138q51 -56 133 -56t132 56q51 55 51 138z" />
    <glyph glyph-name="r" unicode="r" horiz-adv-x="389" 
d="M170 0h-96v536h91v-79q47 93 154 93q29 0 63 -8l-9 -93q-28 9 -56 9q-66 0 -106.5 -45t-40.5 -129v-284z" />
    <glyph glyph-name="s" unicode="s" horiz-adv-x="454" 
d="M224 -12q-62 0 -115.5 30t-83.5 86l69 53q22 -41 58.5 -63t74.5 -22q42 0 68.5 21.5t26.5 52.5q0 43 -49 68q-13 7 -67 30q-50 21 -66 30q-82 45 -82 130q0 65 48 107q47 43 127 43q52 0 98 -22t72 -63l-61 -58q-44 62 -115 62q-35 0 -56 -18.5t-21 -46.5q0 -42 45 -63
l59 -26q48 -19 72 -33q91 -46 91 -135q0 -69 -54 -116q-55 -47 -139 -47z" />
    <glyph glyph-name="t" unicode="t" horiz-adv-x="427" 
d="M388 106l36 -74q-59 -45 -143 -45t-127.5 52t-43.5 149v266h-95v82h96v190h94v-190h190v-82h-190v-273q0 -106 87 -106q47 0 96 31z" />
    <glyph glyph-name="u" unicode="u" horiz-adv-x="595" 
d="M297 -13q-105 0 -167.5 62t-62.5 167v320h96v-317q0 -66 35.5 -104.5t98.5 -38.5t99 38.5t36 104.5v317h95v-320q0 -107 -61.5 -168t-168.5 -61z" />
    <glyph glyph-name="v" unicode="v" horiz-adv-x="563" 
d="M283 135l162 401h106l-236 -535h-67l-236 535h107z" />
    <glyph glyph-name="w" unicode="w" horiz-adv-x="840" 
d="M274 1h-79l-184 535h101l127 -402l146 402h67l152 -402l122 402h100l-179 -535h-80l-148 401z" />
    <glyph glyph-name="x" unicode="x" horiz-adv-x="508" 
d="M310 271l184 -271h-111l-130 201l-130 -201h-116l189 278l-170 258h111l119 -188l121 188h113z" />
    <glyph glyph-name="y" unicode="y" horiz-adv-x="555" 
d="M290 134l144 402h106l-225 -596q-33 -89 -77.5 -128.5t-108.5 -39.5q-51 0 -86 21l12 84q36 -16 65 -16q66 0 106 94l20 47l-233 534h111z" />
    <glyph glyph-name="z" unicode="z" horiz-adv-x="508" 
d="M465 479l-305 -397h314v-82h-444v61l306 392h-288v82h417v-56z" />
    <glyph glyph-name="braceleft" unicode="{" horiz-adv-x="371" 
d="M121 292v-4q46 -15 77 -52t31 -85q0 -39 -4 -104t-4 -104q0 -94 95 -94h33v-80h-43q-177 0 -177 176q0 48 4 112q4 65 4 96q0 54 -38 77q-28 16 -77 27v66q50 11 76 27q39 23 39 77q0 31 -4 96t-4 114q0 174 177 174h43v-80h-33q-95 0 -95 -93q0 -40 4 -105t4 -103
q0 -49 -31 -87t-77 -51z" />
    <glyph glyph-name="bar" unicode="|" horiz-adv-x="261" 
d="M173 -179h-86v1026h86v-1026z" />
    <glyph glyph-name="braceright" unicode="}" horiz-adv-x="371" 
d="M250 288v4q-46 13 -77 51t-31 87q0 38 4 103t4 105q0 93 -95 93h-33v80h43q87 0 132 -44t45 -130q0 -49 -4 -114q-3 -73 -3 -96q0 -53 38 -77q25 -15 77 -27v-66q-51 -11 -78 -27q-37 -23 -37 -77q0 -23 3 -96q4 -64 4 -112q0 -86 -45.5 -131t-130.5 -45h-44v80h33
q95 0 95 94q0 39 -4 104t-4 104q0 48 31 85t77 52z" />
    <glyph glyph-name="asciitilde" unicode="~" horiz-adv-x="668" 
d="M438 250q-49 0 -116 34t-96 34q-30 0 -52 -13.5t-49 -46.5l-61 45q57 99 168 99q49 0 116 -34t96 -34q31 0 52.5 13.5t48.5 47.5l62 -46q-60 -99 -169 -99z" />
    <glyph glyph-name="exclamdown" unicode="&#xa1;" horiz-adv-x="261" 
d="M142 526q27 0 45 -18.5t18 -46.5q0 -26 -18.5 -44t-44.5 -18q-28 0 -46.5 18t-18.5 44q0 28 18.5 46.5t46.5 18.5zM88 -227l4 561h96l6 -561h-106z" />
    <glyph glyph-name="cent" unicode="&#xa2;" horiz-adv-x="610" 
d="M363 458v-378q41 8 76 33t54 59l80 -46q-29 -55 -85.5 -91.5t-124.5 -44.5v-80h-68v79q-110 10 -182 88q-69 77 -69 191t69 190q71 77 182 89v83h68v-83q70 -7 127 -44t85 -94l-79 -46q-50 82 -133 95zM141 268q0 -74 43 -126q44 -52 111 -63v379q-69 -13 -111.5 -65.5
t-42.5 -124.5z" />
    <glyph glyph-name="sterling" unicode="&#xa3;" horiz-adv-x="571" 
d="M171 92h358v-92h-474v79q42 32 70 86q29 56 29 108q0 28 -10 61h-90v82h61q-27 77 -27 122q1 91 65 152q63 60 161 62q66 1 122.5 -30.5t89.5 -86.5l-74 -53q-21 36 -56.5 57.5t-74.5 21.5q-57 0 -94.5 -38t-37.5 -95q0 -42 26 -112h242v-82h-214q10 -40 9 -74
q-1 -47 -23 -92.5t-58 -75.5z" />
    <glyph glyph-name="currency" unicode="&#xa4;" horiz-adv-x="636" 
d="M543 367q0 -71 -39 -126l72 -70l-53 -52l-70 68q-59 -46 -137 -46q-73 0 -134 44l-69 -66l-52 52l69 68q-40 58 -40 128q0 75 45 137l-74 73l52 52l75 -73q58 40 128 40q71 0 131 -42l76 75l53 -52l-76 -76q43 -58 43 -134zM461 369q0 63 -42 107q-42 43 -103 43
t-103 -43q-41 -44 -41 -107t41 -107q42 -44 103 -44t103 44t42 107z" />
    <glyph glyph-name="yen" unicode="&#xa5;" horiz-adv-x="641" 
d="M504 739h107l-199 -371h132v-74h-172l-3 -6v-51h175v-75h-175v-162h-99v162h-177v75h177v53l-2 4h-175v74h135l-197 371h107l183 -354z" />
    <glyph glyph-name="brokenbar" unicode="&#xa6;" horiz-adv-x="261" 
d="M173 434h-86v413h86v-413zM87 234h86v-413h-86v413z" />
    <glyph glyph-name="section" unicode="&#xa7;" horiz-adv-x="562" 
d="M524 212q0 -41 -20 -76t-55 -55q29 -44 29 -100q0 -83 -60 -139q-59 -56 -154 -56q-136 0 -219 107l67 63q64 -79 150 -79q53 0 85 29.5t32 73.5q0 52 -49 87q-27 20 -47 32l-58 31l-68 36q-23 15 -54 39q-60 48 -60 119q0 87 75 130q-30 44 -30 102q0 84 59 140
q59 55 155 55q126 0 204 -101l-68 -59q-58 69 -131 69q-54 0 -87 -29.5t-33 -72.5q0 -50 48 -86q23 -17 44 -30l59 -32l17 -9q75 -40 114 -75q55 -46 55 -114zM270 212q92 -50 118 -69q37 19 37 59q0 34 -27 59t-90 57q-99 50 -131 75q-36 -18 -36 -59q0 -39 40 -69
q29 -20 38 -25z" />
    <glyph glyph-name="dieresis" unicode="&#xa8;" horiz-adv-x="496" 
d="M119 630q-30 0 -50 19.5t-20 50.5q0 28 20 47t50 19q28 0 47.5 -19t19.5 -47q0 -30 -19.5 -50t-47.5 -20zM248 700q0 28 20 47t49 19t48.5 -19t19.5 -47q0 -30 -19.5 -50t-48.5 -20t-49 20t-20 50z" />
    <glyph glyph-name="copyright" unicode="&#xa9;" horiz-adv-x="860" 
d="M45 369q0 157 113 270t272 113t272 -113t113 -270q0 -156 -113 -269q-112 -112 -272 -112t-272 112q-113 113 -113 269zM430 55q130 0 224 92q93 93 93 222q0 131 -93 222q-93 93 -224 93t-224 -93q-92 -92 -92 -222q0 -129 93 -222q94 -92 223 -92zM433 164
q-86 0 -145 59q-59 61 -59 146q0 87 59 146t145 59q102 0 157 -73l-47 -39q-45 50 -110 50q-60 0 -98 -39.5t-38 -103.5q0 -63 38 -102.5t98 -39.5q70 0 111 47l45 -43q-57 -67 -156 -67z" />
    <glyph glyph-name="ordfeminine" unicode="&#xaa;" horiz-adv-x="412" 
d="M195 736q69 0 111 -41.5t42 -114.5v-189h-60v37q-40 -46 -114 -46q-58 0 -93 32t-35 81q0 47 37 74t101 27q48 0 104 -10q-5 89 -98 89q-59 0 -99 -28l-24 51q50 38 128 38zM181 444q93 0 105 90q-41 10 -96 10q-37 0 -58 -13t-21 -35q0 -24 19 -38t51 -14z" />
    <glyph glyph-name="guillemotleft" unicode="&#xab;" horiz-adv-x="516" 
d="M278 88h-95l-142 203l142 203h95l-143 -203zM463 88h-96l-140 203l140 203h96l-142 -203z" />
    <glyph glyph-name="logicalnot" unicode="&#xac;" horiz-adv-x="607" 
d="M448 274h-378v90h463v-212h-85v122z" />
    <glyph glyph-name="uni00AD" unicode="&#xad;" horiz-adv-x="512" 
d="M447 284h-382v88h382v-88z" />
    <glyph glyph-name="registered" unicode="&#xae;" horiz-adv-x="568" 
d="M114 692q71 71 170 71q98 0 169 -71t71 -169q0 -99 -71 -170q-70 -70 -169 -70q-100 0 -170 70t-70 170q0 99 70 169zM149 388q56 -56 135 -56t135 56t56 135t-56 135t-135 56t-135 -56t-56 -135t56 -135zM380 566q0 -52 -46 -71l52 -90h-52l-48 82h-40v-82h-46v241h97
q36 0 59.5 -22.5t23.5 -57.5zM286 607h-40v-82h40q48 0 48 42q0 40 -48 40z" />
    <glyph glyph-name="overscore" unicode="&#xaf;" horiz-adv-x="471" 
d="M347 647l-307 -1v86h307v-85z" />
    <glyph glyph-name="degree" unicode="&#xb0;" horiz-adv-x="363" 
d="M283 581q-41 -40 -101 -40t-101 40q-42 41 -42 98q0 59 42 99q43 41 101 41t101 -41q42 -40 42 -99q0 -57 -42 -98zM260 679q0 34 -23 57t-55 23t-55 -23t-23 -57q0 -33 23 -55.5t55 -22.5t55 22.5t23 55.5z" />
    <glyph glyph-name="plusminus" unicode="&#xb1;" horiz-adv-x="597" 
d="M345 673v-189h188v-91h-188v-188l-90 -1v189h-190v91h190v189h90zM533 82h-468v87h468v-87z" />
    <glyph glyph-name="uni00B2" unicode="&#xb2;" horiz-adv-x="344" 
d="M244 678l-101 -106h159v-65h-262v58l130 132q56 59 56 93q0 25 -17.5 40.5t-44.5 15.5q-46 0 -94 -45l-37 53q59 58 135 58q57 0 93.5 -33.5t36.5 -87.5q0 -55 -54 -113z" />
    <glyph glyph-name="uni00B3" unicode="&#xb3;" horiz-adv-x="331" 
d="M147 501q-69 0 -130 39l30 56q56 -32 98 -32q35 0 54.5 15.5t19.5 42.5q0 26 -20.5 42t-54.5 16h-51v61h48q30 0 50 15t20 39t-18.5 38.5t-45.5 14.5q-40 0 -85 -33l-35 50q50 47 127 47q56 0 92.5 -30t36.5 -75q0 -32 -19.5 -56.5t-51.5 -34.5v-2q38 -8 59 -34t21 -63
q0 -51 -40.5 -83.5t-104.5 -32.5z" />
    <glyph glyph-name="acute" unicode="&#xb4;" horiz-adv-x="449" 
d="M123 620h-83l59 167h117z" />
    <glyph glyph-name="paragraph" unicode="&#xb6;" horiz-adv-x="660" 
d="M251 734h357v-89h-69v-848h-93v848h-75v-848h-93v508h-29q-92 0 -156 62q-63 61 -63 154q0 91 63 152q64 61 158 61z" />
    <glyph glyph-name="middot" unicode="&#xb7;" horiz-adv-x="255" 
d="M64 49q0 26 18.5 44t45.5 18t45.5 -18t18.5 -44q0 -28 -18.5 -46.5t-45.5 -18.5t-45.5 18.5t-18.5 46.5z" />
    <glyph glyph-name="cedilla" unicode="&#xb8;" horiz-adv-x="315" 
d="M173 -48h8q44 0 73.5 -25t29.5 -67q0 -47 -34.5 -79t-95.5 -32q-51 0 -114 29l25 63q43 -21 81 -21q27 0 42.5 12.5t15.5 31.5q0 36 -52 36h-56l-9 22l39 98l74 -2z" />
    <glyph glyph-name="uni00B9" unicode="&#xb9;" horiz-adv-x="265" 
d="M18 793l132 106h54v-392h-72v293l-76 -61z" />
    <glyph glyph-name="ordmasculine" unicode="&#xba;" horiz-adv-x="440" 
d="M42 557q0 76 51 127q51 52 127 52t127 -52q51 -51 51 -127q0 -75 -51 -126q-52 -50 -127 -50t-127 50q-51 51 -51 126zM219 441q50 0 83.5 33.5t33.5 83.5q0 51 -33.5 85t-83.5 34q-49 0 -81.5 -34t-32.5 -85q0 -50 32.5 -83.5t81.5 -33.5z" />
    <glyph glyph-name="guillemotright" unicode="&#xbb;" horiz-adv-x="516" 
d="M289 291l-140 -203h-96l142 203l-142 203h96zM475 291l-142 -203h-95l143 203l-143 203h95z" />
    <glyph glyph-name="onequarter" unicode="&#xbc;" horiz-adv-x="858" 
d="M221 346h-73v293l-75 -60l-39 54l132 106h55v-393zM106 0l578 739h83l-576 -739h-85zM772 155h44v-57h-44v-98h-63v98h-185l-15 41l214 257h49v-241zM709 292l-115 -137h115v137z" />
    <glyph glyph-name="onehalf" unicode="&#xbd;" horiz-adv-x="838" 
d="M222 346h-73v293l-75 -60l-39 54l132 106h55v-393zM83 0l578 739h84l-576 -739h-86zM739 171l-101 -106h159v-65h-262v58l130 132q56 59 56 93q0 25 -17.5 40.5t-44.5 15.5q-46 0 -94 -45l-37 53q59 58 135 58q57 0 93.5 -33.5t36.5 -87.5t-54 -113z" />
    <glyph glyph-name="threequarters" unicode="&#xbe;" horiz-adv-x="840" 
d="M150 404q35 0 54.5 15.5t19.5 42.5q0 26 -20.5 42t-54.5 16h-51v61h48q30 0 50 15t20 39t-18.5 38.5t-45.5 14.5q-40 0 -85 -33l-35 50q50 47 127 47q56 0 92.5 -30t36.5 -75q0 -32 -19.5 -56.5t-51.5 -34.5v-2q38 -8 59 -34t21 -63q0 -51 -40.5 -83.5t-104.5 -32.5
q-68 0 -130 39l30 56q56 -32 98 -32zM134 0l578 739h83l-576 -739h-85zM690 396h49v-241h44v-57h-44v-98h-63v98h-185l-15 41zM676 292l-115 -137h115v137z" />
    <glyph glyph-name="questiondown" unicode="&#xbf;" horiz-adv-x="503" 
d="M352 462q0 -26 -19 -44t-46 -18q-26 0 -44.5 18t-18.5 44q0 28 18 46.5t45 18.5t46 -18.5t19 -46.5zM243 348h90v-73q0 -39 -20.5 -73t-50 -60l-59 -51.5t-50 -57.5t-20.5 -68q0 -53 38 -86.5t96 -33.5q80 0 152 79l59 -67q-41 -47 -98.5 -74.5t-118.5 -27.5
q-93 0 -158 58q-66 59 -66 149q0 87 72 152q12 11 36.5 31.5t38 33t29.5 30t23 34t7 33.5v72z" />
    <glyph glyph-name="Agrave" unicode="&#xc0;" horiz-adv-x="674" 
d="M322 962l60 -168h-84l-94 168h118zM661 0h-109l-75 192h-281l-75 -192h-109l299 739h54zM443 286l-106 279l-107 -279h213z" />
    <glyph glyph-name="Aacute" unicode="&#xc1;" horiz-adv-x="674" 
d="M364 961h118l-93 -168h-84zM661 0h-109l-75 192h-281l-75 -192h-109l299 739h54zM443 286l-106 279l-107 -279h213z" />
    <glyph glyph-name="Acircumflex" unicode="&#xc2;" horiz-adv-x="674" 
d="M409 792l-72 91l-72 -91h-103l141 165h69l141 -165h-104zM661 0h-109l-75 192h-281l-75 -192h-109l299 739h54zM443 286l-106 279l-107 -279h213z" />
    <glyph glyph-name="Atilde" unicode="&#xc3;" horiz-adv-x="674" 
d="M266 847q-37 0 -60 -47l-62 29q13 45 44.5 70.5t73.5 25.5q33 0 76 -22q44 -22 64 -22q37 0 58 45l60 -28q-12 -45 -43 -70.5t-73 -25.5q-32 0 -75 22q-44 23 -63 23zM661 0h-109l-75 192h-281l-75 -192h-109l299 739h54zM443 286l-106 279l-107 -279h213z" />
    <glyph glyph-name="Adieresis" unicode="&#xc4;" horiz-adv-x="674" 
d="M248 806q-27 0 -45.5 18t-18.5 45q0 25 18.5 42.5t45.5 17.5q25 0 42.5 -17.5t17.5 -42.5q0 -27 -17.5 -45t-42.5 -18zM427 806q-27 0 -45 18t-18 45q0 25 18.5 42.5t44.5 17.5t43.5 -17.5t17.5 -42.5q0 -27 -17.5 -45t-43.5 -18zM661 0h-109l-75 192h-281l-75 -192h-109
l299 739h54zM443 286l-106 279l-107 -279h213z" />
    <glyph glyph-name="Aring" unicode="&#xc5;" horiz-adv-x="674" 
d="M341 781q-50 0 -84 32.5t-34 80.5q0 47 34 80t84 33q49 0 82 -33q34 -33 34 -80q0 -48 -33.5 -80.5t-82.5 -32.5zM341 948q-23 0 -39 -15t-16 -37q0 -24 16 -40t39 -16q22 0 37.5 16t15.5 40q0 21 -16 36.5t-37 15.5zM661 0h-109l-75 192h-281l-75 -192h-109l299 739h54z
M443 286l-106 279l-107 -279h213z" />
    <glyph glyph-name="AE" unicode="&#xc6;" horiz-adv-x="1015" 
d="M959 739v-95h-369v-221h339v-95h-339v-233h369v-95h-469v218h-259l-133 -218h-113l463 739h511zM490 644l-202 -332h202v332z" />
    <glyph glyph-name="Ccedilla" unicode="&#xc7;" horiz-adv-x="776" 
d="M678 210l72 -61q-49 -68 -127.5 -110.5t-170.5 -48.5l-15 -38h8q44 0 73.5 -25t29.5 -67q0 -47 -34.5 -79t-95.5 -32q-51 0 -114 29l25 63q43 -21 81 -21q27 0 42.5 12.5t15.5 31.5q0 36 -52 36h-56l-9 22l28 70q-145 17 -238 119q-95 104 -95 256q0 168 112 276
q112 109 271 109q101 0 186 -45q85 -43 133 -117l-74 -62q-94 127 -243 127q-118 0 -200 -82t-82 -207q0 -122 80 -202q80 -79 201 -79q74 0 138 33t110 92z" />
    <glyph glyph-name="Egrave" unicode="&#xc8;" horiz-adv-x="609" 
d="M318 962l60 -168h-84l-94 168h118zM553 0h-460v739h460v-95h-360v-221h333v-95h-333v-233h360v-95z" />
    <glyph glyph-name="Eacute" unicode="&#xc9;" horiz-adv-x="609" 
d="M358 793h-84l59 168h118zM553 0h-460v739h460v-95h-360v-221h333v-95h-333v-233h360v-95z" />
    <glyph glyph-name="Ecircumflex" unicode="&#xca;" horiz-adv-x="609" 
d="M252 792h-103l141 165h69l141 -165h-104l-72 91zM553 0h-460v739h460v-95h-360v-221h333v-95h-333v-233h360v-95z" />
    <glyph glyph-name="Edieresis" unicode="&#xcb;" horiz-adv-x="609" 
d="M237 806q-27 0 -45.5 18t-18.5 45q0 25 18.5 42.5t45.5 17.5q25 0 42.5 -17.5t17.5 -42.5q0 -27 -17.5 -45t-42.5 -18zM416 806q-27 0 -45 18t-18 45q0 25 18.5 42.5t44.5 17.5t43.5 -17.5t17.5 -42.5q0 -27 -17.5 -45t-43.5 -18zM553 0h-460v739h460v-95h-360v-221h333
v-95h-333v-233h360v-95z" />
    <glyph glyph-name="Igrave" unicode="&#xcc;" horiz-adv-x="286" 
d="M129 962l60 -168h-84l-94 168h118zM96 0v739h100v-739h-100z" />
    <glyph glyph-name="Iacute" unicode="&#xcd;" horiz-adv-x="283" 
d="M182 794h-84l59 168h118zM93 0v739h100v-739h-100z" />
    <glyph glyph-name="Icircumflex" unicode="&#xce;" horiz-adv-x="286" 
d="M74 794h-103l141 165h69l141 -165h-104l-72 91zM96 0v739h100v-739h-100z" />
    <glyph glyph-name="Idieresis" unicode="&#xcf;" horiz-adv-x="286" 
d="M53 801q-29 0 -48 18.5t-19 47.5q0 26 19.5 44.5t47.5 18.5q26 0 44.5 -18.5t18.5 -44.5q0 -29 -18 -47.5t-45 -18.5zM240 801q-28 0 -46.5 18.5t-18.5 47.5q0 26 18.5 44.5t46.5 18.5q27 0 46 -18.5t19 -44.5q0 -29 -19 -47.5t-46 -18.5zM96 0v739h100v-739h-100z" />
    <glyph glyph-name="Eth" unicode="&#xd0;" horiz-adv-x="777" 
d="M112 739h275q157 0 248 -100q92 -101 92 -271q0 -171 -94 -269q-93 -99 -256 -99h-265v327h-100v86h100v326zM212 95h169q113 0 178 77q64 77 64 199q0 120 -64 196q-65 77 -178 77h-169v-231h213v-86h-213v-232z" />
    <glyph glyph-name="Ntilde" unicode="&#xd1;" horiz-adv-x="780" 
d="M267 800l-62 29q13 45 44.5 70.5t73.5 25.5q33 0 76 -22q44 -22 64 -22q37 0 58 45l60 -28q-12 -45 -43 -70.5t-73 -25.5q-32 0 -75 22q-44 23 -63 23q-37 0 -60 -47zM588 212v527h99v-739h-52l-443 524v-524h-99v739h45z" />
    <glyph glyph-name="Ograve" unicode="&#xd2;" horiz-adv-x="855" 
d="M425 962l60 -168h-84l-94 168h118zM45 365q0 162 112 274q113 113 270 113t270 -113t113 -270t-113 -270q-113 -111 -273 -111q-161 0 -270 109t-109 268zM706 368q0 122 -81 204t-198 82q-116 0 -197 -83t-81 -203q0 -119 80 -202q79 -81 198 -81t198 81q81 81 81 202z
" />
    <glyph glyph-name="Oacute" unicode="&#xd3;" horiz-adv-x="855" 
d="M466 793h-84l59 168h118zM45 365q0 162 112 274q113 113 270 113t270 -113t113 -270t-113 -270q-113 -111 -273 -111q-161 0 -270 109t-109 268zM706 368q0 122 -81 204t-198 82q-116 0 -197 -83t-81 -203q0 -119 80 -202q79 -81 198 -81t198 81q81 81 81 202z" />
    <glyph glyph-name="Ocircumflex" unicode="&#xd4;" horiz-adv-x="855" 
d="M355 792h-103l141 165h69l141 -165h-104l-72 91zM45 365q0 162 112 274q113 113 270 113t270 -113t113 -270t-113 -270q-113 -111 -273 -111q-161 0 -270 109t-109 268zM706 368q0 122 -81 204t-198 82q-116 0 -197 -83t-81 -203q0 -119 80 -202q79 -81 198 -81t198 81
q81 81 81 202z" />
    <glyph glyph-name="Otilde" unicode="&#xd5;" horiz-adv-x="855" 
d="M306 800l-62 29q13 45 44.5 70.5t73.5 25.5q33 0 76 -22q44 -22 64 -22q37 0 58 45l60 -28q-12 -45 -43 -70.5t-73 -25.5q-32 0 -75 22q-44 23 -63 23q-37 0 -60 -47zM45 365q0 162 112 274q113 113 270 113t270 -113t113 -270t-113 -270q-113 -111 -273 -111
q-161 0 -270 109t-109 268zM706 368q0 122 -81 204t-198 82q-116 0 -197 -83t-81 -203q0 -119 80 -202q79 -81 198 -81t198 81q81 81 81 202z" />
    <glyph glyph-name="Odieresis" unicode="&#xd6;" horiz-adv-x="855" 
d="M345 806q-27 0 -45.5 18t-18.5 45q0 25 18.5 42.5t45.5 17.5q25 0 42.5 -17.5t17.5 -42.5q0 -27 -17.5 -45t-42.5 -18zM524 806q-27 0 -45 18t-18 45q0 25 18.5 42.5t44.5 17.5t43.5 -17.5t17.5 -42.5q0 -27 -17.5 -45t-43.5 -18zM45 365q0 162 112 274q113 113 270 113
t270 -113t113 -270t-113 -270q-113 -111 -273 -111q-161 0 -270 109t-109 268zM706 368q0 122 -81 204t-198 82q-116 0 -197 -83t-81 -203q0 -119 80 -202q79 -81 198 -81t198 81q81 81 81 202z" />
    <glyph glyph-name="multiply" unicode="&#xd7;" horiz-adv-x="519" 
d="M406 545l59 -57l-148 -149l148 -148l-57 -60l-149 150l-149 -150l-57 60l148 148l-147 147l56 59l148 -148z" />
    <glyph glyph-name="Oslash" unicode="&#xd8;" horiz-adv-x="855" 
d="M743 742l-61 -87q61 -55 94.5 -129.5t33.5 -156.5q0 -157 -113 -270q-113 -111 -273 -111q-98 0 -181 44l-56 -79l-65 45l55 78q-132 113 -132 289q0 162 112 274q113 113 270 113q101 0 190 -51l61 86zM149 368q0 -126 87 -208l325 461q-63 33 -134 33q-116 0 -197 -83
t-81 -203zM427 85q119 0 198 81q81 81 81 202q0 123 -82 205l-323 -459q56 -29 126 -29z" />
    <glyph glyph-name="Ugrave" unicode="&#xd9;" horiz-adv-x="706" 
d="M344 962l60 -168h-84l-94 168h118zM85 249v490h100v-472q0 -88 44 -135t124 -47q79 0 123 48t44 134v472h101v-490q0 -121 -74 -192q-73 -70 -194 -70t-194 70q-74 71 -74 192z" />
    <glyph glyph-name="Uacute" unicode="&#xda;" horiz-adv-x="706" 
d="M391 793h-84l59 168h118zM85 249v490h100v-472q0 -88 44 -135t124 -47q79 0 123 48t44 134v472h101v-490q0 -121 -74 -192q-73 -70 -194 -70t-194 70q-74 71 -74 192z" />
    <glyph glyph-name="Ucircumflex" unicode="&#xdb;" horiz-adv-x="706" 
d="M281 792h-103l141 165h69l141 -165h-104l-72 91zM85 249v490h100v-472q0 -88 44 -135t124 -47q79 0 123 48t44 134v472h101v-490q0 -121 -74 -192q-73 -70 -194 -70t-194 70q-74 71 -74 192z" />
    <glyph glyph-name="Udieresis" unicode="&#xdc;" horiz-adv-x="706" 
d="M265 806q-27 0 -45.5 18t-18.5 45q0 25 18.5 42.5t45.5 17.5q25 0 42.5 -17.5t17.5 -42.5q0 -27 -17.5 -45t-42.5 -18zM444 806q-27 0 -45 18t-18 45q0 25 18.5 42.5t44.5 17.5t43.5 -17.5t17.5 -42.5q0 -27 -17.5 -45t-43.5 -18zM85 249v490h100v-472q0 -88 44 -135
t124 -47q79 0 123 48t44 134v472h101v-490q0 -121 -74 -192q-73 -70 -194 -70t-194 70q-74 71 -74 192z" />
    <glyph glyph-name="Yacute" unicode="&#xdd;" horiz-adv-x="639" 
d="M354 793h-84l59 168h118zM511 739h111l-253 -473v-266h-100v266l-250 473h111l189 -374z" />
    <glyph glyph-name="Thorn" unicode="&#xde;" horiz-adv-x="622" 
d="M193 609h149q115 0 177 -68q61 -67 61 -160q0 -95 -64 -162q-64 -66 -184 -66h-139v-153h-100v739h100v-130zM193 246h141q69 0 107.5 39t38.5 98q0 56 -35.5 93.5t-97.5 37.5h-154v-268z" />
    <glyph glyph-name="germandbls" unicode="&#xdf;" horiz-adv-x="643" 
d="M474 395q58 -22 93 -73t35 -117q0 -98 -73 -161t-180 -63q-64 0 -121 23l24 85q36 -17 95 -17q71 0 115 42q43 42 43 99q0 62 -51 99t-133 37v80q66 0 108 38.5t42 96.5q0 56 -38 90.5t-98 34.5q-75 0 -119 -58.5t-44 -164.5v-643h-98v667q0 140 76 213q77 74 188 74
q102 0 166 -59q64 -58 64 -149q0 -56 -25 -102t-69 -72z" />
    <glyph glyph-name="agrave" unicode="&#xe0;" horiz-adv-x="665" 
d="M314 790l59 -167h-83l-93 167h117zM498 458v78h92v-536h-92v76q-72 -89 -189 -89q-116 0 -192 82t-76 203t76 198q76 79 192 79q114 0 189 -91zM504 269q0 81 -51 136q-51 56 -133 56t-132 -56t-50 -137t50 -137t132 -56t133 56q51 55 51 138z" />
    <glyph glyph-name="aacute" unicode="&#xe1;" horiz-adv-x="665" 
d="M346 790h117l-93 -167h-83zM498 458v78h92v-536h-92v76q-72 -89 -189 -89q-116 0 -192 82t-76 203t76 198q76 79 192 79q114 0 189 -91zM504 269q0 81 -51 136q-51 56 -133 56t-132 -56t-50 -137t50 -137t132 -56t133 56q51 55 51 138z" />
    <glyph glyph-name="acircumflex" unicode="&#xe2;" horiz-adv-x="665" 
d="M400 621l-72 90l-72 -90h-102l140 164h69l140 -164h-103zM498 458v78h92v-536h-92v76q-72 -89 -189 -89q-116 0 -192 82t-76 203t76 198q76 79 192 79q114 0 189 -91zM504 269q0 81 -51 136q-51 56 -133 56t-132 -56t-50 -137t50 -137t132 -56t133 56q51 55 51 138z" />
    <glyph glyph-name="atilde" unicode="&#xe3;" horiz-adv-x="665" 
d="M262 678q-36 0 -59 -47l-62 29q13 45 44.5 70.5t73.5 25.5q33 0 76 -22t63 -22q37 0 58 45l60 -28q-12 -45 -43 -70.5t-73 -25.5q-32 0 -75 22q-44 23 -63 23zM498 458v78h92v-536h-92v76q-72 -89 -189 -89q-116 0 -192 82t-76 203t76 198q76 79 192 79q114 0 189 -91z
M504 269q0 81 -51 136q-51 56 -133 56t-132 -56t-50 -137t50 -137t132 -56t133 56q51 55 51 138z" />
    <glyph glyph-name="adieresis" unicode="&#xe4;" horiz-adv-x="665" 
d="M232 618q-30 0 -50 19.5t-20 50.5q0 28 20 47t50 19q28 0 47.5 -19t19.5 -47q0 -30 -19.5 -50t-47.5 -20zM430 618q-30 0 -49.5 20t-19.5 50q0 28 20 47t49 19t48.5 -19t19.5 -47q0 -30 -19.5 -50t-48.5 -20zM498 458v78h92v-536h-92v76q-72 -89 -189 -89q-116 0 -192 82
t-76 203t76 198q76 79 192 79q114 0 189 -91zM504 269q0 81 -51 136q-51 56 -133 56t-132 -56t-50 -137t50 -137t132 -56t133 56q51 55 51 138z" />
    <glyph glyph-name="aring" unicode="&#xe5;" horiz-adv-x="665" 
d="M412 634q-34 -32 -82 -32t-83 32q-34 33 -34 80t34 80q35 33 83 33q49 0 82 -33q34 -33 34 -80t-34 -80zM330 768q-23 0 -39 -15t-16 -37q0 -24 16 -39.5t39 -15.5q22 0 37.5 15.5t15.5 39.5q0 21 -16 36.5t-37 15.5zM498 458v78h92v-536h-92v76q-72 -89 -189 -89
q-116 0 -192 82t-76 203t76 198q76 79 192 79q114 0 189 -91zM504 269q0 81 -51 136q-51 56 -133 56t-132 -56t-50 -137t50 -137t132 -56t133 56q51 55 51 138z" />
    <glyph glyph-name="ae" unicode="&#xe6;" horiz-adv-x="995" 
d="M957 288q0 -13 -3 -49h-426q10 -73 58 -118.5t124 -45.5q45 0 95.5 17t86.5 44l43 -75q-40 -32 -102.5 -52.5t-126.5 -20.5q-162 0 -235 126q-36 -62 -97.5 -94.5t-135.5 -32.5q-94 0 -150.5 48t-56.5 126q0 47 24 81.5t64 49.5q69 26 144 26h163q-21 143 -161 143
q-106 0 -167 -50l-44 74q38 28 99 46q60 18 114 18q68 0 124.5 -28.5t88.5 -81.5q77 110 224 110q110 0 181 -69q72 -68 72 -192zM703 463q-68 0 -114 -39t-59 -106h331q-5 68 -49 106.5t-109 38.5zM243 75q75 0 124 46q51 47 60 118h-164q-138 0 -138 -81q0 -38 33 -60.5
t85 -22.5z" />
    <glyph glyph-name="ccedilla" unicode="&#xe7;" horiz-adv-x="599" 
d="M324 76q50 0 96.5 27t69.5 69l80 -46q-31 -57 -91.5 -94.5t-132.5 -42.5l-15 -37h8q44 0 73.5 -25t29.5 -67q0 -47 -34.5 -79t-95.5 -32q-51 0 -114 29l25 63q43 -21 81 -21q27 0 42.5 12.5t15.5 31.5q0 36 -52 36h-56l-9 22l28 70q-105 16 -169 91q-63 76 -63 185
q0 122 80 202q80 79 208 79q79 0 145.5 -38t97.5 -102l-79 -46q-27 46 -70.5 72t-93.5 26q-82 0 -137 -55q-54 -56 -54 -138q0 -81 53 -137q52 -55 133 -55z" />
    <glyph glyph-name="egrave" unicode="&#xe8;" 
d="M299 788l59 -167h-83l-93 167h117zM572 278q0 -10 -3 -49h-427q13 -71 60 -112t128 -41q48 0 99 16.5t88 43.5l41 -73q-42 -32 -104 -53.5t-126 -21.5q-73 0 -129.5 24t-89.5 65t-50 90t-17 103q0 120 75 200q76 79 196 79q114 0 186 -73q73 -73 73 -198zM142 312h331
q-4 69 -48.5 110.5t-111.5 41.5q-65 0 -112 -42.5t-59 -109.5z" />
    <glyph glyph-name="eacute" unicode="&#xe9;" 
d="M330 790h117l-93 -167h-83zM572 278q0 -10 -3 -49h-427q13 -71 60 -112t128 -41q48 0 99 16.5t88 43.5l41 -73q-42 -32 -104 -53.5t-126 -21.5q-73 0 -129.5 24t-89.5 65t-50 90t-17 103q0 120 75 200q76 79 196 79q114 0 186 -73q73 -73 73 -198zM142 312h331
q-4 69 -48.5 110.5t-111.5 41.5q-65 0 -112 -42.5t-59 -109.5z" />
    <glyph glyph-name="ecircumflex" unicode="&#xea;" 
d="M388 623l-72 90l-72 -90h-102l140 164h69l140 -164h-103zM572 278q0 -10 -3 -49h-427q13 -71 60 -112t128 -41q48 0 99 16.5t88 43.5l41 -73q-42 -32 -104 -53.5t-126 -21.5q-73 0 -129.5 24t-89.5 65t-50 90t-17 103q0 120 75 200q76 79 196 79q114 0 186 -73
q73 -73 73 -198zM142 312h331q-4 69 -48.5 110.5t-111.5 41.5q-65 0 -112 -42.5t-59 -109.5z" />
    <glyph glyph-name="edieresis" unicode="&#xeb;" 
d="M227 613q-30 0 -50 19.5t-20 50.5q0 28 20 47t50 19q28 0 47.5 -19t19.5 -47q0 -30 -19.5 -50t-47.5 -20zM356 683q0 28 20 47t49 19t48.5 -19t19.5 -47q0 -30 -19.5 -50t-48.5 -20t-49 19.5t-20 50.5zM572 278q0 -10 -3 -49h-427q13 -71 60 -112t128 -41q48 0 99 16.5
t88 43.5l41 -73q-42 -32 -104 -53.5t-126 -21.5q-73 0 -129.5 24t-89.5 65t-50 90t-17 103q0 120 75 200q76 79 196 79q114 0 186 -73q73 -73 73 -198zM142 312h331q-4 69 -48.5 110.5t-111.5 41.5q-65 0 -112 -42.5t-59 -109.5z" />
    <glyph glyph-name="igrave" unicode="&#xec;" horiz-adv-x="245" 
d="M108 788l59 -167h-83l-93 167h117zM170 536v-536h-96v536h96z" />
    <glyph glyph-name="iacute" unicode="&#xed;" horiz-adv-x="244" 
d="M163 623h-83l59 167h117zM170 536v-536h-96v536h96z" />
    <glyph glyph-name="icircumflex" unicode="&#xee;" horiz-adv-x="245" 
d="M49 619h-102l140 164h69l140 -164h-103l-72 90zM170 536v-536h-96v536h96z" />
    <glyph glyph-name="idieresis" unicode="&#xef;" horiz-adv-x="245" 
d="M24 616q-30 0 -50 19.5t-20 50.5q0 28 20 47t50 19q28 0 47.5 -19t19.5 -47q0 -30 -19.5 -50t-47.5 -20zM222 616q-30 0 -49.5 20t-19.5 50q0 28 20 47t49 19t48.5 -19t19.5 -47q0 -30 -19.5 -50t-48.5 -20zM170 536v-536h-96v536h96z" />
    <glyph glyph-name="eth" unicode="&#xf0;" horiz-adv-x="656" 
d="M575 750l-91 -61q125 -161 125 -341q0 -155 -85 -258t-216 -103q-114 0 -191 74q-75 75 -75 187q0 111 74 187q74 75 184 75q71 0 129 -35.5t85 -93.5q-4 112 -83 227q-13 18 -23 30l-101 -68l-41 56l96 64q-50 52 -107 94l66 64q66 -51 118 -106l97 65zM310 73
q75 0 124 52q51 53 51 128q0 73 -51 123q-50 50 -122 50q-76 0 -125 -51q-49 -50 -49 -126q0 -73 48 -125q50 -51 124 -51z" />
    <glyph glyph-name="ntilde" unicode="&#xf1;" horiz-adv-x="618" 
d="M188 626l-62 29q13 45 44.5 70.5t73.5 25.5q33 0 76 -22t63 -22q37 0 58 45l60 -28q-12 -45 -43 -70.5t-73 -25.5q-32 0 -75 22q-44 23 -63 23q-36 0 -59 -47zM170 0h-96v536h94v-76q51 90 170 90q90 0 151 -58t61 -167v-325h-95v298q0 77 -37.5 120t-99.5 43
q-65 0 -107 -46q-41 -47 -41 -118v-297z" />
    <glyph glyph-name="ograve" unicode="&#xf2;" horiz-adv-x="645" 
d="M309 788l59 -167h-83l-93 167h117zM323 -13q-123 0 -203 81q-79 82 -79 201t79 199q79 82 203 82q122 0 201 -82q80 -83 80 -199q0 -118 -80 -201q-80 -81 -201 -81zM508 269q0 79 -54 135q-54 57 -131 57t-131 -57q-54 -56 -54 -135q0 -80 54 -137t131 -57t131 57
t54 137z" />
    <glyph glyph-name="oacute" unicode="&#xf3;" horiz-adv-x="645" 
d="M355 623h-83l59 167h117zM323 -13q-123 0 -203 81q-79 82 -79 201t79 199q79 82 203 82q122 0 201 -82q80 -83 80 -199q0 -118 -80 -201q-80 -81 -201 -81zM508 269q0 79 -54 135q-54 57 -131 57t-131 -57q-54 -56 -54 -135q0 -80 54 -137t131 -57t131 57t54 137z" />
    <glyph glyph-name="ocircumflex" unicode="&#xf4;" horiz-adv-x="645" 
d="M252 625h-102l140 164h69l140 -164h-103l-72 90zM323 -13q-123 0 -203 81q-79 82 -79 201t79 199q79 82 203 82q122 0 201 -82q80 -83 80 -199q0 -118 -80 -201q-80 -81 -201 -81zM508 269q0 79 -54 135q-54 57 -131 57t-131 -57q-54 -56 -54 -135q0 -80 54 -137t131 -57
t131 57t54 137z" />
    <glyph glyph-name="otilde" unicode="&#xf5;" horiz-adv-x="645" 
d="M198 629l-62 29q13 45 44.5 70.5t73.5 25.5q33 0 76 -22t63 -22q37 0 58 45l60 -28q-12 -45 -43 -70.5t-73 -25.5q-32 0 -75 22q-44 23 -63 23q-36 0 -59 -47zM323 -13q-123 0 -203 81q-79 82 -79 201t79 199q79 82 203 82q122 0 201 -82q80 -83 80 -199q0 -118 -80 -201
q-80 -81 -201 -81zM508 269q0 79 -54 135q-54 57 -131 57t-131 -57q-54 -56 -54 -135q0 -80 54 -137t131 -57t131 57t54 137z" />
    <glyph glyph-name="odieresis" unicode="&#xf6;" horiz-adv-x="645" 
d="M226 616q-30 0 -50 19.5t-20 50.5q0 28 20 47t50 19q28 0 47.5 -19t19.5 -47q0 -30 -19.5 -50t-47.5 -20zM424 616q-30 0 -49.5 20t-19.5 50q0 28 20 47t49 19t48.5 -19t19.5 -47q0 -30 -19.5 -50t-48.5 -20zM323 -13q-123 0 -203 81q-79 82 -79 201t79 199q79 82 203 82
q122 0 201 -82q80 -83 80 -199q0 -118 -80 -201q-80 -81 -201 -81zM508 269q0 79 -54 135q-54 57 -131 57t-131 -57q-54 -56 -54 -135q0 -80 54 -137t131 -57t131 57t54 137z" />
    <glyph glyph-name="divide" unicode="&#xf7;" horiz-adv-x="550" 
d="M211 504q0 26 18 43.5t45 17.5t45.5 -17.5t18.5 -43.5q0 -28 -18.5 -46.5t-45.5 -18.5t-45 18.5t-18 46.5zM499 286h-447v86h447v-86zM211 157q0 26 18 43.5t45 17.5t45.5 -17.5t18.5 -43.5q0 -28 -18.5 -46.5t-45.5 -18.5t-45 18.5t-18 46.5z" />
    <glyph glyph-name="oslash" unicode="&#xf8;" horiz-adv-x="645" 
d="M562 556l-52 -75q94 -81 94 -212q0 -118 -80 -201q-80 -81 -201 -81q-74 0 -133 31l-54 -78l-54 37l53 77q-94 82 -94 215q0 119 79 199q79 82 203 82q74 0 133 -31l50 73zM138 269q0 -79 52 -135l213 308q-37 19 -80 19q-77 0 -131 -57q-54 -56 -54 -135zM323 75
q77 0 131 57t54 137q0 78 -52 134l-213 -309q37 -19 80 -19z" />
    <glyph glyph-name="ugrave" unicode="&#xf9;" horiz-adv-x="595" 
d="M291 790l59 -167h-83l-93 167h117zM297 -13q-105 0 -167.5 62t-62.5 167v320h96v-317q0 -66 35.5 -104.5t98.5 -38.5t99 38.5t36 104.5v317h95v-320q0 -107 -61.5 -168t-168.5 -61z" />
    <glyph glyph-name="uacute" unicode="&#xfa;" horiz-adv-x="595" 
d="M335 623h-83l59 167h117zM297 -13q-105 0 -167.5 62t-62.5 167v320h96v-317q0 -66 35.5 -104.5t98.5 -38.5t99 38.5t36 104.5v317h95v-320q0 -107 -61.5 -168t-168.5 -61z" />
    <glyph glyph-name="ucircumflex" unicode="&#xfb;" horiz-adv-x="595" 
d="M226 620h-102l140 164h69l140 -164h-103l-72 90zM297 -13q-105 0 -167.5 62t-62.5 167v320h96v-317q0 -66 35.5 -104.5t98.5 -38.5t99 38.5t36 104.5v317h95v-320q0 -107 -61.5 -168t-168.5 -61z" />
    <glyph glyph-name="udieresis" unicode="&#xfc;" horiz-adv-x="595" 
d="M199 616q-30 0 -50 19.5t-20 50.5q0 28 20 47t50 19q28 0 47.5 -19t19.5 -47q0 -30 -19.5 -50t-47.5 -20zM328 686q0 28 20 47t49 19t48.5 -19t19.5 -47q0 -30 -19.5 -50t-48.5 -20t-49 20t-20 50zM297 -13q-105 0 -167.5 62t-62.5 167v320h96v-317q0 -66 35.5 -104.5
t98.5 -38.5t99 38.5t36 104.5v317h95v-320q0 -107 -61.5 -168t-168.5 -61z" />
    <glyph glyph-name="yacute" unicode="&#xfd;" horiz-adv-x="555" 
d="M291 788h117l-93 -167h-83zM290 134l144 402h106l-225 -596q-33 -89 -77.5 -128.5t-108.5 -39.5q-51 0 -86 21l12 84q36 -16 65 -16q66 0 106 94l20 47l-233 534h111z" />
    <glyph glyph-name="thorn" unicode="&#xfe;" horiz-adv-x="668" 
d="M355 549q119 0 195 -82q77 -82 77 -198q0 -118 -77 -201q-76 -81 -195 -81q-110 0 -185 89v-297h-96v978h96v-298q76 90 185 90zM348 75q81 0 132 56q51 55 51 138q0 81 -51 136q-51 56 -132 56q-82 0 -133 -56q-51 -55 -51 -136q0 -82 50 -138q51 -56 134 -56z" />
    <glyph glyph-name="ydieresis" unicode="&#xff;" horiz-adv-x="555" 
d="M184 616q-30 0 -50 19.5t-20 50.5q0 28 20 47t50 19q28 0 47.5 -19t19.5 -47q0 -30 -19.5 -50t-47.5 -20zM382 616q-30 0 -49.5 20t-19.5 50q0 28 20 47t49 19t48.5 -19t19.5 -47q0 -30 -19.5 -50t-48.5 -20zM290 134l144 402h106l-225 -596q-33 -89 -77.5 -128.5
t-108.5 -39.5q-51 0 -86 21l12 84q36 -16 65 -16q66 0 106 94l20 47l-233 534h111z" />
    <glyph glyph-name="Amacron" unicode="&#x100;" horiz-adv-x="674" 
d="M168 897h339v-85l-339 -1v86zM661 0h-109l-75 192h-281l-75 -192h-109l299 739h54zM443 286l-106 279l-107 -279h213z" />
    <glyph glyph-name="amacron" unicode="&#x101;" horiz-adv-x="665" 
d="M175 723h307v-85l-307 -1v86zM498 458v78h92v-536h-92v76q-72 -89 -189 -89q-116 0 -192 82t-76 203t76 198q76 79 192 79q114 0 189 -91zM504 269q0 81 -51 136q-51 56 -133 56t-132 -56t-50 -137t50 -137t132 -56t133 56q51 55 51 138z" />
    <glyph glyph-name="Abreve" unicode="&#x102;" horiz-adv-x="674" 
d="M338 785q-78 0 -125.5 47t-49.5 127h83q1 -47 25.5 -73.5t66.5 -26.5t67 26.5t26 73.5h83q-1 -80 -49 -127t-127 -47zM661 0h-109l-75 192h-281l-75 -192h-109l299 739h54zM443 286l-106 279l-107 -279h213z" />
    <glyph glyph-name="abreve" unicode="&#x103;" horiz-adv-x="665" 
d="M155 790h82q1 -47 25.5 -73t66.5 -26t66.5 26t25.5 73h83q-2 -80 -50 -126q-49 -47 -125 -47q-77 0 -124.5 47t-49.5 126zM498 458v78h92v-536h-92v76q-72 -89 -189 -89q-116 0 -192 82t-76 203t76 198q76 79 192 79q114 0 189 -91zM504 269q0 81 -51 136q-51 56 -133 56
t-132 -56t-50 -137t50 -137t132 -56t133 56q51 55 51 138z" />
    <glyph glyph-name="Aogonek" unicode="&#x104;" horiz-adv-x="672" 
d="M639 -163l37 -68q-46 -29 -95 -29q-53 0 -85 31t-32 79q0 87 106 150h-18l-75 192h-281l-75 -192h-109l299 739h54l296 -739q-49 -21 -80 -56.5t-31 -69.5q0 -22 13 -35.5t35 -13.5q20 0 41 12zM443 286l-106 279l-107 -279h213z" />
    <glyph glyph-name="aogonek" unicode="&#x105;" horiz-adv-x="662" 
d="M569 -163l37 -68q-46 -29 -95 -29q-53 0 -85 31t-32 79q0 87 106 150h-2v76q-72 -89 -189 -89q-116 0 -192 82t-76 203t76 198q76 79 192 79q114 0 189 -91v78h92v-536h1q-49 -21 -80 -56.5t-31 -69.5q0 -22 13 -35.5t35 -13.5q20 0 41 12zM504 269q0 81 -51 136
q-51 56 -133 56t-132 -56t-50 -137t50 -137t132 -56t133 56q51 55 51 138z" />
    <glyph glyph-name="Cacute" unicode="&#x106;" horiz-adv-x="776" 
d="M478 793h-84l59 168h118zM426 -11q-160 0 -270 106q-110 107 -110 272q0 168 112 276q112 109 271 109q101 0 186 -45q85 -43 133 -117l-74 -62q-94 127 -243 127q-118 0 -200 -82t-82 -207q0 -122 80 -202q80 -79 201 -79q74 0 138 33t110 92l72 -61
q-53 -74 -138.5 -117t-185.5 -43z" />
    <glyph glyph-name="cacute" unicode="&#x107;" horiz-adv-x="599" 
d="M365 623h-83l59 167h117zM324 -12q-125 0 -204 79t-79 201t80 202q80 79 208 79q79 0 145.5 -38t97.5 -102l-79 -46q-27 46 -70.5 72t-93.5 26q-82 0 -137 -55q-54 -56 -54 -138q0 -81 53 -137q52 -55 133 -55q50 0 96.5 27t69.5 69l80 -46q-34 -63 -100 -100
q-68 -38 -146 -38z" />
    <glyph glyph-name="Ccircumflex" unicode="&#x108;" horiz-adv-x="776" 
d="M350 792h-103l141 165h69l141 -165h-104l-72 91zM426 -11q-160 0 -270 106q-110 107 -110 272q0 168 112 276q112 109 271 109q101 0 186 -45q85 -43 133 -117l-74 -62q-94 127 -243 127q-118 0 -200 -82t-82 -207q0 -122 80 -202q80 -79 201 -79q74 0 138 33t110 92
l72 -61q-53 -74 -138.5 -117t-185.5 -43z" />
    <glyph glyph-name="ccircumflex" unicode="&#x109;" horiz-adv-x="599" 
d="M252 622h-102l140 164h69l140 -164h-103l-72 90zM324 -12q-125 0 -204 79t-79 201t80 202q80 79 208 79q79 0 145.5 -38t97.5 -102l-79 -46q-27 46 -70.5 72t-93.5 26q-82 0 -137 -55q-54 -56 -54 -138q0 -81 53 -137q52 -55 133 -55q50 0 96.5 27t69.5 69l80 -46
q-34 -63 -100 -100q-68 -38 -146 -38z" />
    <glyph glyph-name="Cdotaccent" unicode="&#x10a;" horiz-adv-x="776" 
d="M425 799q-30 0 -50 19.5t-20 49.5q0 29 20 48t50 19q28 0 48 -19.5t20 -47.5q0 -30 -20 -49.5t-48 -19.5zM426 -11q-160 0 -270 106q-110 107 -110 272q0 168 112 276q112 109 271 109q101 0 186 -45q85 -43 133 -117l-74 -62q-94 127 -243 127q-118 0 -200 -82t-82 -207
q0 -122 80 -202q80 -79 201 -79q74 0 138 33t110 92l72 -61q-53 -74 -138.5 -117t-185.5 -43z" />
    <glyph glyph-name="cdotaccent" unicode="&#x10b;" horiz-adv-x="599" 
d="M326 613q-30 0 -50 19.5t-20 49.5q0 29 20 48t50 19q28 0 48 -19.5t20 -47.5q0 -30 -20 -49.5t-48 -19.5zM324 -12q-125 0 -204 79t-79 201t80 202q80 79 208 79q79 0 145.5 -38t97.5 -102l-79 -46q-27 46 -70.5 72t-93.5 26q-82 0 -137 -55q-54 -56 -54 -138
q0 -81 53 -137q52 -55 133 -55q50 0 96.5 27t69.5 69l80 -46q-34 -63 -100 -100q-68 -38 -146 -38z" />
    <glyph glyph-name="Ccaron" unicode="&#x10c;" horiz-adv-x="776" 
d="M389 794l-140 164h102l72 -90l72 90h103l-140 -164h-69zM426 -11q-160 0 -270 106q-110 107 -110 272q0 168 112 276q112 109 271 109q101 0 186 -45q85 -43 133 -117l-74 -62q-94 127 -243 127q-118 0 -200 -82t-82 -207q0 -122 80 -202q80 -79 201 -79q74 0 138 33
t110 92l72 -61q-53 -74 -138.5 -117t-185.5 -43z" />
    <glyph glyph-name="ccaron" unicode="&#x10d;" horiz-adv-x="599" 
d="M290 624l-140 164h102l72 -90l72 90h103l-140 -164h-69zM324 -12q-125 0 -204 79t-79 201t80 202q80 79 208 79q79 0 145.5 -38t97.5 -102l-79 -46q-27 46 -70.5 72t-93.5 26q-82 0 -137 -55q-54 -56 -54 -138q0 -81 53 -137q52 -55 133 -55q50 0 96.5 27t69.5 69l80 -46
q-34 -63 -100 -100q-68 -38 -146 -38z" />
    <glyph glyph-name="Dcaron" unicode="&#x10e;" horiz-adv-x="758" 
d="M312 794l-140 164h102l72 -90l72 90h103l-140 -164h-69zM358 0h-265v739h275q157 0 248 -100q92 -101 92 -271q0 -171 -94 -269q-93 -99 -256 -99zM193 644v-549h169q113 0 178 77q64 77 64 199q0 120 -64 196q-65 77 -178 77h-169z" />
    <glyph glyph-name="dcaron" unicode="&#x10f;" horiz-adv-x="700" 
d="M634 623l56 167h106l-82 -167h-80zM497 458v299h96v-757h-96v75q-70 -88 -186 -88q-118 0 -194 81q-76 82 -76 201q0 118 76 198q76 82 192 82q115 0 188 -91zM504 269q0 81 -51 136q-50 56 -132 56t-133 -56q-50 -56 -50 -136q0 -82 50 -138q51 -56 133 -56t132 56
q51 55 51 138z" />
    <glyph glyph-name="Dcroat" unicode="&#x110;" horiz-adv-x="777" 
d="M112 739h275q157 0 248 -100q92 -101 92 -271q0 -171 -94 -269q-93 -99 -256 -99h-265v327h-100v86h100v326zM212 95h169q113 0 178 77q64 77 64 199q0 120 -64 196q-65 77 -178 77h-169v-231h213v-86h-213v-232z" />
    <glyph glyph-name="dslash" unicode="&#x111;" horiz-adv-x="670" 
d="M593 664h82v-69h-82v-595h-96v75q-70 -88 -186 -88q-118 0 -194 81q-76 82 -76 201q0 118 76 198q76 82 192 82q115 0 188 -91v137h-160v69h160v93h96v-93zM504 269q0 81 -51 136q-50 56 -132 56t-133 -56q-50 -56 -50 -136q0 -82 50 -138q51 -56 133 -56t132 56
q51 55 51 138z" />
    <glyph glyph-name="Emacron" unicode="&#x112;" horiz-adv-x="609" 
d="M497 812l-339 -1v86h339v-85zM553 0h-460v739h460v-95h-360v-221h333v-95h-333v-233h360v-95z" />
    <glyph glyph-name="emacron" unicode="&#x113;" 
d="M159 722h307v-85l-307 -1v86zM572 278q0 -10 -3 -49h-427q13 -71 60 -112t128 -41q48 0 99 16.5t88 43.5l41 -73q-42 -32 -104 -53.5t-126 -21.5q-73 0 -129.5 24t-89.5 65t-50 90t-17 103q0 120 75 200q76 79 196 79q114 0 186 -73q73 -73 73 -198zM142 312h331
q-4 69 -48.5 110.5t-111.5 41.5q-65 0 -112 -42.5t-59 -109.5z" />
    <glyph glyph-name="Ebreve" unicode="&#x114;" horiz-adv-x="609" 
d="M329 785q-78 0 -125.5 47t-49.5 127h83q1 -47 25.5 -73.5t66.5 -26.5t67 26.5t26 73.5h83q-1 -80 -49 -127t-127 -47zM553 0h-460v739h460v-95h-360v-221h333v-95h-333v-233h360v-95z" />
    <glyph glyph-name="ebreve" unicode="&#x115;" 
d="M144 788h82q1 -47 25.5 -73t66.5 -26t66.5 26t25.5 73h83q-2 -80 -50 -126q-49 -47 -125 -47q-77 0 -124.5 47t-49.5 126zM572 278q0 -10 -3 -49h-427q13 -71 60 -112t128 -41q48 0 99 16.5t88 43.5l41 -73q-42 -32 -104 -53.5t-126 -21.5q-73 0 -129.5 24t-89.5 65
t-50 90t-17 103q0 120 75 200q76 79 196 79q114 0 186 -73q73 -73 73 -198zM142 312h331q-4 69 -48.5 110.5t-111.5 41.5q-65 0 -112 -42.5t-59 -109.5z" />
    <glyph glyph-name="Edotaccent" unicode="&#x116;" horiz-adv-x="609" 
d="M327 799q-30 0 -50 19.5t-20 49.5q0 29 20 48t50 19q28 0 48 -19.5t20 -47.5q0 -30 -20 -49.5t-48 -19.5zM553 0h-460v739h460v-95h-360v-221h333v-95h-333v-233h360v-95z" />
    <glyph glyph-name="edotaccent" unicode="&#x117;" 
d="M319 613q-30 0 -50 19.5t-20 49.5q0 29 20 48t50 19q28 0 48 -19.5t20 -47.5q0 -30 -20 -49.5t-48 -19.5zM572 278q0 -10 -3 -49h-427q13 -71 60 -112t128 -41q48 0 99 16.5t88 43.5l41 -73q-42 -32 -104 -53.5t-126 -21.5q-73 0 -129.5 24t-89.5 65t-50 90t-17 103
q0 120 75 200q76 79 196 79q114 0 186 -73q73 -73 73 -198zM142 312h331q-4 69 -48.5 110.5t-111.5 41.5q-65 0 -112 -42.5t-59 -109.5z" />
    <glyph glyph-name="Eogonek" unicode="&#x118;" horiz-adv-x="607" 
d="M532 -163l37 -68q-46 -29 -95 -29q-53 0 -85 31t-32 79q0 87 106 150h-370v739h460v-95h-360v-221h333v-95h-333v-233h360v-95h1q-49 -21 -80 -56.5t-31 -69.5q0 -22 13 -35.5t35 -13.5q20 0 41 12z" />
    <glyph glyph-name="eogonek" unicode="&#x119;" 
d="M572 278q0 -10 -3 -49h-427q13 -71 60 -112t128 -41q48 0 99 16.5t88 43.5l41 -73q-52 -39 -118 -58q-48 -22 -79 -57t-31 -69q0 -22 13 -35.5t35 -13.5q20 0 41 12l37 -68q-46 -29 -95 -29q-53 0 -85 31t-32 79q0 77 80 133q-72 1 -128 25.5t-88.5 65t-49 89
t-16.5 102.5q0 120 75 200q76 79 196 79q114 0 186 -73q73 -73 73 -198zM142 312h331q-4 69 -48.5 110.5t-111.5 41.5q-65 0 -112 -42.5t-59 -109.5z" />
    <glyph glyph-name="Ecaron" unicode="&#x11a;" horiz-adv-x="609" 
d="M291 794l-140 164h102l72 -90l72 90h103l-140 -164h-69zM553 0h-460v739h460v-95h-360v-221h333v-95h-333v-233h360v-95z" />
    <glyph glyph-name="ecaron" unicode="&#x11b;" 
d="M491 788l-140 -164h-69l-140 164h102l72 -90l72 90h103zM572 278q0 -10 -3 -49h-427q13 -71 60 -112t128 -41q48 0 99 16.5t88 43.5l41 -73q-42 -32 -104 -53.5t-126 -21.5q-73 0 -129.5 24t-89.5 65t-50 90t-17 103q0 120 75 200q76 79 196 79q114 0 186 -73
q73 -73 73 -198zM142 312h331q-4 69 -48.5 110.5t-111.5 41.5q-65 0 -112 -42.5t-59 -109.5z" />
    <glyph glyph-name="Gcircumflex" unicode="&#x11c;" horiz-adv-x="812" 
d="M359 794h-103l141 165h69l141 -165h-104l-72 91zM424 -11q-163 0 -271 108q-107 109 -107 272q0 166 112 274q112 109 272 109q92 0 174.5 -37t133.5 -99l-71 -65q-93 104 -236 104q-119 0 -202 -81q-81 -81 -81 -206q0 -122 81 -203q82 -80 199 -80q65 0 128 28t109 76
v147h-247v92h341v-283q-135 -156 -335 -156z" />
    <glyph glyph-name="gcircumflex" unicode="&#x11d;" horiz-adv-x="667" 
d="M389 622l-72 90l-72 -90h-102l140 164h69l140 -164h-103zM498 466v70h95v-481q0 -130 -78 -206q-79 -77 -209 -77q-131 0 -237 76l45 76q88 -65 191 -65q89 0 141 51q52 49 52 129v44q-72 -84 -188 -84t-192 79q-77 80 -77 197t79 195q79 79 195 79q111 0 183 -83z
M190 139q52 -54 131 -54t131 54q52 53 52 135t-52 134q-52 54 -131 54t-131 -54q-52 -52 -52 -134t52 -135z" />
    <glyph glyph-name="Gbreve" unicode="&#x11e;" horiz-adv-x="812" 
d="M430 787q-78 0 -125.5 47t-49.5 127h83q1 -47 25.5 -73.5t66.5 -26.5t67 26.5t26 73.5h83q-1 -80 -49 -127t-127 -47zM424 -11q-163 0 -271 108q-107 109 -107 272q0 166 112 274q112 109 272 109q92 0 174.5 -37t133.5 -99l-71 -65q-93 104 -236 104q-119 0 -202 -81
q-81 -81 -81 -206q0 -122 81 -203q82 -80 199 -80q65 0 128 28t109 76v147h-247v92h341v-283q-135 -156 -335 -156z" />
    <glyph glyph-name="gbreve" unicode="&#x11f;" horiz-adv-x="667" 
d="M140 791h82q1 -47 25.5 -73t66.5 -26t66.5 26t25.5 73h83q-2 -80 -50 -126q-49 -47 -125 -47q-77 0 -124.5 47t-49.5 126zM498 466v70h95v-481q0 -130 -78 -206q-79 -77 -209 -77q-131 0 -237 76l45 76q88 -65 191 -65q89 0 141 51q52 49 52 129v44q-72 -84 -188 -84
t-192 79q-77 80 -77 197t79 195q79 79 195 79q111 0 183 -83zM190 139q52 -54 131 -54t131 54q52 53 52 135t-52 134q-52 54 -131 54t-131 -54q-52 -52 -52 -134t52 -135z" />
    <glyph glyph-name="Gdotaccent" unicode="&#x120;" horiz-adv-x="812" 
d="M433 799q-30 0 -50 19.5t-20 49.5q0 29 20 48t50 19q28 0 48 -19.5t20 -47.5q0 -30 -20 -49.5t-48 -19.5zM424 -11q-163 0 -271 108q-107 109 -107 272q0 166 112 274q112 109 272 109q92 0 174.5 -37t133.5 -99l-71 -65q-93 104 -236 104q-119 0 -202 -81
q-81 -81 -81 -206q0 -122 81 -203q82 -80 199 -80q65 0 128 28t109 76v147h-247v92h341v-283q-135 -156 -335 -156z" />
    <glyph glyph-name="gdotaccent" unicode="&#x121;" horiz-adv-x="667" 
d="M318 615q-30 0 -50 19.5t-20 49.5q0 29 20 48t50 19q28 0 48 -19.5t20 -47.5q0 -30 -20 -49.5t-48 -19.5zM498 466v70h95v-481q0 -130 -78 -206q-79 -77 -209 -77q-131 0 -237 76l45 76q88 -65 191 -65q89 0 141 51q52 49 52 129v44q-72 -84 -188 -84t-192 79
q-77 80 -77 197t79 195q79 79 195 79q111 0 183 -83zM190 139q52 -54 131 -54t131 54q52 53 52 135t-52 134q-52 54 -131 54t-131 -54q-52 -52 -52 -134t52 -135z" />
    <glyph glyph-name="Gcommaaccent" unicode="&#x122;" horiz-adv-x="812" 
d="M418 336v92h341v-283q-135 -156 -335 -156q-163 0 -271 108q-107 109 -107 272q0 166 112 274q112 109 272 109q92 0 174.5 -37t133.5 -99l-71 -65q-93 104 -236 104q-119 0 -202 -81q-81 -81 -81 -206q0 -122 81 -203q82 -80 199 -80q65 0 128 28t109 76v147h-247z
M429 -38q30 0 50 -21.5t20 -53.5q0 -85 -125 -166l-32 44q63 48 79 74h-2q-23 0 -39.5 17.5t-16.5 41.5q0 26 19 45t47 19z" />
    <glyph glyph-name="gcommaaccent" unicode="&#x123;" horiz-adv-x="667" 
d="M318 599q-29 0 -49 21.5t-20 53.5q0 86 124 165l32 -44q-63 -48 -79 -74h2q22 0 39 -17.5t17 -40.5q0 -26 -19 -45t-47 -19zM498 466v70h95v-481q0 -130 -78 -206q-79 -77 -209 -77q-131 0 -237 76l45 76q88 -65 191 -65q89 0 141 51q52 49 52 129v44q-72 -84 -188 -84
t-192 79q-77 80 -77 197t79 195q79 79 195 79q111 0 183 -83zM190 139q52 -54 131 -54t131 54q52 53 52 135t-52 134q-52 54 -131 54t-131 -54q-52 -52 -52 -134t52 -135z" />
    <glyph glyph-name="Hcircumflex" unicode="&#x124;" horiz-adv-x="758" 
d="M308 792h-103l141 165h69l141 -165h-104l-72 91zM194 0h-101v739h101v-312h371v312h100v-739h-100v331h-371v-331z" />
    <glyph glyph-name="hcircumflex" unicode="&#x125;" horiz-adv-x="617" 
d="M50 793h-103l141 165h69l141 -165h-104l-72 91zM171 0h-96v757h93v-287q25 37 70.5 58.5t99.5 21.5q89 0 150 -58t61 -167v-325h-95v298q0 77 -37 120t-99 43q-65 0 -106 -45.5t-41 -117.5v-298z" />
    <glyph glyph-name="Hbar" unicode="&#x126;" horiz-adv-x="795" 
d="M675 618h93v-82h-93v-536h-100v331h-371v-331h-101v536h-93v82h93v121h101v-121h371v121h100v-121zM204 427h371v109h-371v-109z" />
    <glyph glyph-name="hbar" unicode="&#x127;" horiz-adv-x="617" 
d="M338 550q89 0 150 -58t61 -167v-325h-95v298q0 77 -37 120t-99 43q-65 0 -106 -45.5t-41 -117.5v-298h-96v595h-65v69h65v93h93v-93h180v-69h-180v-125q25 37 70.5 58.5t99.5 21.5z" />
    <glyph glyph-name="Itilde" unicode="&#x128;" horiz-adv-x="286" 
d="M19 817l-62 29q13 45 44.5 70.5t73.5 25.5q33 0 76 -22q44 -22 64 -22q37 0 58 45l60 -28q-12 -45 -43 -70.5t-73 -25.5q-32 0 -75 22q-44 23 -63 23q-37 0 -60 -47zM96 0v739h100v-739h-100z" />
    <glyph glyph-name="itilde" unicode="&#x129;" horiz-adv-x="245" 
d="M-3 629l-62 29q13 45 44.5 70.5t73.5 25.5q33 0 76 -22t63 -22q37 0 58 45l60 -28q-12 -45 -43 -70.5t-73 -25.5q-32 0 -75 22q-44 23 -63 23q-36 0 -59 -47zM170 536v-536h-96v536h96z" />
    <glyph glyph-name="Imacron" unicode="&#x12a;" horiz-adv-x="286" 
d="M316 829l-339 -1v86h339v-85zM96 0v739h100v-739h-100z" />
    <glyph glyph-name="imacron" unicode="&#x12b;" horiz-adv-x="245" 
d="M277 637l-307 -1v86h307v-85zM170 536v-536h-96v536h96z" />
    <glyph glyph-name="Ibreve" unicode="&#x12c;" horiz-adv-x="286" 
d="M145 788q-78 0 -125.5 47t-49.5 127h83q1 -47 25.5 -73.5t66.5 -26.5t67 26.5t26 73.5h83q-1 -80 -49 -127t-127 -47zM96 0v739h100v-739h-100z" />
    <glyph glyph-name="ibreve" unicode="&#x12d;" horiz-adv-x="245" 
d="M-51 788h82q1 -47 25.5 -73t66.5 -26t66.5 26t25.5 73h83q-2 -80 -50 -126q-49 -47 -125 -47q-77 0 -124.5 47t-49.5 126zM170 536v-536h-96v536h96z" />
    <glyph glyph-name="Iogonek" unicode="&#x12e;" horiz-adv-x="286" 
d="M173 -163l37 -68q-46 -29 -95 -29q-53 0 -85 31t-32 79q0 87 106 150h-9v739h100v-739q-49 -21 -80 -56.5t-31 -69.5q0 -22 13 -35.5t35 -13.5q20 0 41 12z" />
    <glyph glyph-name="iogonek" unicode="&#x12f;" horiz-adv-x="245" 
d="M124 612q-30 0 -50 19.5t-20 49.5q0 29 20 48t50 19q28 0 48 -19.5t20 -47.5q0 -30 -20 -49.5t-48 -19.5zM108 -175q20 0 41 12l37 -68q-46 -29 -95 -29q-53 0 -85 31t-32 79q0 87 106 150h-6v536h96v-536h1q-49 -21 -80 -56.5t-31 -69.5q0 -22 13 -35.5t35 -13.5z" />
    <glyph glyph-name="Idot" unicode="&#x130;" horiz-adv-x="286" 
d="M151 797q-30 0 -50 19.5t-20 49.5q0 29 20 48t50 19q28 0 48 -19.5t20 -47.5q0 -30 -20 -49.5t-48 -19.5zM100 0v739h100v-739h-100z" />
    <glyph glyph-name="dotlessi" unicode="&#x131;" horiz-adv-x="245" 
d="M170 536v-536h-96v536h96z" />
    <glyph glyph-name="IJ" unicode="&#x132;" horiz-adv-x="840" 
d="M93 0v739h100v-739h-100zM507 -12q-129 0 -212 95l61 73q60 -73 151 -73q67 0 107 42.5t40 119.5v494h100v-499q0 -120 -69 -186q-67 -66 -178 -66z" />
    <glyph glyph-name="ij" unicode="&#x133;" horiz-adv-x="515" 
d="M124 612q-30 0 -50 19.5t-20 49.5q0 29 20 48t50 19q28 0 48 -19.5t20 -47.5q0 -30 -20 -49.5t-48 -19.5zM390 612q-30 0 -50 19.5t-20 49.5q0 29 20 48t50 19q28 0 48 -19.5t20 -47.5q0 -30 -20 -49.5t-48 -19.5zM170 536v-536h-96v536h96zM260 -229q-60 0 -95 22l19 80
q39 -14 65 -14q92 0 92 110v567h96v-561q0 -98 -47 -151t-130 -53z" />
    <glyph glyph-name="Jcircumflex" unicode="&#x134;" horiz-adv-x="558" 
d="M349 792h-103l141 165h69l141 -165h-104l-72 91zM225 -12q-129 0 -212 95l61 73q60 -73 151 -73q67 0 107 42.5t40 119.5v494h100v-499q0 -120 -69 -186q-67 -66 -178 -66z" />
    <glyph glyph-name="jcircumflex" unicode="&#x135;" horiz-adv-x="269" 
d="M73 619h-102l140 164h69l140 -164h-103l-72 90zM17 -229q-60 0 -95 22l19 80q39 -14 65 -14q92 0 92 110v567h96v-561q0 -98 -47 -151t-130 -53z" />
    <glyph glyph-name="Kcommaaccent" unicode="&#x136;" horiz-adv-x="666" 
d="M651 739l-292 -348l319 -391h-124l-260 324l-101 -119v-205h-100v739h100v-402l339 402h119zM366 -33q30 0 50 -21.5t20 -53.5q0 -85 -125 -166l-32 44q63 48 79 74h-2q-23 0 -39.5 17.5t-16.5 41.5q0 26 19 45t47 19z" />
    <glyph glyph-name="kcommaaccent" unicode="&#x137;" horiz-adv-x="545" 
d="M540 536l-251 -225l260 -311h-126l-202 250l-51 -46v-204h-96v757h96v-438l240 217h130zM286 -17q29 0 49 -21.5t20 -53.5q0 -86 -124 -165l-32 44q63 48 79 74h-2q-22 0 -39 17.5t-17 40.5q0 26 19 45t47 19z" />
    <glyph glyph-name="kgreenlandic" unicode="&#x138;" horiz-adv-x="543" 
d="M544 0h-122l-200 249l-52 -47v-202h-96v536h96v-219l240 219h129l-248 -225z" />
    <glyph glyph-name="Lacute" unicode="&#x139;" horiz-adv-x="603" 
d="M185 793h-84l59 168h118zM590 0h-497v739h100v-642h397v-97z" />
    <glyph glyph-name="lacute" unicode="&#x13a;" horiz-adv-x="243" 
d="M164 795h-84l59 168h118zM170 757v-757h-96v757h96z" />
    <glyph glyph-name="Lcommaaccent" unicode="&#x13b;" horiz-adv-x="603" 
d="M193 739v-642h397v-97h-497v739h100zM348 -34q30 0 50 -21.5t20 -53.5q0 -85 -125 -166l-32 44q63 48 79 74h-2q-23 0 -39.5 17.5t-16.5 41.5q0 26 19 45t47 19z" />
    <glyph glyph-name="lcommaaccent" unicode="&#x13c;" horiz-adv-x="245" 
d="M76 757h96v-757h-96v757zM122 -40q29 0 49 -21.5t20 -53.5q0 -86 -124 -165l-32 44q63 48 79 74h-2q-22 0 -39 17.5t-17 40.5q0 26 19 45t47 19z" />
    <glyph glyph-name="Lcaron" unicode="&#x13d;" horiz-adv-x="609" 
d="M491 621h-80l56 167h106zM590 0h-497v739h100v-642h397v-97z" />
    <glyph glyph-name="lcaron" unicode="&#x13e;" horiz-adv-x="273" 
d="M285 622h-80l56 167h106zM170 757v-757h-96v757h96z" />
    <glyph glyph-name="Ldot" unicode="&#x13f;" horiz-adv-x="606" 
d="M590 0h-497v739h100v-642h397v-97zM381 392q0 26 18.5 44t45.5 18t45.5 -18t18.5 -44q0 -28 -18.5 -46.5t-45.5 -18.5t-45.5 18.5t-18.5 46.5z" />
    <glyph glyph-name="ldot" unicode="&#x140;" horiz-adv-x="357" 
d="M170 757v-757h-96v757h96zM237 364q0 26 18.5 44t45.5 18t45.5 -18t18.5 -44q0 -28 -18.5 -46.5t-45.5 -18.5t-45.5 18.5t-18.5 46.5z" />
    <glyph glyph-name="Lslash" unicode="&#x141;" horiz-adv-x="612" 
d="M202 356v-259h397v-97h-497v290l-74 -49v96l74 49v353h100v-286l114 76v-97z" />
    <glyph glyph-name="lslash" unicode="&#x142;" horiz-adv-x="304" 
d="M198 463l68 50v-97l-68 -50v-366h-96v295l-60 -44v96l60 44v366h96v-294z" />
    <glyph glyph-name="Nacute" unicode="&#x143;" horiz-adv-x="780" 
d="M423 793h-84l59 168h118zM588 212v527h99v-739h-52l-443 524v-524h-99v739h45z" />
    <glyph glyph-name="nacute" unicode="&#x144;" horiz-adv-x="618" 
d="M346 623h-83l59 167h117zM170 0h-96v536h94v-76q51 90 170 90q90 0 151 -58t61 -167v-325h-95v298q0 77 -37.5 120t-99.5 43q-65 0 -107 -46q-41 -47 -41 -118v-297z" />
    <glyph glyph-name="Ncommaaccent" unicode="&#x145;" horiz-adv-x="780" 
d="M588 212v527h99v-739h-52l-443 524v-524h-99v739h45zM401 -25q30 0 50 -21.5t20 -53.5q0 -85 -125 -166l-32 44q63 48 79 74h-2q-23 0 -39.5 17.5t-16.5 41.5q0 26 19 45t47 19z" />
    <glyph glyph-name="ncommaaccent" unicode="&#x146;" horiz-adv-x="618" 
d="M338 550q90 0 151 -58t61 -167v-325h-95v298q0 77 -37.5 120t-99.5 43q-65 0 -107 -46q-41 -47 -41 -118v-297h-96v536h94v-76q51 90 170 90zM320 -28q29 0 49 -21.5t20 -53.5q0 -86 -124 -165l-32 44q63 48 79 74h-2q-22 0 -39 17.5t-17 40.5q0 26 19 45t47 19z" />
    <glyph glyph-name="Ncaron" unicode="&#x147;" horiz-adv-x="780" 
d="M364 794l-140 164h102l72 -90l72 90h103l-140 -164h-69zM588 212v527h99v-739h-52l-443 524v-524h-99v739h45z" />
    <glyph glyph-name="ncaron" unicode="&#x148;" horiz-adv-x="618" 
d="M282 623l-140 164h102l72 -90l72 90h103l-140 -164h-69zM170 0h-96v536h94v-76q51 90 170 90q90 0 151 -58t61 -167v-325h-95v298q0 77 -37.5 120t-99.5 43q-65 0 -107 -46q-41 -47 -41 -118v-297z" />
    <glyph glyph-name="napostrophe" unicode="&#x149;" horiz-adv-x="644" 
d="M53 621h-80l56 167h106zM196 0h-96v536h94v-76q51 90 170 90q90 0 151 -58t61 -167v-325h-95v298q0 77 -37.5 120t-99.5 43q-65 0 -107 -46q-41 -47 -41 -118v-297z" />
    <glyph glyph-name="Eng" unicode="&#x14a;" horiz-adv-x="780" 
d="M588 198v541h99v-737q0 -118 -69 -186q-68 -67 -173 -67q-79 0 -147 43l39 85q50 -32 107 -32q65 0 104.5 42t39.5 118v39l-396 481v-525h-99v739h45z" />
    <glyph glyph-name="eng" unicode="&#x14b;" horiz-adv-x="617" 
d="M336 -225l4 87q114 -9 114 108v337q0 73 -36 113.5t-98 40.5q-66 0 -108 -46t-42 -118v-297h-96v536h93v-68q25 37 70.5 59.5t99.5 22.5q89 0 151 -59q61 -58 61 -167v-352q0 -108 -55.5 -159t-157.5 -38z" />
    <glyph glyph-name="Omacron" unicode="&#x14c;" horiz-adv-x="855" 
d="M595 812l-339 -1v86h339v-85zM45 365q0 162 112 274q113 113 270 113t270 -113t113 -270t-113 -270q-113 -111 -273 -111q-161 0 -270 109t-109 268zM706 368q0 122 -81 204t-198 82q-116 0 -197 -83t-81 -203q0 -119 80 -202q79 -81 198 -81t198 81q81 81 81 202z" />
    <glyph glyph-name="omacron" unicode="&#x14d;" horiz-adv-x="645" 
d="M477 636l-307 -1v86h307v-85zM323 -13q-123 0 -203 81q-79 82 -79 201t79 199q79 82 203 82q122 0 201 -82q80 -83 80 -199q0 -118 -80 -201q-80 -81 -201 -81zM508 269q0 79 -54 135q-54 57 -131 57t-131 -57q-54 -56 -54 -135q0 -80 54 -137t131 -57t131 57t54 137z
" />
    <glyph glyph-name="Obreve" unicode="&#x14e;" horiz-adv-x="855" 
d="M431 785q-78 0 -125.5 47t-49.5 127h83q1 -47 25.5 -73.5t66.5 -26.5t67 26.5t26 73.5h83q-1 -80 -49 -127t-127 -47zM45 365q0 162 112 274q113 113 270 113t270 -113t113 -270t-113 -270q-113 -111 -273 -111q-161 0 -270 109t-109 268zM706 368q0 122 -81 204t-198 82
q-116 0 -197 -83t-81 -203q0 -119 80 -202q79 -81 198 -81t198 81q81 81 81 202z" />
    <glyph glyph-name="obreve" unicode="&#x14f;" horiz-adv-x="645" 
d="M150 788h82q1 -47 25.5 -73t66.5 -26t66.5 26t25.5 73h83q-2 -80 -50 -126q-49 -47 -125 -47q-77 0 -124.5 47t-49.5 126zM323 -13q-123 0 -203 81q-79 82 -79 201t79 199q79 82 203 82q122 0 201 -82q80 -83 80 -199q0 -118 -80 -201q-80 -81 -201 -81zM508 269
q0 79 -54 135q-54 57 -131 57t-131 -57q-54 -56 -54 -135q0 -80 54 -137t131 -57t131 57t54 137z" />
    <glyph glyph-name="Ohungarumlaut" unicode="&#x150;" horiz-adv-x="855" 
d="M385 795h-82l41 168h118zM562 795h-82l48 168h119zM45 365q0 162 112 274q113 113 270 113t270 -113t113 -270t-113 -270q-113 -111 -273 -111q-161 0 -270 109t-109 268zM706 368q0 122 -81 204t-198 82q-116 0 -197 -83t-81 -203q0 -119 80 -202q79 -81 198 -81t198 81
q81 81 81 202z" />
    <glyph glyph-name="ohungarumlaut" unicode="&#x151;" horiz-adv-x="645" 
d="M278 622h-81l41 167h117zM454 622h-81l48 167h118zM323 -13q-123 0 -203 81q-79 82 -79 201t79 199q79 82 203 82q122 0 201 -82q80 -83 80 -199q0 -118 -80 -201q-80 -81 -201 -81zM508 269q0 79 -54 135q-54 57 -131 57t-131 -57q-54 -56 -54 -135q0 -80 54 -137
t131 -57t131 57t54 137z" />
    <glyph glyph-name="OE" unicode="&#x152;" horiz-adv-x="982" 
d="M926 739v-95h-360v-221h333v-95h-333v-233h360v-95h-456q-46 -2 -49 -2q-189 0 -280 100t-91 270t89 271q90 102 273 102q3 0 49 -2h465zM154 370q0 -57 14 -105t44 -87.5t83.5 -62t125.5 -22.5q5 0 45 2v549q-40 2 -45 2q-72 0 -125.5 -22.5t-83.5 -62t-44 -87
t-14 -104.5z" />
    <glyph glyph-name="oe" unicode="&#x153;" horiz-adv-x="1074" 
d="M1035 278q0 -10 -3 -49h-427q13 -71 60 -112t128 -41q48 0 99 16.5t88 43.5l41 -73q-42 -32 -104 -53.5t-126 -21.5q-163 0 -239 114q-39 -55 -98.5 -85t-131.5 -30q-122 0 -202 81q-79 82 -79 201q0 118 79 198q79 82 202 82q72 0 131.5 -30t98.5 -85q36 55 94.5 85
t129.5 30q114 0 186 -73q73 -73 73 -198zM605 312h331q-4 69 -48.5 110.5t-111.5 41.5q-65 0 -112 -42.5t-59 -109.5zM505 269q0 78 -53 134t-130 56t-130 -56t-53 -134t53 -136q53 -56 130 -56t130 56q53 58 53 136z" />
    <glyph glyph-name="Racute" unicode="&#x154;" horiz-adv-x="641" 
d="M310 961h118l-93 -168h-84zM610 0h-123l-192 300h-102v-300h-100v739h251q111 0 171 -66q61 -64 61 -154q0 -75 -45.5 -134t-126.5 -77zM345 644h-152v-250h132q72 0 110.5 35t38.5 91q0 55 -34 89.5t-95 34.5z" />
    <glyph glyph-name="racute" unicode="&#x155;" horiz-adv-x="397" 
d="M261 623h-83l59 167h117zM170 0h-96v536h91v-79q47 93 154 93q29 0 63 -8l-9 -93q-28 9 -56 9q-66 0 -106.5 -45t-40.5 -129v-284z" />
    <glyph glyph-name="Rcommaaccent" unicode="&#x156;" horiz-adv-x="641" 
d="M404 308l206 -308h-123l-192 300h-102v-300h-100v739h251q111 0 171 -66q61 -64 61 -154q0 -75 -45.5 -134t-126.5 -77zM345 644h-152v-250h132q72 0 110.5 35t38.5 91q0 55 -34 89.5t-95 34.5zM335 -27q30 0 50 -21.5t20 -53.5q0 -85 -125 -166l-32 44q63 48 79 74h-2
q-23 0 -39.5 17.5t-16.5 41.5q0 26 19 45t47 19z" />
    <glyph glyph-name="rcommaaccent" unicode="&#x157;" horiz-adv-x="398" 
d="M320 550q29 0 63 -8l-9 -93q-29 9 -56 9q-66 0 -106.5 -45t-40.5 -129v-284h-96v536h91v-79q46 93 154 93zM122 -39q29 0 49 -21.5t20 -53.5q0 -86 -124 -165l-32 44q63 48 79 74h-2q-22 0 -39 17.5t-17 40.5q0 26 19 45t47 19z" />
    <glyph glyph-name="Rcaron" unicode="&#x158;" horiz-adv-x="641" 
d="M483 958l-140 -164h-69l-140 164h102l72 -90l72 90h103zM610 0h-123l-192 300h-102v-300h-100v739h251q111 0 171 -66q61 -64 61 -154q0 -75 -45.5 -134t-126.5 -77zM345 644h-152v-250h132q72 0 110.5 35t38.5 91q0 55 -34 89.5t-95 34.5z" />
    <glyph glyph-name="rcaron" unicode="&#x159;" horiz-adv-x="397" 
d="M189 623l-140 164h102l72 -90l72 90h103l-140 -164h-69zM171 0h-96v536h91v-79q46 93 154 93q29 0 63 -8l-9 -93q-29 9 -56 9q-66 0 -106.5 -45t-40.5 -129v-284z" />
    <glyph glyph-name="Sacute" unicode="&#x15a;" horiz-adv-x="563" 
d="M318 793h-84l59 168h118zM279 -12q-82 0 -149.5 39.5t-102.5 112.5l74 61q60 -118 177 -118q62 0 99 32t37 80q0 59 -77 103q-14 7 -76 36q-51 23 -83 42q-111 70 -111 176q0 85 61 142q61 58 162 58q138 0 217 -109l-67 -64q-60 79 -149 79q-51 0 -84 -27.5t-33 -72.5
q0 -58 63 -95q26 -16 86 -44q63 -30 93 -47q107 -65 107 -172q0 -95 -70 -153q-70 -59 -174 -59z" />
    <glyph glyph-name="sacute" unicode="&#x15b;" horiz-adv-x="453" 
d="M271 623h-83l59 167h117zM224 -12q-62 0 -115.5 30t-83.5 86l69 53q22 -41 58.5 -63t74.5 -22q42 0 68.5 21.5t26.5 52.5q0 43 -49 68q-13 7 -67 30q-50 21 -66 30q-82 45 -82 130q0 65 48 107q47 43 127 43q52 0 98 -22t72 -63l-61 -58q-44 62 -115 62q-35 0 -56 -18.5
t-21 -46.5q0 -42 45 -63l59 -26q48 -19 72 -33q91 -46 91 -135q0 -69 -54 -116q-55 -47 -139 -47z" />
    <glyph glyph-name="Scircumflex" unicode="&#x15c;" horiz-adv-x="563" 
d="M224 792h-103l141 165h69l141 -165h-104l-72 91zM279 -12q-82 0 -149.5 39.5t-102.5 112.5l74 61q60 -118 177 -118q62 0 99 32t37 80q0 59 -77 103q-14 7 -76 36q-51 23 -83 42q-111 70 -111 176q0 85 61 142q61 58 162 58q138 0 217 -109l-67 -64q-60 79 -149 79
q-51 0 -84 -27.5t-33 -72.5q0 -58 63 -95q26 -16 86 -44q63 -30 93 -47q107 -65 107 -172q0 -95 -70 -153q-70 -59 -174 -59z" />
    <glyph glyph-name="scircumflex" unicode="&#x15d;" horiz-adv-x="453" 
d="M159 622h-102l140 164h69l140 -164h-103l-72 90zM224 -12q-62 0 -115.5 30t-83.5 86l69 53q22 -41 58.5 -63t74.5 -22q42 0 68.5 21.5t26.5 52.5q0 43 -49 68q-13 7 -67 30q-50 21 -66 30q-82 45 -82 130q0 65 48 107q47 43 127 43q52 0 98 -22t72 -63l-61 -58
q-44 62 -115 62q-35 0 -56 -18.5t-21 -46.5q0 -42 45 -63l59 -26q48 -19 72 -33q91 -46 91 -135q0 -69 -54 -116q-55 -47 -139 -47z" />
    <glyph glyph-name="Scedilla" unicode="&#x15e;" horiz-adv-x="563" 
d="M523 200q0 -86 -60 -145q-60 -57 -154 -66l-15 -37h8q44 0 73.5 -25t29.5 -67q0 -47 -34.5 -79t-95.5 -32q-51 0 -114 29l25 63q44 -21 81 -21q27 0 42.5 12.5t15.5 31.5q0 36 -52 36h-56l-9 22l27 69q-68 9 -123 48t-85 101l74 61q60 -118 177 -118q62 0 99 32t37 80
q0 59 -77 103q-14 7 -76 36q-51 23 -83 42q-111 70 -111 176q0 85 61 142q61 58 162 58q138 0 217 -109l-67 -64q-60 79 -149 79q-51 0 -84 -27.5t-33 -72.5q0 -58 63 -95q26 -16 86 -44q63 -30 93 -47q107 -65 107 -172z" />
    <glyph glyph-name="scedilla" unicode="&#x15f;" horiz-adv-x="453" 
d="M417 151q0 -63 -48 -110q-47 -46 -124 -52l-15 -37h8q44 0 73.5 -25t29.5 -67q0 -47 -34.5 -79t-95.5 -32q-51 0 -114 29l25 63q44 -21 81 -21q27 0 42.5 12.5t15.5 31.5q0 36 -52 36h-56l-9 22l28 72q-99 19 -147 110l69 53q22 -41 58.5 -63t74.5 -22q42 0 68.5 21.5
t26.5 52.5q0 43 -49 68q-13 7 -67 30q-50 21 -66 30q-82 45 -82 130q0 65 48 107q47 43 127 43q52 0 98 -22t72 -63l-61 -58q-44 62 -115 62q-35 0 -56 -18.5t-21 -46.5q0 -42 45 -63l59 -26q48 -19 72 -33q91 -46 91 -135z" />
    <glyph glyph-name="Scaron" unicode="&#x160;" horiz-adv-x="563" 
d="M266 794l-140 164h102l72 -90l72 90h103l-140 -164h-69zM279 -12q-82 0 -149.5 39.5t-102.5 112.5l74 61q60 -118 177 -118q62 0 99 32t37 80q0 59 -77 103q-14 7 -76 36q-51 23 -83 42q-111 70 -111 176q0 85 61 142q61 58 162 58q138 0 217 -109l-67 -64
q-60 79 -149 79q-51 0 -84 -27.5t-33 -72.5q0 -58 63 -95q26 -16 86 -44q63 -30 93 -47q107 -65 107 -172q0 -95 -70 -153q-70 -59 -174 -59z" />
    <glyph glyph-name="scaron" unicode="&#x161;" horiz-adv-x="453" 
d="M198 623l-140 164h102l72 -90l72 90h103l-140 -164h-69zM224 -12q-62 0 -115.5 30t-83.5 86l69 53q22 -41 58.5 -63t74.5 -22q42 0 68.5 21.5t26.5 52.5q0 43 -49 68q-13 7 -67 30q-50 21 -66 30q-82 45 -82 130q0 65 48 107q47 43 127 43q52 0 98 -22t72 -63l-61 -58
q-44 62 -115 62q-35 0 -56 -18.5t-21 -46.5q0 -42 45 -63l59 -26q48 -19 72 -33q91 -46 91 -135q0 -69 -54 -116q-55 -47 -139 -47z" />
    <glyph glyph-name="Tcaron" unicode="&#x164;" horiz-adv-x="566" 
d="M249 794l-140 164h102l72 -90l72 90h103l-140 -164h-69zM233 0v642h-219v97h538v-97h-219v-642h-100z" />
    <glyph glyph-name="tcaron" unicode="&#x165;" horiz-adv-x="429" 
d="M367 790h106l-82 -167h-80zM292 75q47 0 96 31l36 -74q-59 -45 -143 -45t-127.5 52t-43.5 149v266h-95v82h96v190h94v-190h190v-82h-190v-273q0 -106 87 -106z" />
    <glyph glyph-name="Tbar" unicode="&#x166;" horiz-adv-x="595" 
d="M566 739v-97h-219v-210h158v-86h-158v-346h-100v346h-155v86h155v210h-219v97h538z" />
    <glyph glyph-name="tbar" unicode="&#x167;" horiz-adv-x="435" 
d="M394 106l36 -74q-58 -45 -143 -45q-84 0 -127.5 52t-43.5 149v81h-94v81h94v104h-95v82h96v190h94v-190h190v-82h-190v-104h187v-81h-187v-88q0 -106 87 -106q47 0 96 31z" />
    <glyph glyph-name="Utilde" unicode="&#x168;" horiz-adv-x="706" 
d="M230 800l-62 29q13 45 44.5 70.5t73.5 25.5q33 0 76 -22q44 -22 64 -22q37 0 58 45l60 -28q-12 -45 -43 -70.5t-73 -25.5q-32 0 -75 22q-44 23 -63 23q-37 0 -60 -47zM85 249v490h100v-472q0 -88 44 -135t124 -47q79 0 123 48t44 134v472h101v-490q0 -121 -74 -192
q-73 -70 -194 -70t-194 70q-74 71 -74 192z" />
    <glyph glyph-name="utilde" unicode="&#x169;" horiz-adv-x="595" 
d="M173 625l-62 29q13 45 44.5 70.5t73.5 25.5q33 0 76 -22t63 -22q37 0 58 45l60 -28q-12 -45 -43 -70.5t-73 -25.5q-32 0 -75 22q-44 23 -63 23q-36 0 -59 -47zM297 -13q-105 0 -167.5 62t-62.5 167v320h96v-317q0 -66 35.5 -104.5t98.5 -38.5t99 38.5t36 104.5v317h95
v-320q0 -107 -61.5 -168t-168.5 -61z" />
    <glyph glyph-name="Umacron" unicode="&#x16a;" horiz-adv-x="706" 
d="M521 812l-339 -1v86h339v-85zM85 249v490h100v-472q0 -88 44 -135t124 -47q79 0 123 48t44 134v472h101v-490q0 -121 -74 -192q-73 -70 -194 -70t-194 70q-74 71 -74 192z" />
    <glyph glyph-name="umacron" unicode="&#x16b;" horiz-adv-x="595" 
d="M451 637l-307 -1v86h307v-85zM297 -13q-105 0 -167.5 62t-62.5 167v320h96v-317q0 -66 35.5 -104.5t98.5 -38.5t99 38.5t36 104.5v317h95v-320q0 -107 -61.5 -168t-168.5 -61z" />
    <glyph glyph-name="Ubreve" unicode="&#x16c;" horiz-adv-x="706" 
d="M353 785q-78 0 -125.5 47t-49.5 127h83q1 -47 25.5 -73.5t66.5 -26.5t67 26.5t26 73.5h83q-1 -80 -49 -127t-127 -47zM85 249v490h100v-472q0 -88 44 -135t124 -47q79 0 123 48t44 134v472h101v-490q0 -121 -74 -192q-73 -70 -194 -70t-194 70q-74 71 -74 192z" />
    <glyph glyph-name="ubreve" unicode="&#x16d;" horiz-adv-x="595" 
d="M124 788h82q1 -47 25.5 -73t66.5 -26t66.5 26t25.5 73h83q-2 -80 -50 -126q-49 -47 -125 -47q-77 0 -124.5 47t-49.5 126zM297 -13q-105 0 -167.5 62t-62.5 167v320h96v-317q0 -66 35.5 -104.5t98.5 -38.5t99 38.5t36 104.5v317h95v-320q0 -107 -61.5 -168t-168.5 -61z
" />
    <glyph glyph-name="Uring" unicode="&#x16e;" horiz-adv-x="706" 
d="M354 781q-50 0 -84 32.5t-34 80.5q0 47 34 80t84 33q49 0 82 -33q34 -33 34 -80q0 -48 -33.5 -80.5t-82.5 -32.5zM354 840q22 0 37.5 16t15.5 40q0 21 -16 36.5t-37 15.5q-23 0 -39 -15t-16 -37q0 -24 16 -40t39 -16zM85 249v490h100v-472q0 -88 44 -135t124 -47
q79 0 123 48t44 134v472h101v-490q0 -121 -74 -192q-73 -70 -194 -70t-194 70q-74 71 -74 192z" />
    <glyph glyph-name="uring" unicode="&#x16f;" horiz-adv-x="595" 
d="M380 622q-34 -32 -82 -32t-83 32q-34 33 -34 80t34 80t83 33t82 -33q34 -33 34 -80t-34 -80zM298 649q22 0 37.5 15.5t15.5 39.5q0 21 -16 36.5t-37 15.5q-23 0 -39 -15t-16 -37q0 -24 16 -39.5t39 -15.5zM297 -13q-105 0 -167.5 62t-62.5 167v320h96v-317
q0 -66 35.5 -104.5t98.5 -38.5t99 38.5t36 104.5v317h95v-320q0 -107 -61.5 -168t-168.5 -61z" />
    <glyph glyph-name="Uhungarumlaut" unicode="&#x170;" horiz-adv-x="706" 
d="M303 795h-82l41 168h118zM480 795h-82l48 168h119zM85 249v490h100v-472q0 -88 44 -135t124 -47q79 0 123 48t44 134v472h101v-490q0 -121 -74 -192q-73 -70 -194 -70t-194 70q-74 71 -74 192z" />
    <glyph glyph-name="uhungarumlaut" unicode="&#x171;" horiz-adv-x="594" 
d="M242 622h-81l41 167h117zM418 622h-81l48 167h118zM297 -13q-105 0 -167.5 62t-62.5 167v320h96v-317q0 -66 35.5 -104.5t98.5 -38.5t99 38.5t36 104.5v317h95v-320q0 -107 -61.5 -168t-168.5 -61z" />
    <glyph glyph-name="Uogonek" unicode="&#x172;" horiz-adv-x="706" 
d="M520 267v472h101v-490q0 -92 -43.5 -156.5t-121.5 -89.5q-46 -22 -75 -56t-29 -67q0 -22 13 -35.5t35 -13.5q20 0 41 12l37 -68q-46 -29 -95 -29q-53 0 -85 31t-32 79q0 75 77 131q-117 3 -187 73q-71 71 -71 189v490h100v-472q0 -88 44 -135t124 -47q79 0 123 48t44 134
z" />
    <glyph glyph-name="uogonek" unicode="&#x173;" horiz-adv-x="595" 
d="M432 219v317h95v-320q0 -81 -36 -136.5t-102 -78.5q-49 -21 -80 -56.5t-31 -69.5q0 -22 13 -35.5t35 -13.5q20 0 41 12l37 -68q-46 -29 -95 -29q-53 0 -85 31t-32 79q0 77 85 137q-96 6 -153 67.5t-57 160.5v320h96v-317q0 -66 35.5 -104.5t98.5 -38.5t99 38.5t36 104.5z
" />
    <glyph glyph-name="Wcircumflex" unicode="&#x174;" horiz-adv-x="1029" 
d="M444 792h-103l141 165h69l141 -165h-104l-72 91zM321 0h-56l-254 739h106l178 -541l196 541h45l201 -541l175 541h105l-252 -739h-55l-195 552z" />
    <glyph glyph-name="wcircumflex" unicode="&#x175;" horiz-adv-x="840" 
d="M348 622h-102l140 164h69l140 -164h-103l-72 90zM274 1h-79l-184 535h101l127 -402l146 402h67l152 -402l122 402h100l-179 -535h-80l-148 401z" />
    <glyph glyph-name="Ycircumflex" unicode="&#x176;" horiz-adv-x="639" 
d="M246 792h-103l141 165h69l141 -165h-104l-72 91zM511 739h111l-253 -473v-266h-100v266l-250 473h111l189 -374z" />
    <glyph glyph-name="ycircumflex" unicode="&#x177;" horiz-adv-x="555" 
d="M356 619l-72 90l-72 -90h-102l140 164h69l140 -164h-103zM290 134l144 402h106l-225 -596q-33 -89 -77.5 -128.5t-108.5 -39.5q-51 0 -86 21l12 84q36 -16 65 -16q66 0 106 94l20 47l-233 534h111z" />
    <glyph glyph-name="Ydieresis" unicode="&#x178;" horiz-adv-x="639" 
d="M231 806q-27 0 -45.5 18t-18.5 45q0 25 18.5 42.5t45.5 17.5q25 0 42.5 -17.5t17.5 -42.5q0 -27 -17.5 -45t-42.5 -18zM410 806q-27 0 -45 18t-18 45q0 25 18.5 42.5t44.5 17.5t43.5 -17.5t17.5 -42.5q0 -27 -17.5 -45t-43.5 -18zM511 739h111l-253 -473v-266h-100v266
l-250 473h111l189 -374z" />
    <glyph glyph-name="Zacute" unicode="&#x179;" horiz-adv-x="618" 
d="M352 793h-84l59 168h118zM584 0h-553v62l402 583h-384v94h524v-63l-398 -582h409v-94z" />
    <glyph glyph-name="zacute" unicode="&#x17a;" horiz-adv-x="508" 
d="M285 623h-83l59 167h117zM465 479l-305 -397h314v-82h-444v61l306 392h-288v82h417v-56z" />
    <glyph glyph-name="Zdotaccent" unicode="&#x17b;" horiz-adv-x="618" 
d="M316 799q-30 0 -50 19.5t-20 49.5q0 29 20 48t50 19q28 0 48 -19.5t20 -47.5q0 -30 -20 -49.5t-48 -19.5zM584 0h-553v62l402 583h-384v94h524v-63l-398 -582h409v-94z" />
    <glyph glyph-name="zdotaccent" unicode="&#x17c;" horiz-adv-x="508" 
d="M264 613q-30 0 -50 19.5t-20 49.5q0 29 20 48t50 19q28 0 48 -19.5t20 -47.5q0 -30 -20 -49.5t-48 -19.5zM465 479l-305 -397h314v-82h-444v61l306 392h-288v82h417v-56z" />
    <glyph glyph-name="Zcaron" unicode="&#x17d;" horiz-adv-x="618" 
d="M283 795l-140 164h102l72 -90l72 90h103l-140 -164h-69zM584 0h-553v62l402 583h-384v94h524v-63l-398 -582h409v-94z" />
    <glyph glyph-name="zcaron" unicode="&#x17e;" horiz-adv-x="508" 
d="M220 623l-140 164h102l72 -90l72 90h103l-140 -164h-69zM465 479l-305 -397h314v-82h-444v61l306 392h-288v82h417v-56z" />
    <glyph glyph-name="Scommaaccent" unicode="&#x218;" horiz-adv-x="563" 
d="M416 372q107 -65 107 -172q0 -95 -70 -153q-70 -59 -174 -59q-82 0 -149.5 39.5t-102.5 112.5l74 61q60 -118 177 -118q62 0 99 32t37 80q0 59 -77 103q-14 7 -76 36q-51 23 -83 42q-111 70 -111 176q0 85 61 142q61 58 162 58q138 0 217 -109l-67 -64q-60 79 -149 79
q-51 0 -84 -27.5t-33 -72.5q0 -58 63 -95q26 -16 86 -44q63 -30 93 -47zM280 -41q30 0 50 -21.5t20 -53.5q0 -85 -125 -166l-32 44q63 48 79 74h-2q-23 0 -39.5 17.5t-16.5 41.5q0 26 19 45t47 19z" />
    <glyph glyph-name="scommaaccent" unicode="&#x219;" horiz-adv-x="453" 
d="M326 286q91 -46 91 -135q0 -69 -54 -116q-55 -47 -139 -47q-62 0 -115.5 30t-83.5 86l69 53q22 -41 58.5 -63t74.5 -22q42 0 68.5 21.5t26.5 52.5q0 43 -49 68q-13 7 -67 30q-50 21 -66 30q-82 45 -82 130q0 65 48 107q47 43 127 43q52 0 98 -22t72 -63l-61 -58
q-44 62 -115 62q-35 0 -56 -18.5t-21 -46.5q0 -42 45 -63l59 -26q48 -19 72 -33zM230 -48q29 0 49 -21.5t20 -53.5q0 -86 -124 -165l-32 44q63 48 79 74h-2q-22 0 -39 17.5t-17 40.5q0 26 19 45t47 19z" />
    <glyph glyph-name="uni021A" unicode="&#x21a;" horiz-adv-x="566" 
d="M14 642v97h538v-97h-219v-642h-100v642h-219zM281 -28q30 0 50 -21.5t20 -53.5q0 -85 -125 -166l-32 44q63 48 79 74h-2q-23 0 -39.5 17.5t-16.5 41.5q0 26 19 45t47 19z" />
    <glyph glyph-name="uni021B" unicode="&#x21b;" horiz-adv-x="427" 
d="M388 106l36 -74q-59 -45 -143 -45t-127.5 52t-43.5 149v266h-95v82h96v190h94v-190h190v-82h-190v-273q0 -106 87 -106q47 0 96 31zM267 -54q29 0 49 -21.5t20 -53.5q0 -86 -124 -165l-32 44q63 48 79 74h-2q-22 0 -39 17.5t-17 40.5q0 26 19 45t47 19z" />
    <glyph glyph-name="uni0237" unicode="&#x237;" horiz-adv-x="269" 
d="M17 -229q-60 0 -95 22l19 80q39 -14 65 -14q92 0 92 110v567h96v-561q0 -98 -47 -151t-130 -53z" />
    <glyph glyph-name="circumflex" unicode="&#x2c6;" horiz-adv-x="573" 
d="M140 622h-102l140 164h69l140 -164h-103l-72 90z" />
    <glyph glyph-name="caron" unicode="&#x2c7;" horiz-adv-x="549" 
d="M178 624l-140 164h102l72 -90l72 90h103l-140 -164h-69z" />
    <glyph glyph-name="breve" unicode="&#x2d8;" horiz-adv-x="446" 
d="M40 788h82q1 -47 25.5 -73t66.5 -26t66.5 26t25.5 73h83q-2 -80 -50 -126q-49 -47 -125 -47q-77 0 -124.5 47t-49.5 126z" />
    <glyph glyph-name="dotaccent" unicode="&#x2d9;" horiz-adv-x="300" 
d="M110 615q-30 0 -50 19.5t-20 49.5q0 29 20 48t50 19q28 0 48 -19.5t20 -47.5q0 -30 -20 -49.5t-48 -19.5z" />
    <glyph glyph-name="ring" unicode="&#x2da;" horiz-adv-x="379" 
d="M239 632q-34 -32 -82 -32t-83 32q-34 33 -34 80t34 80t83 33t82 -33q34 -33 34 -80t-34 -80zM157 659q21 0 37 15.5t16 39.5q0 21 -16 36.5t-37 15.5q-23 0 -39 -15t-16 -37q0 -24 16 -39.5t39 -15.5z" />
    <glyph glyph-name="ogonek" unicode="&#x2db;" horiz-adv-x="384" 
d="M215 -163l37 -68q-46 -29 -95 -29q-53 0 -85 31t-32 79q0 100 138 167l59 -17q-49 -21 -80 -56.5t-31 -69.5q0 -22 13 -35.5t35 -13.5q20 0 41 12z" />
    <glyph glyph-name="tilde" unicode="&#x2dc;" horiz-adv-x="541" 
d="M102 647l-62 29q13 45 44.5 70.5t73.5 25.5q33 0 76 -22t63 -22q37 0 58 45l60 -28q-12 -45 -43 -70.5t-73 -25.5q-32 0 -75 22q-44 23 -63 23q-36 0 -59 -47z" />
    <glyph glyph-name="hungarumlaut" unicode="&#x2dd;" horiz-adv-x="517" 
d="M131 620h-81l41 167h117zM307 620h-81l48 167h118z" />
    <glyph glyph-name="uni0394" unicode="&#x394;" horiz-adv-x="736" 
d="M712 0h-689v72l306 667h79l304 -667v-72zM367 627l-233 -535h467z" />
    <glyph glyph-name="uni03A9" unicode="&#x3a9;" horiz-adv-x="865" 
d="M377 0h-321v88h167q-76 43 -120 125q-43 82 -43 174q0 151 108 258q109 107 265 107q155 0 264 -107q108 -107 108 -258q0 -93 -43 -175q-44 -81 -119 -124h166v-88h-322v84q95 34 154 116q59 83 59 183q0 117 -76 193q-77 77 -191 77q-116 0 -193 -77q-76 -76 -76 -193
q0 -101 58 -183q59 -81 155 -116v-84z" />
    <glyph glyph-name="uni03BC" unicode="&#x3bc;" horiz-adv-x="621" 
d="M451 249v286h95v-535h-90v79q-24 -42 -68 -66t-96 -24q-76 0 -122 52v-259h-96v753h96v-308q0 -74 34 -112t97 -38q68 0 109 45.5t41 126.5z" />
    <glyph glyph-name="pi" unicode="&#x3c0;" horiz-adv-x="622" 
d="M212 0h-96v452h-87v83h564v-83h-88v-452h-95v452h-198v-452z" />
    <glyph glyph-name="uni0401" unicode="&#x401;" horiz-adv-x="609" 
d="M237 806q-27 0 -45.5 18t-18.5 45q0 25 18.5 42.5t45.5 17.5q25 0 42.5 -17.5t17.5 -42.5q0 -27 -17.5 -45t-42.5 -18zM416 806q-27 0 -45 18t-18 45q0 25 18.5 42.5t44.5 17.5t43.5 -17.5t17.5 -42.5q0 -27 -17.5 -45t-43.5 -18zM553 0h-460v739h460v-95h-360v-221h333
v-95h-333v-233h360v-95z" />
    <glyph glyph-name="uni0410" unicode="&#x410;" horiz-adv-x="674" 
d="M661 0h-109l-75 192h-281l-75 -192h-109l299 739h54zM443 286l-106 279l-107 -279h213z" />
    <glyph glyph-name="uni0411" unicode="&#x411;" horiz-adv-x="648" 
d="M192 461h158q122 0 187 -58q75 -67 75 -177q0 -94 -66 -160q-64 -66 -186 -66h-267v739h456v-93h-357v-185zM192 94h151q78 0 122 37.5t44 98.5q0 60 -41 98.5t-119 38.5h-157v-273z" />
    <glyph glyph-name="uni0412" unicode="&#x412;" horiz-adv-x="672" 
d="M488 404q66 -18 102.5 -70.5t36.5 -121.5q0 -87 -61 -149q-60 -63 -168 -63h-305v739h292q96 0 149 -56q54 -55 54 -129q0 -51 -27 -92t-73 -58zM372 646h-180v-206h177q53 0 85 31.5t32 76.5q0 41 -31.5 69.5t-82.5 28.5zM192 94h190q66 0 103 37q39 37 39 88
q0 55 -39.5 92.5t-106.5 37.5h-186v-255z" />
    <glyph glyph-name="uni0413" unicode="&#x413;" horiz-adv-x="543" 
d="M192 0h-99v739h436v-94h-337v-645z" />
    <glyph glyph-name="uni0414" unicode="&#x414;" horiz-adv-x="762" 
d="M410 739l243 -647h78v-242h-98v150h-504v-150h-99v242h79l244 647h57zM381 567l-166 -475h331z" />
    <glyph glyph-name="uni0415" unicode="&#x415;" horiz-adv-x="609" 
d="M553 0h-460v739h460v-95h-360v-221h333v-95h-333v-233h360v-95z" />
    <glyph glyph-name="uni0416" unicode="&#x416;" horiz-adv-x="996" 
d="M975 93l5 -90q-34 -14 -71 -14q-77 0 -133 65q-24 28 -101 155l-3 5l-13 22q-10 20 -26 42q-10 16 -29 30q-13 13 -37 13h-19v-323h-100v323h-19q-22 0 -53 -25q-5 -5 -15 -20t-12 -17l-26 -45q-77 -130 -101 -158q-58 -65 -135 -67q-37 0 -71 14l5 90q26 -9 53 -9
q30 0 50 16q21 16 52 60q27 39 95 154q27 35 48 50q-43 29 -69 86l-22 52l-19 43q-31 64 -52 86q-20 23 -60 23q-17 0 -42 -6l-16 86q31 16 69 16q75 0 112 -43q39 -43 94 -167l16 -38l14 -33l14 -22q9 -13 21 -19t20 -7.5t37 -4.5h12v321h100v-321h12q36 3 50.5 8.5
t26.5 22.5q1 2 14 23q1 2 3 6.5t5 12t6 13.5q3 8 6.5 15l6.5 13.5t4 9.5q55 122 93 167q39 43 113 43q37 0 68 -16l-15 -86q-29 6 -42 6q-40 0 -61 -23q-21 -24 -51 -86l-24 -56q-40 -96 -79 -130q21 -16 41 -45q89 -153 122 -192q33 -38 74 -38q29 0 54 9z" />
    <glyph glyph-name="uni0417" unicode="&#x417;" horiz-adv-x="598" 
d="M271 -12q-131 0 -250 75l43 82q111 -66 210 -66q77 0 124 36.5t47 94.5q0 57 -45.5 91t-120.5 34h-126v89h112q70 0 115.5 34.5t45.5 89.5q1 50 -40.5 81t-104.5 31q-92 0 -192 -67l-46 74q47 40 112.5 62.5t131.5 22.5q108 0 174 -57q66 -55 66 -139q0 -57 -33 -100
t-95 -64v-4q69 -15 108.5 -63.5t39.5 -118.5q0 -96 -75 -158q-75 -60 -201 -60z" />
    <glyph glyph-name="uni0418" unicode="&#x418;" horiz-adv-x="779" 
d="M152 0h-59v739h99v-557l437 557h56v-739h-99v554z" />
    <glyph glyph-name="uni0419" unicode="&#x419;" horiz-adv-x="779" 
d="M397 777q-116 0 -198 103l53 58q68 -81 145 -81q79 0 145 81l55 -58q-85 -103 -200 -103zM152 0h-59v739h99v-557l437 557h56v-739h-99v554z" />
    <glyph glyph-name="uni041A" unicode="&#x41a;" horiz-adv-x="666" 
d="M678 0h-124l-260 324l-101 -119v-205h-100v739h100v-402l339 402h119l-292 -348z" />
    <glyph glyph-name="uni041B" unicode="&#x41b;" horiz-adv-x="642" 
d="M125 0h-110l279 739h57l276 -739h-109l-197 555z" />
    <glyph glyph-name="uni041C" unicode="&#x41c;" horiz-adv-x="919" 
d="M192 0h-99v739h48l319 -469l317 469h49v-739h-100v499l-254 -373h-26l-254 373v-499z" />
    <glyph glyph-name="uni041D" unicode="&#x41d;" horiz-adv-x="758" 
d="M194 0h-101v739h101v-312h371v312h100v-739h-100v331h-371v-331z" />
    <glyph glyph-name="uni041E" unicode="&#x41e;" horiz-adv-x="855" 
d="M45 365q0 162 112 274q113 113 270 113t270 -113t113 -270t-113 -270q-113 -111 -273 -111q-161 0 -270 109t-109 268zM706 368q0 122 -81 204t-198 82q-116 0 -197 -83t-81 -203q0 -119 80 -202q79 -81 198 -81t198 81q81 81 81 202z" />
    <glyph glyph-name="uni041F" unicode="&#x41f;" horiz-adv-x="758" 
d="M194 0h-101v739h572v-739h-100v643h-371v-643z" />
    <glyph glyph-name="uni0420" unicode="&#x420;" horiz-adv-x="608" 
d="M93 739h247q116 0 178 -68q61 -67 61 -160q0 -95 -64 -162q-65 -66 -184 -66h-138v-283h-100v739zM193 376h140q69 0 107.5 39t38.5 98q0 56 -35.5 94t-97.5 38h-153v-269z" />
    <glyph glyph-name="uni0421" unicode="&#x421;" horiz-adv-x="776" 
d="M426 -11q-160 0 -270 106q-110 107 -110 272q0 168 112 276q112 109 271 109q101 0 186 -45q85 -43 133 -117l-74 -62q-94 127 -243 127q-118 0 -200 -82t-82 -207q0 -122 80 -202q80 -79 201 -79q74 0 138 33t110 92l72 -61q-53 -74 -138.5 -117t-185.5 -43z" />
    <glyph glyph-name="uni0422" unicode="&#x422;" horiz-adv-x="566" 
d="M233 0v642h-219v97h538v-97h-219v-642h-100z" />
    <glyph glyph-name="uni0423" unicode="&#x423;" horiz-adv-x="602" 
d="M118 -12q-46 0 -77 18l10 86q30 -13 60 -13q53 0 92 52q23 31 32 48q12 19 33 60l-241 499h115l178 -392l170 392h110l-79 -176l-173 -377q-47 -98 -101 -147.5t-129 -49.5z" />
    <glyph glyph-name="uni0424" unicode="&#x424;" horiz-adv-x="915" 
d="M872 371q0 -149 -103 -251q-104 -103 -262 -113v-87h-99v87q-159 10 -263 113q-103 103 -103 251q0 147 104 249q102 102 262 113v86h99v-86q158 -11 261 -112q104 -102 104 -250zM144 371q0 -114 73 -188q75 -75 191 -82v537q-116 -7 -191 -82q-73 -73 -73 -185z
M507 638v-537q115 7 190 82q73 74 73 188q0 112 -73 185q-75 75 -190 82z" />
    <glyph glyph-name="uni0425" unicode="&#x425;" horiz-adv-x="627" 
d="M128 0h-120l246 375l-234 364h116l178 -288l180 288h120l-242 -364l244 -375h-116l-186 293z" />
    <glyph glyph-name="uni0426" unicode="&#x426;" horiz-adv-x="712" 
d="M667 -150h-99v150h-475v739h100v-643h303v643h99v-643h72v-246z" />
    <glyph glyph-name="uni0427" unicode="&#x427;" horiz-adv-x="680" 
d="M486 358v381h100v-739h-100v260q-96 -35 -175 -35q-124 0 -191.5 61.5t-67.5 180.5v272h100v-244q0 -93 38 -134q39 -39 122 -39q82 0 174 36z" />
    <glyph glyph-name="uni0428" unicode="&#x428;" horiz-adv-x="1088" 
d="M994 0h-901v739h100v-643h301v643h99v-643h302v643h99v-739z" />
    <glyph glyph-name="uni0429" unicode="&#x429;" horiz-adv-x="1110" 
d="M1066 -150h-99v150h-874v739h100v-643h301v643h99v-643h302v643h99v-643h72v-246z" />
    <glyph glyph-name="uni042A" unicode="&#x42a;" horiz-adv-x="748" 
d="M457 493q113 0 186 -67q74 -66 74 -184q0 -103 -67 -173q-68 -69 -197 -69h-256v646h-181v93h280v-278q81 32 161 32zM296 94h140q88 0 132.5 40t44.5 113q0 74 -43 112.5t-121 38.5q-79 0 -153 -36v-268z" />
    <glyph glyph-name="uni042B" unicode="&#x42b;" horiz-adv-x="907" 
d="M194 473h158q75 0 130.5 -24t82.5 -65q49 -71 49 -152q0 -98 -66 -165q-64 -67 -187 -67h-266v739h99v-266zM714 0v739h100v-739h-100zM194 94h151q79 0 122.5 39t43.5 104q0 63 -41 102.5t-119 39.5h-157v-285z" />
    <glyph glyph-name="uni042C" unicode="&#x42c;" horiz-adv-x="644" 
d="M353 493q112 0 185 -67q74 -66 74 -184q0 -103 -67 -173q-67 -69 -196 -69h-256v739h99v-278q81 32 161 32zM192 94h140q88 0 132.5 40t44.5 113q0 74 -43 112.5t-121 38.5q-79 0 -153 -36v-268z" />
    <glyph glyph-name="uni042D" unicode="&#x42d;" horiz-adv-x="781" 
d="M352 752q159 0 271 -109q112 -108 112 -276q0 -165 -111 -272q-109 -106 -269 -106q-100 0 -185.5 43t-138.5 117l72 61q46 -59 110 -92t138 -33q109 0 186 66q79 67 92 172h-435v95h434q-16 105 -95 171q-78 66 -183 66q-149 0 -243 -127l-74 62q48 74 133 117
q86 45 186 45z" />
    <glyph glyph-name="uni042E" unicode="&#x42e;" horiz-adv-x="1107" 
d="M679 752q157 0 270 -113t113 -270t-113 -270q-113 -111 -273 -111q-150 0 -256 94q-104 94 -121 239h-106v-321h-100v739h100v-322h107q20 145 127 239q108 96 252 96zM958 368q0 122 -81 204t-198 82q-116 0 -197 -83t-81 -203q0 -119 80 -202q79 -81 198 -81t198 81
q81 81 81 202z" />
    <glyph glyph-name="uni042F" unicode="&#x42f;" horiz-adv-x="647" 
d="M312 739h241v-739h-99v284q-58 -11 -130 -11l-165 -273h-122l181 286q-77 22 -117.5 81.5t-40.5 137.5q0 98 64 165q65 69 188 69zM330 367q80 0 124 10v267h-131q-80 0 -120.5 -37t-40.5 -100q0 -140 168 -140z" />
    <glyph glyph-name="uni0430" unicode="&#x430;" horiz-adv-x="665" 
d="M498 458v78h92v-536h-92v76q-72 -89 -189 -89q-116 0 -192 82t-76 203t76 198q76 79 192 79q114 0 189 -91zM504 269q0 81 -51 136q-51 56 -133 56t-132 -56t-50 -137t50 -137t132 -56t133 56q51 55 51 138z" />
    <glyph glyph-name="uni0431" unicode="&#x431;" horiz-adv-x="669" 
d="M363 526q104 0 183 -73q81 -72 81 -193q0 -116 -78 -195q-77 -78 -202 -78q-145 0 -222 108q-76 107 -76 274q0 143 59.5 232t176.5 116l62 12l63 12q66 18 131 71l38 -87q-19 -19 -43 -37q-16 -11 -47 -22l-29 -9l-30 -7l-37 -8l-40 -9q-43 -10 -61 -16q-19 -5 -51 -23
q-42 -23 -64 -68.5t-33 -133.5q30 63 89.5 98.5t129.5 35.5zM349 75q77 0 129 54q52 53 52 130q0 75 -52 127q-51 53 -125 53q-72 0 -127 -50q-54 -49 -54 -127q0 -76 49 -131q50 -56 128 -56z" />
    <glyph glyph-name="uni0432" unicode="&#x432;" horiz-adv-x="622" 
d="M446 413q61 -16 97.5 -68.5t36.5 -126.5q0 -102 -69 -166q-68 -65 -185 -65q-129 0 -196 80t-67 233v177q0 133 69 214q69 82 191 82q104 0 164 -56t60 -153q0 -47 -28 -91q-29 -44 -73 -60zM323 685q-70 0 -118 -55q-47 -56 -47 -178v-9h167q62 0 94 34.5t32 86.5
q0 57 -33 89t-95 32zM328 75q70 0 112.5 41t42.5 106q0 60 -37 97.5t-107 37.5h-181v-56q0 -140 61 -188q51 -38 109 -38z" />
    <glyph glyph-name="uni0433" unicode="&#x433;" horiz-adv-x="495" 
d="M238 -13q-93 0 -148.5 38t-55.5 108q0 49 30 86t77 57l53 21.5l55 22.5t44 22t34 28t11 32q0 28 -24.5 45t-70.5 17q-70 0 -162 -31l-22 80q91 36 190 36q85 0 141 -35q57 -35 57 -103q0 -90 -108 -135l-44 -17l-46 -17.5t-40 -18t-35.5 -22t-22 -26t-9.5 -33.5
q0 -69 105 -69q96 0 188 47l27 -79q-110 -54 -224 -54z" />
    <glyph glyph-name="uni0434" unicode="&#x434;" horiz-adv-x="666" 
d="M498 466v70h95v-479q0 -140 -76 -213t-219 -73q-100 0 -210 39l21 82q99 -33 186 -33q203 0 203 180v44q-72 -84 -188 -84t-192 79q-77 80 -77 197t79 195q79 79 195 79q111 0 183 -83zM190 139q52 -54 131 -54t131 54q52 53 52 135t-52 134q-52 54 -131 54t-131 -54
q-52 -52 -52 -134t52 -135z" />
    <glyph glyph-name="uni0435" unicode="&#x435;" 
d="M572 278q0 -10 -3 -49h-427q13 -71 60 -112t128 -41q48 0 99 16.5t88 43.5l41 -73q-42 -32 -104 -53.5t-126 -21.5q-73 0 -129.5 24t-89.5 65t-50 90t-17 103q0 120 75 200q76 79 196 79q114 0 186 -73q73 -73 73 -198zM142 312h331q-4 69 -48.5 110.5t-111.5 41.5
q-65 0 -112 -42.5t-59 -109.5z" />
    <glyph glyph-name="uni0436" unicode="&#x436;" horiz-adv-x="836" 
d="M815 75l5 -73q-33 -11 -63 -11q-28 3 -40 4.5t-28 8t-29 18.5l-23 20q-8 8 -22 29l-20 29l-22 36q-39 61 -55 73q-19 14 -39 14h-17v-225h-89v225h-16q-25 0 -43 -17t-45 -60l-6 -10q-50 -78 -74 -102q-43 -43 -111 -43q-29 0 -62 11l4 73q23 -6 47 -6q31 0 55 28
q7 8 36 49l58 83q17 23 35 34q-30 17 -51 55l-14 25l-2 6t-2 5l-1 2q0 2 -5 14l-5 12q-19 44 -31 60q-16 25 -54 25q-9 0 -36 -5l-14 72q30 11 61 11q65 0 97 -29t62 -102q1 -2 5.5 -12.5t8 -19.5t3.5 -12l7.5 -15.5t8.5 -15.5q1 -1 9 -9.5t12 -10.5q4 -1 13 -3.5t19 -4.5
t21 -2h10v227h89v-227h10q42 0 64 19q14 17 18 26l8 16l18 44q28 72 61 102q34 29 98 29q32 0 60 -11l-13 -72q-28 5 -36 5q-36 0 -55 -25q-11 -16 -15 -25l-15 -35q-4 -17 -14 -33q-1 -1 -7.5 -14.5t-9.5 -17.5q-21 -37 -50 -54q20 -12 36 -34l29 -43q51 -78 71 -99
q20 -18 49 -18q23 0 46 6z" />
    <glyph glyph-name="uni0437" unicode="&#x437;" horiz-adv-x="545" 
d="M251 -227q-127 0 -237 78l40 77q94 -68 189 -68q75 0 121 38.5t46 101.5q0 59 -41.5 93t-109.5 34h-121v87h82q80 0 126 36.5t46 94.5q0 53 -39.5 85t-100.5 32q-87 0 -176 -71l-51 67q44 40 107.5 65.5t127.5 25.5q98 0 163 -57q65 -56 65 -139q0 -57 -33 -102.5
t-92 -67.5v-4q65 -13 105 -66q40 -52 40 -122q0 -94 -71 -156t-186 -62z" />
    <glyph glyph-name="uni0438" unicode="&#x438;" horiz-adv-x="633" 
d="M463 536h95v-536h-91v77q-24 -40 -76 -65t-115 -25q-90 0 -149 53q-59 54 -59 174v322h96v-318q0 -142 128 -142q79 0 125 47.5t46 131.5v281z" />
    <glyph glyph-name="uni0439" unicode="&#x439;" horiz-adv-x="633" 
d="M317 574q-104 0 -178 93l48 52q61 -73 130 -73q73 0 131 73l49 -52q-77 -93 -180 -93zM463 536h95v-536h-91v77q-24 -40 -76 -65t-115 -25q-90 0 -149 53q-59 54 -59 174v322h96v-318q0 -142 128 -142q79 0 125 47.5t46 131.5v281z" />
    <glyph glyph-name="uni043A" unicode="&#x43a;" horiz-adv-x="545" 
d="M549 0h-126l-202 250l-51 -46v-204h-96v757h96v-438l240 217h130l-251 -225z" />
    <glyph glyph-name="uni043B" unicode="&#x43b;" horiz-adv-x="567" 
d="M116 0h-105l244 536h59l242 -536h-105l-166 391z" />
    <glyph glyph-name="uni043C" unicode="&#x43c;" horiz-adv-x="770" 
d="M169 0h-95v536h57l255 -334l252 334h57v-536h-94v346l-202 -266h-28l-202 266v-346z" />
    <glyph glyph-name="uni043D" unicode="&#x43d;" 
d="M441 313v223h95v-536h-95v230h-271v-230h-96v536h96v-223h271z" />
    <glyph glyph-name="uni043E" unicode="&#x43e;" horiz-adv-x="645" 
d="M323 -13q-123 0 -203 81q-79 82 -79 201t79 199q79 82 203 82q122 0 201 -82q80 -83 80 -199q0 -118 -80 -201q-80 -81 -201 -81zM508 269q0 79 -54 135q-54 57 -131 57t-131 -57q-54 -56 -54 -135q0 -80 54 -137t131 -57t131 57t54 137z" />
    <glyph glyph-name="uni043F" unicode="&#x43f;" horiz-adv-x="618" 
d="M170 0h-96v536h94v-76q51 90 170 90q90 0 151 -58t61 -167v-325h-95v298q0 77 -37.5 120t-99.5 43q-65 0 -107 -46q-41 -47 -41 -118v-297z" />
    <glyph glyph-name="uni0440" unicode="&#x440;" horiz-adv-x="670" 
d="M361 549q115 0 191 -82q77 -83 77 -199q0 -117 -77 -200q-76 -81 -192 -81q-117 0 -190 91v-299h-96v757h96v-81q75 94 191 94zM533 269q0 81 -51 136q-51 56 -133 56t-133 -56q-50 -56 -50 -136q0 -82 50 -138q51 -56 133 -56t133 56q51 55 51 138z" />
    <glyph glyph-name="uni0441" unicode="&#x441;" horiz-adv-x="599" 
d="M324 -12q-125 0 -204 79t-79 201t80 202q80 79 208 79q79 0 145.5 -38t97.5 -102l-79 -46q-27 46 -70.5 72t-93.5 26q-82 0 -137 -55q-54 -56 -54 -138q0 -81 53 -137q52 -55 133 -55q50 0 96.5 27t69.5 69l80 -46q-34 -63 -100 -100q-68 -38 -146 -38z" />
    <glyph glyph-name="uni0442" unicode="&#x442;" horiz-adv-x="974" 
d="M693 550q97 0 156 -63q58 -61 58 -168v-319h-96v304q0 75 -34.5 116t-94.5 41q-63 0 -103 -44t-40 -115v-302h-95v302q0 75 -35 117t-95 42q-63 0 -103.5 -44.5t-40.5 -116.5v-300h-96v536h94v-79q24 45 66.5 69.5t95.5 23.5q55 0 101 -26.5t67 -73.5q27 46 79.5 73
t115.5 27z" />
    <glyph glyph-name="uni0443" unicode="&#x443;" horiz-adv-x="555" 
d="M289 134l144 402h106l-225 -596q-33 -89 -77.5 -128.5t-108.5 -39.5q-52 0 -86 21l12 84q36 -16 65 -16q66 0 106 94l20 47l-233 534h111z" />
    <glyph glyph-name="uni0444" unicode="&#x444;" horiz-adv-x="821" 
d="M780 267q0 -125 -90 -201q-90 -75 -236 -78v-212h-87v212q-149 3 -237 79q-89 77 -89 201q0 127 91 203q92 77 235 78v208h87v-208q144 -3 235 -79t91 -203zM454 466v-397q108 2 171.5 55.5t63.5 145.5q0 90 -63 142t-172 54zM131 269q0 -92 64 -145t172 -55v397
q-109 -2 -172.5 -54t-63.5 -143z" />
    <glyph glyph-name="uni0445" unicode="&#x445;" horiz-adv-x="509" 
d="M311 271l184 -271h-111l-130 201l-130 -201h-116l189 278l-170 258h111l119 -188l121 188h113z" />
    <glyph glyph-name="uni0446" unicode="&#x446;" horiz-adv-x="677" 
d="M558 536v-408q0 -65 112 -65v-243h-88v173q-43 0 -75.5 27t-35.5 64q-21 -41 -76 -69t-119 -28q-90 0 -149 53q-59 54 -59 174v322h96v-318q0 -142 128 -142q79 0 125 47.5t46 131.5v281h95z" />
    <glyph glyph-name="uni0447" unicode="&#x447;" horiz-adv-x="560" 
d="M390 268v268h96v-536h-96v181q-77 -20 -138 -20q-211 0 -211 203v172h95v-165q0 -65 30.5 -93.5t92.5 -28.5q74 0 131 19z" />
    <glyph glyph-name="uni0448" unicode="&#x448;" horiz-adv-x="965" 
d="M795 254v282h96v-536h-90v77q-22 -39 -71 -64.5t-103 -25.5q-56 0 -99.5 25.5t-63.5 74.5q-24 -49 -75 -74.5t-115 -25.5q-40 0 -74.5 11.5t-65 37t-48.5 71t-18 107.5v322h96v-309q0 -151 122 -151q68 0 107 47t39 131v282h95v-318q0 -69 31.5 -105.5t89.5 -36.5
q67 0 107 49t40 129z" />
    <glyph glyph-name="uni0449" unicode="&#x449;" horiz-adv-x="1010" 
d="M891 536v-408q0 -65 109 -65v-243h-87v173q-43 0 -74.5 26.5t-35.5 64.5q-21 -43 -70.5 -70t-109.5 -27q-57 0 -99 25t-60 74q-24 -48 -75.5 -73.5t-113.5 -25.5q-40 0 -75 11.5t-66 37t-48.5 71t-17.5 107.5v322h96v-309q0 -151 122 -151q68 0 107 47t39 131v282h95
v-318q0 -69 31.5 -105.5t88.5 -36.5q68 0 108 49t40 129v282h96z" />
    <glyph glyph-name="uni044A" unicode="&#x44a;" horiz-adv-x="643" 
d="M384 431q98 0 161 -64q63 -63 63 -159q0 -92 -60 -157q-58 -64 -174 -64q-106 0 -163 59q-63 72 -61 189v214h-140v87h235v-145q61 40 139 40zM376 74q64 0 100 37.5t36 98.5t-36 97.5t-102 36.5q-74 0 -129 -43v-69q0 -158 131 -158z" />
    <glyph glyph-name="uni044B" unicode="&#x44b;" horiz-adv-x="757" 
d="M169 355h131q124 0 172 -61q43 -50 43 -116q0 -73 -53 -126q-52 -52 -157 -52h-231v536h95v-181zM587 0v536h95v-536h-95zM169 82h125q126 0 126 98q0 41 -30 67t-89 26h-132v-191z" />
    <glyph glyph-name="uni044C" unicode="&#x44c;" horiz-adv-x="560" 
d="M301 431q99 0 162 -64q63 -63 63 -159q0 -92 -60 -157q-58 -64 -174 -64q-106 0 -163 59q-66 75 -62 189v301h96v-144q61 39 138 39zM293 74q65 0 101 37.5t36 98.5t-36 97.5t-102 36.5q-74 0 -129 -42v-70q0 -158 130 -158z" />
    <glyph glyph-name="uni044D" unicode="&#x44d;" horiz-adv-x="603" 
d="M280 549q123 0 202 -79q80 -80 80 -202t-79 -201q-78 -79 -199 -79q-83 0 -150 38t-100 100l78 46q24 -42 71 -69t100 -27q66 0 116 42.5t63 108.5h-231v84h231q-14 67 -64.5 109t-119.5 42q-53 0 -97 -26.5t-72 -72.5l-78 46q33 66 100 103t149 37z" />
    <glyph glyph-name="uni044E" unicode="&#x44e;" horiz-adv-x="844" 
d="M522 550q122 0 201 -82q80 -83 80 -199q0 -118 -80 -201q-79 -81 -201 -81q-112 0 -188 67t-91 170h-73v-224h-96v757h96v-451h72q14 105 90 174q77 70 190 70zM707 269q0 79 -54 135q-54 57 -131 57t-131 -57q-54 -56 -54 -135q0 -80 54 -137t131 -57t131 57t54 137z
" />
    <glyph glyph-name="uni044F" unicode="&#x44f;" horiz-adv-x="554" 
d="M268 536h211v-536h-95v203q-39 -7 -112 -7l-131 -196h-110l145 206q-59 18 -91 60.5t-32 98.5q0 75 56 123t159 48zM275 276q71 0 109 7v171h-115q-121 0 -121 -88q0 -90 127 -90z" />
    <glyph glyph-name="uni0451" unicode="&#x451;" 
d="M220 592q-30 0 -50 19.5t-20 50.5q0 28 20 47t50 19q28 0 47.5 -19t19.5 -47q0 -30 -19.5 -50t-47.5 -20zM418 592q-30 0 -49.5 20t-19.5 50q0 28 20 47t49 19t48.5 -19t19.5 -47q0 -30 -19.5 -50t-48.5 -20zM572 278q0 -10 -3 -49h-427q13 -71 60 -112t128 -41
q48 0 99 16.5t88 43.5l41 -73q-42 -32 -104 -53.5t-126 -21.5q-73 0 -129.5 24t-89.5 65t-50 90t-17 103q0 120 75 200q76 79 196 79q114 0 186 -73q73 -73 73 -198zM142 312h331q-4 69 -48.5 110.5t-111.5 41.5q-65 0 -112 -42.5t-59 -109.5z" />
    <glyph glyph-name="Wgrave" unicode="&#x1e80;" horiz-adv-x="1029" 
d="M502 962l60 -168h-84l-94 168h118zM321 0h-56l-254 739h106l178 -541l196 541h45l201 -541l175 541h105l-252 -739h-55l-195 552z" />
    <glyph glyph-name="wgrave" unicode="&#x1e81;" horiz-adv-x="840" 
d="M413 789l59 -167h-83l-93 167h117zM274 1h-79l-184 535h101l127 -402l146 402h67l152 -402l122 402h100l-179 -535h-80l-148 401z" />
    <glyph glyph-name="Wacute" unicode="&#x1e82;" horiz-adv-x="1029" 
d="M563 793h-84l59 168h118zM321 0h-56l-254 739h106l178 -541l196 541h45l201 -541l175 541h105l-252 -739h-55l-195 552z" />
    <glyph glyph-name="wacute" unicode="&#x1e83;" horiz-adv-x="840" 
d="M466 623h-83l59 167h117zM274 1h-79l-184 535h101l127 -402l146 402h67l152 -402l122 402h100l-179 -535h-80l-148 401z" />
    <glyph glyph-name="Wdieresis" unicode="&#x1e84;" horiz-adv-x="1029" 
d="M427 806q-27 0 -45.5 18t-18.5 45q0 25 18.5 42.5t45.5 17.5q25 0 42.5 -17.5t17.5 -42.5q0 -27 -17.5 -45t-42.5 -18zM606 806q-27 0 -45 18t-18 45q0 25 18.5 42.5t44.5 17.5t43.5 -17.5t17.5 -42.5q0 -27 -17.5 -45t-43.5 -18zM321 0h-56l-254 739h106l178 -541
l196 541h45l201 -541l175 541h105l-252 -739h-55l-195 552z" />
    <glyph glyph-name="wdieresis" unicode="&#x1e85;" horiz-adv-x="840" 
d="M321 616q-30 0 -50 19.5t-20 50.5q0 28 20 47t50 19q28 0 47.5 -19t19.5 -47q0 -30 -19.5 -50t-47.5 -20zM450 686q0 28 20 47t49 19t48.5 -19t19.5 -47q0 -30 -19.5 -50t-48.5 -20t-49 20t-20 50zM274 1h-79l-184 535h101l127 -402l146 402h67l152 -402l122 402h100
l-179 -535h-80l-148 401z" />
    <glyph glyph-name="Ygrave" unicode="&#x1ef2;" horiz-adv-x="639" 
d="M312 962l60 -168h-84l-94 168h118zM511 739h111l-253 -473v-266h-100v266l-250 473h111l189 -374z" />
    <glyph glyph-name="ygrave" unicode="&#x1ef3;" horiz-adv-x="555" 
d="M279 790l59 -167h-83l-93 167h117zM290 134l144 402h106l-225 -596q-33 -89 -77.5 -128.5t-108.5 -39.5q-51 0 -86 21l12 84q36 -16 65 -16q66 0 106 94l20 47l-233 534h111z" />
    <glyph glyph-name="uni2009" unicode="&#x2009;" horiz-adv-x="78" 
 />
    <glyph glyph-name="endash" unicode="&#x2013;" horiz-adv-x="716" 
d="M650 232h-584v90h584v-90z" />
    <glyph glyph-name="emdash" unicode="&#x2014;" horiz-adv-x="1035" 
d="M969 232h-903v90h903v-90z" />
    <glyph glyph-name="quoteleft" unicode="&#x2018;" horiz-adv-x="236" 
d="M118 643h4q23 0 39 -17t16 -41q0 -26 -19 -44t-46 -18q-29 0 -49 21.5t-20 52.5q0 86 124 165l30 -43q-60 -48 -74 -67q-4 -6 -5 -9z" />
    <glyph glyph-name="quoteright" unicode="&#x2019;" horiz-adv-x="234" 
d="M130 759q30 0 49.5 -21t19.5 -53q0 -85 -124 -164l-30 43q64 47 79 75h-4q-23 0 -39 17t-16 41q0 26 19 44t46 18z" />
    <glyph glyph-name="quotesinglbase" unicode="&#x201a;" horiz-adv-x="242" 
d="M119 108q30 0 49.5 -21t19.5 -53q0 -85 -124 -164l-30 43q64 47 79 75h-4q-23 0 -39 17t-16 41q0 26 19 44t46 18z" />
    <glyph glyph-name="quotedblleft" unicode="&#x201c;" horiz-adv-x="476" 
d="M171 762l30 -43q-60 -48 -74 -67q-4 -6 -5 -9h4q23 0 39 -17t16 -41q0 -26 -19 -44t-46 -18q-29 0 -49 21.5t-20 52.5q0 86 124 165zM358 643h4q23 0 39 -17t16 -41q0 -26 -19 -44t-46 -18q-29 0 -49 21.5t-20 52.5q0 86 124 165l30 -43q-60 -48 -74 -67q-4 -6 -5 -9z
" />
    <glyph glyph-name="quotedblright" unicode="&#x201d;" horiz-adv-x="466" 
d="M127 763q29 0 49 -21.5t20 -52.5q0 -86 -124 -165l-30 43q60 48 74 67q4 6 5 9h-4q-23 0 -39 17t-16 41q0 26 19 44t46 18zM361 763q29 0 49 -21.5t20 -52.5q0 -86 -124 -165l-30 43q60 48 74 67q4 6 5 9h-4q-23 0 -39 17t-16 41q0 26 19 44t46 18z" />
    <glyph glyph-name="quotedblbase" unicode="&#x201e;" horiz-adv-x="471" 
d="M115 107q29 0 49 -21.5t20 -52.5q0 -86 -124 -165l-30 43q60 48 74 67q4 6 5 9h-4q-23 0 -39 17t-16 41q0 26 19 44t46 18zM349 107q29 0 49 -21.5t20 -52.5q0 -86 -124 -165l-30 43q60 48 74 67q4 6 5 9h-4q-23 0 -39 17t-16 41q0 26 19 44t46 18z" />
    <glyph glyph-name="dagger" unicode="&#x2020;" horiz-adv-x="481" 
d="M285 511h160v-83h-160v-606h-89v606h-160v83h160v338h89v-338z" />
    <glyph glyph-name="daggerdbl" unicode="&#x2021;" horiz-adv-x="481" 
d="M445 553v-83h-160v-270h160v-83h-160v-295h-89v295h-160v83h160v270h-160v83h160v296h89v-296h160z" />
    <glyph glyph-name="bullet" unicode="&#x2022;" horiz-adv-x="419" 
d="M209 207q-55 0 -95 39q-39 41 -39 95q0 56 39 95q40 40 95 40q56 0 95 -40q40 -39 40 -95q0 -55 -40 -95q-39 -39 -95 -39z" />
    <glyph glyph-name="ellipsis" unicode="&#x2026;" horiz-adv-x="698" 
d="M51 49q0 26 18.5 44t45.5 18t45.5 -18t18.5 -44q0 -28 -18.5 -46.5t-45.5 -18.5t-45.5 18.5t-18.5 46.5zM284 49q0 26 18.5 44t45.5 18t45.5 -18t18.5 -44q0 -28 -18.5 -46.5t-45.5 -18.5t-45.5 18.5t-18.5 46.5zM518 49q0 26 18.5 44t45.5 18t45.5 -18t18.5 -44
q0 -28 -18.5 -46.5t-45.5 -18.5t-45.5 18.5t-18.5 46.5z" />
    <glyph glyph-name="perthousand" unicode="&#x2030;" horiz-adv-x="1295" 
d="M354 441q-56 -53 -132 -53q-77 0 -133 53q-55 54 -55 129q0 76 55 128q56 54 133 54q76 0 132 -54q55 -52 55 -128q0 -75 -55 -129zM215 0h-100l544 739h101zM222 678q-47 0 -78 -31t-31 -77t31.5 -77.5t77.5 -31.5t77.5 31.5t31.5 77.5t-31.5 77t-77.5 31zM470 168
q0 75 55 129t133 54t133 -54q56 -54 56 -129q0 -74 -56 -127t-133 -53t-133 53q-55 52 -55 127zM894 168q0 76 55 128q55 54 133 54t133 -54q56 -53 56 -128q0 -74 -56 -127t-133 -53t-133 53q-55 52 -55 127zM658 61q47 0 78.5 30.5t31.5 76.5q0 47 -31.5 79t-78.5 32
q-46 0 -77.5 -32t-31.5 -79q0 -45 32 -76t77 -31zM1082 60q47 0 78.5 31t31.5 77q0 47 -31.5 79t-78.5 32q-46 0 -77.5 -32t-31.5 -79q0 -45 32 -76.5t77 -31.5z" />
    <glyph glyph-name="guilsinglleft" unicode="&#x2039;" horiz-adv-x="331" 
d="M278 88h-95l-142 203l142 203h95l-143 -203z" />
    <glyph glyph-name="guilsinglright" unicode="&#x203a;" horiz-adv-x="331" 
d="M290 291l-142 -203h-95l143 203l-143 203h95z" />
    <glyph glyph-name="fraction" unicode="&#x2044;" horiz-adv-x="191" 
d="M-148 0h-86l578 739h84z" />
    <glyph glyph-name="uni2070" unicode="&#x2070;" horiz-adv-x="372" 
d="M307 560q-41 -59 -121 -59q-81 0 -122 59q-40 59 -40 146t40 146q41 60 122 60q80 0 121 -60q41 -61 41 -146t-41 -146zM274 706q0 62 -22.5 99.5t-65.5 37.5t-65.5 -37.5t-22.5 -99.5q0 -63 22 -100t66 -37t66 37t22 100z" />
    <glyph glyph-name="uni2074" unicode="&#x2074;" horiz-adv-x="366" 
d="M284 662h44v-57h-44v-98h-63v98h-185l-15 41l214 257h49v-241zM221 799l-115 -137h115v137z" />
    <glyph glyph-name="uni2075" unicode="&#x2075;" horiz-adv-x="347" 
d="M176 763q59 0 97 -36.5t38 -92.5q0 -58 -42 -96q-41 -38 -106 -38q-72 0 -134 47l30 54q50 -38 100 -38q36 0 59.5 20.5t23.5 51.5q0 30 -21.5 50t-55.5 20q-41 0 -71 -30l-40 29l24 199h207v-60h-157l-12 -92q27 12 60 12z" />
    <glyph glyph-name="uni2076" unicode="&#x2076;" horiz-adv-x="348" 
d="M190 763q57 0 94.5 -36.5t37.5 -92.5q0 -58 -40.5 -96t-103.5 -38q-74 0 -115 54q-40 55 -40 138q0 92 45 156q46 64 133 64q63 0 110 -34l-29 -51q-35 25 -77 25q-54 0 -84 -43q-31 -43 -32 -96q32 50 101 50zM179 706q-33 0 -55 -20.5t-22 -52.5q-2 -31 22 -52.5
t54 -21t54 21.5q22 24 22.5 53t-21.5 51.5t-54 20.5z" />
    <glyph glyph-name="uni2077" unicode="&#x2077;" horiz-adv-x="288" 
d="M14 838v61h262v-46l-156 -346h-74l151 331h-183z" />
    <glyph glyph-name="uni2078" unicode="&#x2078;" horiz-adv-x="383" 
d="M41 615q0 33 22 61t59 42v1q-64 28 -64 87q0 46 37 76t96 30t96.5 -30t37.5 -76q0 -58 -65 -87v-2q38 -13 60 -41t22 -61q0 -49 -42 -81.5t-109 -32.5q-68 0 -109 31.5t-41 82.5zM257 799q0 24 -18.5 40t-47.5 16t-48 -16t-19 -40t18.5 -39.5t48.5 -15.5t48 15.5t18 39.5
zM271 624q0 27 -22 45t-58 18t-58 -18t-22 -45q0 -28 22.5 -46.5t57.5 -18.5t57.5 18.5t22.5 46.5z" />
    <glyph glyph-name="uni2079" unicode="&#x2079;" horiz-adv-x="375" 
d="M181 912q74 0 113 -52t39 -142q0 -93 -44 -155t-129 -62q-69 0 -111 33l26 52q37 -25 81 -25q52 0 81.5 38.5t31.5 101.5q-36 -52 -101 -52q-57 0 -94 36.5t-37 91.5q0 59 40 97t104 38zM179 706q32 0 54 20.5t22 51.5q0 32 -21.5 53.5t-53.5 21.5q-33 0 -54.5 -21.5
t-21.5 -53.5t21 -52t54 -20z" />
    <glyph glyph-name="uni2080" unicode="&#x2080;" horiz-adv-x="372" 
d="M307 -101q-41 -60 -121 -60q-81 0 -122 60q-40 58 -40 145t40 146q41 60 122 60q80 0 121 -60q41 -61 41 -146q0 -86 -41 -145zM274 44q0 62 -22.5 99.5t-65.5 37.5t-65.5 -37.5t-22.5 -99.5q0 -63 22 -100t66 -37t66 37t22 100z" />
    <glyph glyph-name="uni2081" unicode="&#x2081;" horiz-adv-x="265" 
d="M18 131l132 106h54v-392h-72v293l-76 -61z" />
    <glyph glyph-name="uni2082" unicode="&#x2082;" horiz-adv-x="344" 
d="M244 16l-101 -106h159v-65h-262v58l130 132q56 59 56 93q0 25 -17.5 40.5t-44.5 15.5q-46 0 -94 -45l-37 53q59 58 135 58q57 0 93.5 -33.5t36.5 -87.5q0 -55 -54 -113z" />
    <glyph glyph-name="uni2083" unicode="&#x2083;" horiz-adv-x="331" 
d="M147 -161q-69 0 -130 39l30 56q56 -32 98 -32q35 0 54.5 15.5t19.5 42.5q0 26 -20.5 42t-54.5 16h-51v61h48q30 0 50 15t20 39t-18.5 38.5t-45.5 14.5q-40 0 -85 -33l-35 50q50 47 127 47q56 0 92.5 -30t36.5 -75q0 -32 -19.5 -56.5t-51.5 -34.5v-2q38 -8 59 -34t21 -63
q0 -51 -40.5 -83.5t-104.5 -32.5z" />
    <glyph glyph-name="uni2084" unicode="&#x2084;" horiz-adv-x="366" 
d="M284 0h44v-57h-44v-98h-63v98h-185l-15 41l214 257h49v-241zM221 137l-115 -137h115v137z" />
    <glyph glyph-name="uni2085" unicode="&#x2085;" horiz-adv-x="347" 
d="M176 101q59 0 97 -36.5t38 -92.5q0 -58 -42 -96q-41 -38 -106 -38q-72 0 -134 47l30 54q50 -38 100 -38q36 0 59.5 20.5t23.5 51.5q0 30 -21.5 50t-55.5 20q-41 0 -71 -30l-40 29l24 199h207v-60h-157l-12 -92q27 12 60 12z" />
    <glyph glyph-name="uni2086" unicode="&#x2086;" horiz-adv-x="348" 
d="M190 101q57 0 94.5 -36.5t37.5 -92.5q0 -58 -40.5 -96t-103.5 -38q-75 0 -115 55q-40 53 -40 137q0 92 45 156q46 64 133 64q63 0 110 -34l-29 -51q-35 25 -77 25q-54 0 -84 -43q-31 -43 -32 -96q32 50 101 50zM179 44q-33 0 -55 -20.5t-22 -52.5q-2 -30 22 -51.5t54 -21
t54 21.5q22 23 22.5 51.5t-21.5 51.5t-54 21z" />
    <glyph glyph-name="uni2087" unicode="&#x2087;" horiz-adv-x="288" 
d="M14 176v61h262v-46l-156 -346h-74l151 331h-183z" />
    <glyph glyph-name="uni2088" unicode="&#x2088;" horiz-adv-x="383" 
d="M41 -47q0 33 22 61t59 42v1q-64 28 -64 87q0 46 37 76t96 30t96.5 -30t37.5 -76q0 -58 -65 -87v-2q38 -13 60 -41t22 -61q0 -49 -42 -81.5t-109 -32.5q-68 0 -109 31.5t-41 82.5zM257 137q0 24 -18.5 40t-47.5 16t-48 -16t-19 -40t18.5 -39.5t48.5 -15.5t48 15.5t18 39.5
zM271 -38q0 27 -22 45t-58 18t-58 -18t-22 -45q0 -28 22.5 -46.5t57.5 -18.5t57.5 18.5t22.5 46.5z" />
    <glyph glyph-name="uni2089" unicode="&#x2089;" horiz-adv-x="375" 
d="M181 250q74 0 113 -52t39 -142q0 -93 -44 -155t-129 -62q-69 0 -111 33l26 52q37 -25 81 -25q52 0 81.5 38.5t31.5 101.5q-36 -52 -101 -52q-57 0 -94 36.5t-37 91.5q0 59 40 97t104 38zM179 44q32 0 54 20.5t22 51.5q0 32 -21.5 53.5t-53.5 21.5q-33 0 -54.5 -21.5
t-21.5 -53.5t21 -52t54 -20z" />
    <glyph glyph-name="Euro" unicode="&#x20ac;" horiz-adv-x="748" 
d="M537 255h-296q30 -81 96.5 -128.5t150.5 -47.5q94 0 191 54v-95q-86 -49 -195 -49q-123 0 -218 73q-94 73 -129 193h-105l34 80h56q-2 34 0 68h-83l34 80h63q34 121 129 195q97 74 219 74q130 0 228 -69l-46 -79q-79 58 -176 58q-84 0 -151 -49t-97 -130h384l-36 -80
h-367q-2 -30 -2 -35q0 -3 2 -33h345z" />
    <glyph glyph-name="trademark" unicode="&#x2122;" horiz-adv-x="816" 
d="M134 682h-99v57h267v-57h-99v-293h-69v293zM536 526l171 213h28v-350h-64v209l-124 -155h-21l-122 154v-208h-65v350h29z" />
    <glyph glyph-name="estimated" unicode="&#x212e;" horiz-adv-x="960" 
d="M487 -17q-184 0 -312 110q-127 109 -127 273q0 165 127 274q127 111 312 111q183 0 310 -109q129 -109 129 -281v-21q0 -5 -7 -5h-686v-230q0 -3 4 -4q103 -72 250 -72q103 0 189 37t137 105l35 -29q-60 -75 -155.5 -117t-205.5 -42zM233 628v-243h508v244q0 3 -3 4
q-106 73 -251 73q-146 0 -252 -73q-2 -2 -2 -5z" />
    <glyph glyph-name="uni2150" unicode="&#x2150;" horiz-adv-x="852" 
d="M226 346h-73v293l-75 -60l-39 54l132 106h55v-393zM95 0l578 739h83l-576 -739h-85zM541 331v61h262v-46l-156 -346h-74l151 331h-183z" />
    <glyph glyph-name="uni2151" unicode="&#x2151;" horiz-adv-x="865" 
d="M222 346h-73v293l-75 -60l-39 54l132 106h55v-393zM83 0l578 739h84l-577 -739h-85zM677 405q74 0 113 -52t39 -142q0 -93 -44 -155t-129 -62q-69 0 -111 33l26 52q37 -25 81 -25q52 0 81.5 38.5t31.5 101.5q-36 -52 -101 -52q-58 0 -94.5 36t-36.5 92q0 59 40 97t104 38
zM675 199q32 0 54 20.5t22 51.5q0 32 -21.5 53.5t-53.5 21.5q-33 0 -54.5 -21.5t-21.5 -53.5t21 -52t54 -20z" />
    <glyph glyph-name="uni2153" unicode="&#x2153;" horiz-adv-x="838" 
d="M222 346h-73v293l-75 -60l-39 54l132 106h55v-393zM82 0l578 739h83l-576 -739h-85zM719 210v-2q38 -8 59 -34t21 -63q0 -51 -40.5 -83.5t-104.5 -32.5q-68 0 -130 39l30 56q56 -32 98 -32q35 0 54.5 15.5t19.5 42.5q0 26 -20.5 42t-54.5 16h-51v61h48q30 0 50 15t20 39
t-18.5 38.5t-45.5 14.5q-40 0 -85 -33l-35 50q50 47 127 47q56 0 92.5 -30t36.5 -75q0 -32 -19.5 -56.5t-51.5 -34.5z" />
    <glyph glyph-name="uni2154" unicode="&#x2154;" horiz-adv-x="841" 
d="M45 347v58l130 132q56 59 56 93q0 25 -17.5 40.5t-44.5 15.5q-46 0 -94 -45l-37 53q59 58 135 58q57 0 93.5 -33.5t36.5 -87.5q0 -55 -54 -113l-101 -106h159v-65h-262zM119 0l578 739h84l-576 -739h-86zM702 208v-2q38 -8 59 -34t21 -63q0 -51 -40.5 -83.5t-104.5 -32.5
q-69 0 -130 39l30 56q56 -32 98 -32q35 0 54.5 15.5t19.5 42.5q0 26 -20.5 42t-54.5 16h-51v61h48q30 0 50 15t20 39t-18.5 38.5t-45.5 14.5q-40 0 -85 -33l-35 50q50 47 127 47q56 0 92.5 -30t36.5 -75q0 -32 -19.5 -56.5t-51.5 -34.5z" />
    <glyph glyph-name="uni2155" unicode="&#x2155;" horiz-adv-x="839" 
d="M222 346h-73v293l-75 -60l-39 54l132 106h55v-393zM78 0l578 739h84l-576 -739h-86zM675 256q59 0 97 -36.5t38 -92.5q0 -59 -42 -96q-41 -38 -106 -38q-72 0 -134 47l30 54q50 -38 100 -38q36 0 59.5 20.5t23.5 51.5q0 30 -21.5 50t-55.5 20q-41 0 -71 -30l-40 29
l24 199h207v-60h-157l-12 -92q27 12 60 12z" />
    <glyph glyph-name="uni2156" unicode="&#x2156;" horiz-adv-x="846" 
d="M45 347v58l130 132q56 59 56 93q0 25 -17.5 40.5t-44.5 15.5q-46 0 -94 -45l-37 53q59 58 135 58q57 0 93.5 -33.5t36.5 -87.5q0 -55 -54 -113l-101 -106h159v-65h-262zM119 0l578 739h83l-576 -739h-85zM671 256q59 0 97 -36.5t38 -92.5q0 -59 -42 -96q-41 -38 -106 -38
q-72 0 -134 47l30 54q50 -38 100 -38q36 0 59.5 20.5t23.5 51.5q0 30 -21.5 50t-55.5 20q-41 0 -71 -30l-40 29l24 199h207v-60h-157l-12 -92q27 12 60 12z" />
    <glyph glyph-name="uni2157" unicode="&#x2157;" horiz-adv-x="828" 
d="M151 404q35 0 54.5 15.5t19.5 42.5q0 26 -20.5 42t-54.5 16h-51v61h48q30 0 50 15t20 39t-18.5 38.5t-45.5 14.5q-40 0 -85 -33l-35 50q50 47 127 47q56 0 92.5 -30t36.5 -75q0 -32 -19.5 -56.5t-51.5 -34.5v-2q38 -8 59 -34t21 -63q0 -51 -40.5 -83.5t-104.5 -32.5
q-69 0 -130 39l30 56q56 -32 98 -32zM99 0l578 739h84l-576 -739h-86zM653 256q59 0 97 -36.5t38 -92.5q0 -59 -42 -96q-41 -38 -106 -38q-72 0 -134 47l30 54q50 -38 100 -38q36 0 59.5 20.5t23.5 51.5q0 30 -21.5 50t-55.5 20q-41 0 -71 -30l-40 29l24 199h207v-60h-157
l-12 -92q27 12 60 12z" />
    <glyph glyph-name="uni2158" unicode="&#x2158;" horiz-adv-x="879" 
d="M293 347h-63v98h-185l-15 41l214 257h49v-241h44v-57h-44v-98zM148 0l578 739h83l-576 -739h-85zM230 639l-115 -137h115v137zM693 256q59 0 97 -36.5t38 -92.5q0 -59 -42 -96q-41 -38 -106 -38q-72 0 -134 47l30 54q50 -38 100 -38q36 0 59.5 20.5t23.5 51.5
q0 30 -21.5 50t-55.5 20q-41 0 -71 -30l-40 29l24 199h207v-60h-157l-12 -92q27 12 60 12z" />
    <glyph glyph-name="uni2159" unicode="&#x2159;" horiz-adv-x="843" 
d="M149 346v293l-75 -60l-39 54l132 106h55v-393h-73zM72 0l578 739h84l-576 -739h-86zM663 256q59 0 97 -36.5t38 -92.5q0 -59 -42 -96q-41 -38 -106 -38q-72 0 -134 47l30 54q50 -38 100 -38q36 0 59.5 20.5t23.5 51.5q0 30 -21.5 50t-55.5 20q-41 0 -71 -30l-40 29
l24 199h207v-60h-157l-12 -92q27 12 60 12z" />
    <glyph glyph-name="uni215A" unicode="&#x215a;" horiz-adv-x="857" 
d="M164 403q36 0 59.5 20.5t23.5 51.5q0 30 -21.5 50t-55.5 20q-41 0 -71 -30l-40 29l24 199h207v-60h-157l-12 -92q27 12 60 12q59 0 97 -36.5t38 -92.5q0 -58 -42 -96q-41 -38 -106 -38q-72 0 -134 47l30 54q50 -38 100 -38zM110 0l578 739h84l-576 -739h-86zM666 256
q57 0 94.5 -36.5t37.5 -92.5q0 -58 -40.5 -96t-103.5 -38q-74 0 -115 54q-40 55 -40 138q0 91 45 156q46 64 133 64q63 0 110 -34l-29 -51q-35 25 -77 25q-54 0 -84 -43q-31 -43 -32 -96q32 50 101 50zM655 199q-33 0 -55 -20.5t-22 -52.5q-2 -31 22 -52.5t54 -21t54 21.5
q22 24 22.5 53t-21.5 51.5t-54 20.5z" />
    <glyph glyph-name="oneeighth" unicode="&#x215b;" horiz-adv-x="867" 
d="M222 346h-73v293l-75 -60l-39 54l132 106h55v-393zM90 0l578 739h84l-576 -739h-86zM748 212v-2q38 -13 60 -41t22 -61q0 -49 -42 -81.5t-109 -32.5q-68 0 -109 31.5t-41 82.5q0 33 22 61t59 42v1q-64 28 -64 87q0 46 37 76t96 30t96.5 -30t37.5 -76q0 -58 -65 -87z
M612 292q0 -24 18.5 -39.5t48.5 -15.5t48 15.5t18 39.5t-18.5 40t-47.5 16t-48 -16t-19 -40zM759 117q0 27 -22 45t-58 18t-58 -18t-22 -45q0 -28 22.5 -46.5t57.5 -18.5t57.5 18.5t22.5 46.5z" />
    <glyph glyph-name="threeeighths" unicode="&#x215c;" horiz-adv-x="864" 
d="M152 341q-68 0 -130 39l30 56q56 -32 98 -32q35 0 54.5 15.5t19.5 42.5q0 26 -20.5 42t-54.5 16h-51v61h48q30 0 50 15t20 39t-18.5 38.5t-45.5 14.5q-40 0 -85 -33l-35 50q50 47 127 47q56 0 92.5 -30t36.5 -75q0 -32 -19.5 -56.5t-51.5 -34.5v-2q38 -8 59 -34t21 -63
q0 -51 -40.5 -83.5t-104.5 -32.5zM194 0h-86l578 739h84zM527 108q0 33 22 61t59 42v1q-64 28 -64 87q0 46 37 76t96 30t96.5 -30t37.5 -76q0 -58 -65 -87v-2q38 -13 60 -41t22 -61q0 -49 -42 -81.5t-109 -32.5q-68 0 -109 31.5t-41 82.5zM743 292q0 24 -18.5 40t-47.5 16
t-48 -16t-19 -40t18.5 -39.5t48.5 -15.5t48 15.5t18 39.5zM757 117q0 27 -22 45t-58 18t-58 -18t-22 -45q0 -28 22.5 -46.5t57.5 -18.5t57.5 18.5t22.5 46.5z" />
    <glyph glyph-name="fiveeighths" unicode="&#x215d;" horiz-adv-x="864" 
d="M164 403q36 0 59.5 20.5t23.5 51.5q0 30 -21.5 50t-55.5 20q-41 0 -71 -30l-40 29l24 199h207v-60h-157l-12 -92q27 12 60 12q59 0 97 -36.5t38 -92.5q0 -58 -42 -96q-41 -38 -106 -38q-72 0 -134 47l30 54q50 -38 100 -38zM108 0l578 739h84l-576 -739h-86zM746 212v-2
q38 -13 60 -41t22 -61q0 -49 -42 -81.5t-109 -32.5q-68 0 -109 31.5t-41 82.5q0 33 22 61t59 42v1q-64 28 -64 87q0 46 37 76t96 30t96.5 -30t37.5 -76q0 -58 -65 -87zM610 292q0 -24 18.5 -39.5t48.5 -15.5t48 15.5t18 39.5t-18.5 40t-47.5 16t-48 -16t-19 -40zM757 117
q0 27 -22 45t-58 18t-58 -18t-22 -45q0 -28 22.5 -46.5t57.5 -18.5t57.5 18.5t22.5 46.5z" />
    <glyph glyph-name="seveneighths" unicode="&#x215e;" horiz-adv-x="814" 
d="M127 347h-74l151 331h-183v61h262v-46zM49 0l578 739h83l-576 -739h-85zM696 212v-2q38 -13 60 -41t22 -61q0 -49 -42 -81.5t-109 -32.5q-68 0 -109 31.5t-41 82.5q0 33 22 61t59 42v1q-64 28 -64 87q0 46 37 76t96 30t96.5 -30t37.5 -76q0 -58 -65 -87zM560 292
q0 -24 18.5 -39.5t48.5 -15.5t48 15.5t18 39.5t-18.5 40t-47.5 16t-48 -16t-19 -40zM707 117q0 27 -22 45t-58 18t-58 -18t-22 -45q0 -28 22.5 -46.5t57.5 -18.5t57.5 18.5t22.5 46.5z" />
    <glyph glyph-name="partialdiff" unicode="&#x2202;" horiz-adv-x="625" 
d="M291 -12q-107 0 -178 72q-71 73 -71 180q0 109 69 181q70 73 174 73q66 0 121 -34t80 -89q-4 109 -77 207q-71 99 -196 155l56 63q86 -39 157 -110q149 -140 150 -349q0 -149 -81 -250q-81 -99 -204 -99zM292 72q70 0 118 50t48 122t-48 118q-46 48 -115 48
q-70 0 -116 -49t-46 -121q0 -70 45 -119t114 -49z" />
    <glyph glyph-name="product" unicode="&#x220f;" horiz-adv-x="734" 
d="M36 734h663v-97h-97v-755h-99v755h-271v-755h-100v755h-96v97z" />
    <glyph glyph-name="summation" unicode="&#x2211;" horiz-adv-x="638" 
d="M603 -179h-557v88l218 370l-218 372v88h557v-99h-434l208 -361l-208 -359h434v-99z" />
    <glyph glyph-name="minus" unicode="&#x2212;" horiz-adv-x="602" 
d="M532 293h-462v90h462v-90z" />
    <glyph glyph-name="radical" unicode="&#x221a;" horiz-adv-x="679" 
d="M365 -118h-83l-170 432h-111v91h183l141 -370l262 773h108z" />
    <glyph glyph-name="infinity" unicode="&#x221e;" horiz-adv-x="913" 
d="M674 560q76 0 133 -57q57 -55 57 -134q0 -78 -58 -135q-57 -57 -134 -57q-53 0 -100 31q-49 32 -116 105q-69 -75 -117.5 -105.5t-101.5 -30.5q-76 0 -133 57t-57 135q0 79 57 134q59 57 136 57q52 0 100 -30q48 -29 117 -104q67 73 116 103.5t101 30.5zM238 254
q36 0 71 24q36 25 96 91q-64 67 -97 90q-34 24 -65 24q-47 0 -81 -34q-33 -35 -33 -82q0 -48 31 -80q32 -33 78 -33zM668 254q46 0 81 33q34 34 34 83q0 46 -32 80q-31 33 -78 33q-37 0 -71 -24q-32 -21 -95 -90q62 -68 95 -92q34 -23 66 -23z" />
    <glyph glyph-name="integral" unicode="&#x222b;" horiz-adv-x="429" 
d="M88 -210q-59 0 -109 32l30 74q35 -21 70 -21q41 0 65.5 28t24.5 85v641q0 92 47 143.5t123 51.5q59 0 112 -33l-32 -74q-34 22 -70 22q-41 0 -65 -28t-24 -86v-641q0 -91 -48 -142.5t-124 -51.5z" />
    <glyph glyph-name="approxequal" unicode="&#x2248;" horiz-adv-x="658" 
d="M430 395q-48 0 -115 33q-65 34 -94 34q-30 0 -52.5 -13.5t-47.5 -46.5l-61 45q57 99 167 99q47 0 114 -34t95 -34q31 0 53 13.5t47 47.5l62 -46q-59 -98 -168 -98zM432 198q-48 0 -115 33q-65 34 -94 34q-30 0 -52.5 -13.5t-47.5 -46.5l-61 45q57 99 167 99q47 0 114 -34
t95 -34q31 0 53 13.5t47 47.5l62 -46q-59 -98 -168 -98z" />
    <glyph glyph-name="notequal" unicode="&#x2260;" horiz-adv-x="602" 
d="M532 458v-86h-174l-40 -89h214v-86h-253l-50 -112h-76l50 112h-133v86h172l40 89h-212v86h250l51 113h76l-51 -113h136z" />
    <glyph glyph-name="lessequal" unicode="&#x2264;" horiz-adv-x="590" 
d="M513 290v-98l-449 200v58l449 198v-97l-316 -130zM513 140v-84h-457v84h457z" />
    <glyph glyph-name="greaterequal" unicode="&#x2265;" horiz-adv-x="590" 
d="M526 392l-449 -200v98l316 131l-316 130v97l449 -198v-58zM534 56h-457v84h457v-84z" />
    <glyph glyph-name="lozenge" unicode="&#x25ca;" horiz-adv-x="701" 
d="M389 -42h-77l-280 418l280 416h77l280 -416zM143 378l207 -319l208 319l-208 315z" />
    <glyph glyph-name="NULL" horiz-adv-x="0" 
 />
    <glyph glyph-name="Euro.osf" horiz-adv-x="567" 
d="M427 205h-252q22 -66 77.5 -104.5t130.5 -38.5q81 0 160 43v-78q-74 -38 -164 -38q-107 0 -187 59q-77 58 -103 157h-85l29 65h46q-1 4 -1 19v17h-70l28 65h52q25 99 107 159q81 60 186 60q108 0 190 -55l-38 -63q-67 46 -147 46q-71 0 -128.5 -40.5t-81.5 -106.5h320
l-32 -65h-301q-2 -18 0 -36h291z" />
    <glyph glyph-name="I_J.loclNLD" horiz-adv-x="840" 
d="M93 0v739h100v-739h-100zM507 -12q-129 0 -212 95l61 73q60 -73 151 -73q67 0 107 42.5t40 119.5v494h100v-499q0 -120 -69 -186q-67 -66 -178 -66z" />
    <glyph glyph-name="Iacute_J.loclNLD" horiz-adv-x="840" 
d="M185 794h-84l59 168h118zM742 793h-84l59 168h118zM93 0v739h100v-739h-100zM507 -12q-129 0 -212 95l61 73q60 -73 151 -73q67 0 107 42.5t40 119.5v494h100v-499q0 -120 -69 -186q-67 -66 -178 -66z" />
    <glyph glyph-name="J.loclNLD" horiz-adv-x="558" 
d="M460 793h-84l59 168h118zM225 -12q-129 0 -212 95l61 73q60 -73 151 -73q67 0 107 42.5t40 119.5v494h100v-499q0 -120 -69 -186q-67 -66 -178 -66z" />
    <glyph glyph-name="Jacute" horiz-adv-x="558" 
d="M463 793h-84l59 168h118zM225 -12q-129 0 -212 95l61 73q60 -73 151 -73q67 0 107 42.5t40 119.5v494h100v-499q0 -120 -69 -186q-67 -66 -178 -66z" />
    <glyph glyph-name="_1" horiz-adv-x="0" 
 />
    <glyph glyph-name="a.ss02" horiz-adv-x="573" 
d="M267 549q103 0 171 -57q68 -56 68 -168v-324h-90v72q-61 -88 -186 -88q-90 0 -145 50q-54 50 -54 126t60 121.5t171 45.5q109 0 152 8q-10 127 -149 127q-87 0 -164 -48l-44 71q37 28 93.5 46t116.5 18zM239 71q75 0 122 51q48 54 52 131q-32 -7 -106 -7
q-98 0 -138 -17.5t-40 -68.5q0 -41 30.5 -65t79.5 -24z" />
    <glyph glyph-name="aacute.ss02" horiz-adv-x="573" 
d="M289 790h117l-93 -167h-83zM267 549q103 0 171 -57q68 -56 68 -168v-324h-90v72q-61 -88 -186 -88q-90 0 -145 50q-54 50 -54 126t60 121.5t171 45.5q109 0 152 8q-10 127 -149 127q-87 0 -164 -48l-44 71q37 28 93.5 46t116.5 18zM239 71q75 0 122 51q48 54 52 131
q-32 -7 -106 -7q-98 0 -138 -17.5t-40 -68.5q0 -41 30.5 -65t79.5 -24z" />
    <glyph glyph-name="abreve.ss02" horiz-adv-x="573" 
d="M106 790h82q1 -47 25.5 -73t66.5 -26t66.5 26t25.5 73h83q-2 -80 -50 -126q-49 -47 -125 -47q-77 0 -124.5 47t-49.5 126zM267 549q103 0 171 -57q68 -56 68 -168v-324h-90v72q-61 -88 -186 -88q-90 0 -145 50q-54 50 -54 126t60 121.5t171 45.5q109 0 152 8
q-10 127 -149 127q-87 0 -164 -48l-44 71q37 28 93.5 46t116.5 18zM239 71q75 0 122 51q48 54 52 131q-32 -7 -106 -7q-98 0 -138 -17.5t-40 -68.5q0 -41 30.5 -65t79.5 -24z" />
    <glyph glyph-name="acircumflex.ss02" horiz-adv-x="573" 
d="M352 621l-72 90l-72 -90h-102l140 164h69l140 -164h-103zM267 549q103 0 171 -57q68 -56 68 -168v-324h-90v72q-61 -88 -186 -88q-90 0 -145 50q-54 50 -54 126t60 121.5t171 45.5q109 0 152 8q-10 127 -149 127q-87 0 -164 -48l-44 71q37 28 93.5 46t116.5 18zM239 71
q75 0 122 51q48 54 52 131q-32 -7 -106 -7q-98 0 -138 -17.5t-40 -68.5q0 -41 30.5 -65t79.5 -24z" />
    <glyph glyph-name="acute.case" horiz-adv-x="314" 
d="M124 794h-84l59 168h118z" />
    <glyph glyph-name="adieresis.ss02" horiz-adv-x="573" 
d="M182 618q-30 0 -50 19.5t-20 50.5q0 28 20 47t50 19q28 0 47.5 -19t19.5 -47q0 -30 -19.5 -50t-47.5 -20zM380 618q-30 0 -49.5 20t-19.5 50q0 28 20 47t49 19t48.5 -19t19.5 -47q0 -30 -19.5 -50t-48.5 -20zM267 549q103 0 171 -57q68 -56 68 -168v-324h-90v72
q-61 -88 -186 -88q-90 0 -145 50q-54 50 -54 126t60 121.5t171 45.5q109 0 152 8q-10 127 -149 127q-87 0 -164 -48l-44 71q37 28 93.5 46t116.5 18zM239 71q75 0 122 51q48 54 52 131q-32 -7 -106 -7q-98 0 -138 -17.5t-40 -68.5q0 -41 30.5 -65t79.5 -24z" />
    <glyph glyph-name="agrave.ss02" horiz-adv-x="573" 
d="M275 790l59 -167h-83l-93 167h117zM267 549q103 0 171 -57q68 -56 68 -168v-324h-90v72q-61 -88 -186 -88q-90 0 -145 50q-54 50 -54 126t60 121.5t171 45.5q109 0 152 8q-10 127 -149 127q-87 0 -164 -48l-44 71q37 28 93.5 46t116.5 18zM239 71q75 0 122 51
q48 54 52 131q-32 -7 -106 -7q-98 0 -138 -17.5t-40 -68.5q0 -41 30.5 -65t79.5 -24z" />
    <glyph glyph-name="amacron.ss02" horiz-adv-x="573" 
d="M125 723h307v-85l-307 -1v86zM267 549q103 0 171 -57q68 -56 68 -168v-324h-90v72q-61 -88 -186 -88q-90 0 -145 50q-54 50 -54 126t60 121.5t171 45.5q109 0 152 8q-10 127 -149 127q-87 0 -164 -48l-44 71q37 28 93.5 46t116.5 18zM239 71q75 0 122 51q48 54 52 131
q-32 -7 -106 -7q-98 0 -138 -17.5t-40 -68.5q0 -41 30.5 -65t79.5 -24z" />
    <glyph glyph-name="aogonek.ss02" horiz-adv-x="573" 
d="M484 -163l37 -68q-46 -29 -95 -29q-53 0 -85 31t-32 79q0 86 107 151v71q-61 -88 -186 -88q-90 0 -145 50q-54 50 -54 126t60 121.5t171 45.5q109 0 152 8q-10 127 -149 127q-87 0 -164 -48l-44 71q37 28 93.5 46t116.5 18q103 0 171 -57q68 -56 68 -168v-324
q-49 -21 -80 -56.5t-31 -69.5q0 -22 13 -35.5t35 -13.5q20 0 41 12zM239 71q75 0 122 51q48 54 52 131q-32 -7 -106 -7q-98 0 -138 -17.5t-40 -68.5q0 -41 30.5 -65t79.5 -24z" />
    <glyph glyph-name="aring.ss02" horiz-adv-x="573" 
d="M364 634q-34 -32 -82 -32t-83 32q-34 33 -34 80t34 80q35 33 83 33q49 0 82 -33q34 -33 34 -80t-34 -80zM282 768q-23 0 -39 -15t-16 -37q0 -24 16 -39.5t39 -15.5q22 0 37.5 15.5t15.5 39.5q0 21 -16 36.5t-37 15.5zM267 549q103 0 171 -57q68 -56 68 -168v-324h-90v72
q-61 -88 -186 -88q-90 0 -145 50q-54 50 -54 126t60 121.5t171 45.5q109 0 152 8q-10 127 -149 127q-87 0 -164 -48l-44 71q37 28 93.5 46t116.5 18zM239 71q75 0 122 51q48 54 52 131q-32 -7 -106 -7q-98 0 -138 -17.5t-40 -68.5q0 -41 30.5 -65t79.5 -24z" />
    <glyph glyph-name="at.case" horiz-adv-x="974" 
d="M617 516v50h77v-276q0 -33 16 -53t40 -20q45 0 77 53q33 52 33 134q0 138 -106 237q-106 100 -256 99q-154 0 -261 -110t-107 -268q0 -157 112 -268q113 -110 277 -110q157 0 278 98l41 -63q-58 -49 -143 -79q-89 -33 -183 -33t-181 36t-151 98q-62 62 -98 146t-36 173
q0 190 132 323q132 134 318 134q182 0 312 -123q131 -123 131 -290q0 -111 -59 -185t-143 -74q-44 0 -73.5 22t-38.5 56q-57 -78 -160 -78q-86 0 -145 62t-59 155q0 92 60 155q61 64 149 64q94 0 147 -65zM616 361q0 63 -39 105q-37 42 -97 42q-58 0 -99 -42
q-39 -40 -39 -103q0 -62 38 -105q39 -41 98 -41t98 41q40 41 40 103z" />
    <glyph glyph-name="atilde.ss02" horiz-adv-x="573" 
d="M221 678q-36 0 -59 -47l-62 29q13 45 44.5 70.5t73.5 25.5q33 0 76 -22t63 -22q37 0 58 45l60 -28q-12 -45 -43 -70.5t-73 -25.5q-32 0 -75 22q-44 23 -63 23zM267 549q103 0 171 -57q68 -56 68 -168v-324h-90v72q-61 -88 -186 -88q-90 0 -145 50q-54 50 -54 126
t60 121.5t171 45.5q109 0 152 8q-10 127 -149 127q-87 0 -164 -48l-44 71q37 28 93.5 46t116.5 18zM239 71q75 0 122 51q48 54 52 131q-32 -7 -106 -7q-98 0 -138 -17.5t-40 -68.5q0 -41 30.5 -65t79.5 -24z" />
    <glyph glyph-name="backslash.case" horiz-adv-x="544" 
d="M115 739l406 -739h-94l-406 739h94z" />
    <glyph glyph-name="braceleft.case" horiz-adv-x="378" 
d="M124 363v-4q47 -15 77.5 -51.5t30.5 -85.5q0 -39 -4 -104t-4 -104q0 -94 95 -94h33v-80h-43q-176 0 -176 176q0 39 3 113q4 65 4 96q0 54 -39 76q-26 17 -76 28v65q50 11 76 27q39 23 39 77q0 31 -4 96q-3 74 -3 114q0 174 177 174h42v-80h-33q-95 0 -95 -93
q0 -40 4 -105t4 -103q0 -49 -30.5 -86t-77.5 -52z" />
    <glyph glyph-name="braceright.case" horiz-adv-x="379" 
d="M254 359v4q-46 15 -77 52.5t-31 85.5q0 38 4 103t4 105q0 93 -95 93h-33v80h43q87 0 132 -44t45 -130q0 -49 -4 -114q-3 -74 -3 -96q0 -53 38 -77q25 -15 77 -27v-65q-52 -12 -77 -28q-38 -23 -38 -76q0 -23 3 -96q4 -65 4 -113q0 -86 -45.5 -131t-130.5 -45h-44v80h33
q95 0 95 94q0 40 -4 105t-4 103q0 49 31 86.5t77 50.5z" />
    <glyph glyph-name="bracketleft.case" horiz-adv-x="379" 
d="M359 -156h-266v1038h266v-79h-167v-880h167v-79z" />
    <glyph glyph-name="bracketright.case" horiz-adv-x="379" 
d="M285 -156h-265v79h167v880h-167v79h265v-1038z" />
    <glyph glyph-name="breve.case" horiz-adv-x="446" 
d="M215 788q-78 0 -125.5 47t-49.5 127h83q1 -47 25.5 -73.5t66.5 -26.5t67 26.5t26 73.5h83q-1 -80 -49 -127t-127 -47z" />
    <glyph glyph-name="brevecombcy" horiz-adv-x="0" 
d="M-217 599q-116 0 -198 103l53 58q68 -81 145 -81q79 0 145 81l55 -58q-85 -103 -200 -103z" />
    <glyph glyph-name="caron.alt" horiz-adv-x="301" 
d="M109 621h-80l56 167h106z" />
    <glyph glyph-name="caron.case" horiz-adv-x="485" 
d="M204 790l-140 164h102l72 -90l72 90h103l-140 -164h-69z" />
    <glyph glyph-name="cedilla.case" horiz-adv-x="315" 
d="M173 -48h8q44 0 73.5 -25t29.5 -67q0 -47 -34.5 -79t-95.5 -32q-51 0 -114 29l25 63q43 -21 81 -21q27 0 42.5 12.5t15.5 31.5q0 36 -52 36h-56l-9 22l39 98l74 -2z" />
    <glyph glyph-name="circumflex.case" horiz-adv-x="485" 
d="M141 795h-103l141 165h69l141 -165h-104l-72 91z" />
    <glyph glyph-name="colon.case" horiz-adv-x="269" 
d="M71 523q0 26 18.5 44t45.5 18t45.5 -18t18.5 -44q0 -28 -18.5 -46.5t-45.5 -18.5t-45.5 18.5t-18.5 46.5zM71 182q0 26 18.5 44t45.5 18t45.5 -18t18.5 -44q0 -28 -18.5 -46.5t-45.5 -18.5t-45.5 18.5t-18.5 46.5z" />
    <glyph glyph-name="comma.ss03" horiz-adv-x="206" 
d="M14 -176l71 295h95l-98 -295h-68z" />
    <glyph glyph-name="commaccent" horiz-adv-x="231" 
d="M127 -76q29 0 49 -21.5t20 -53.5q0 -86 -124 -165l-32 44q63 48 79 74h-2q-22 0 -39 17.5t-17 40.5q0 26 19 45t47 19z" />
    <glyph glyph-name="commaccent.case" horiz-adv-x="171" 
d="M127 -76q30 0 50 -21.5t20 -53.5q0 -85 -125 -166l-32 44q63 48 79 74h-2q-23 0 -39.5 17.5t-16.5 41.5q0 26 19 45t47 19z" />
    <glyph glyph-name="dieresis.case" horiz-adv-x="403" 
d="M108 814q-27 0 -45.5 18t-18.5 45q0 25 18.5 42.5t45.5 17.5q25 0 42.5 -17.5t17.5 -42.5q0 -27 -17.5 -45t-42.5 -18zM287 814q-27 0 -45 18t-18 45q0 25 18.5 42.5t44.5 17.5t43.5 -17.5t17.5 -42.5q0 -27 -17.5 -45t-43.5 -18z" />
    <glyph glyph-name="dollar.osf" horiz-adv-x="491" 
d="M463 158q0 -64 -48 -109q-46 -45 -121 -57v-113h-83v111q-130 17 -186 124l67 55q52 -96 158 -96q51 0 82.5 22.5t31.5 58.5q0 25 -16 40.5t-53 34.5q-15 8 -67 28q-38 15 -73 34q-96 55 -96 139q0 63 44 106t119 51v106h84v-108q86 -16 142 -83l-61 -58q-53 63 -132 63
q-46 0 -74.5 -19t-28.5 -52q0 -44 63 -75q11 -6 76 -34q55 -23 79 -36q93 -51 93 -133z" />
    <glyph glyph-name="dotaccent.case" horiz-adv-x="302" 
d="M110 810q-30 0 -50 19.5t-20 49.5q0 29 20 48t50 19q28 0 48 -19.5t20 -47.5q0 -30 -20 -49.5t-48 -19.5z" />
    <glyph glyph-name="eight.dnom" horiz-adv-x="383" 
d="M41 108q0 33 22 61t59 42v1q-64 28 -64 87q0 46 37 76t96 30t96.5 -30t37.5 -76q0 -58 -65 -87v-2q38 -13 60 -41t22 -61q0 -49 -42 -81.5t-109 -32.5q-68 0 -109 31.5t-41 82.5zM257 292q0 24 -18.5 40t-47.5 16t-48 -16t-19 -40t18.5 -39.5t48.5 -15.5t48 15.5t18 39.5
zM271 117q0 27 -22 45t-58 18t-58 -18t-22 -45q0 -28 22.5 -46.5t57.5 -18.5t57.5 18.5t22.5 46.5z" />
    <glyph glyph-name="eight.lf" horiz-adv-x="625" 
d="M313 -12q-117 0 -191 60t-74 151q0 62 39.5 114.5t105.5 77.5v2q-54 25 -84 69t-30 96q0 83 65 139q64 55 169 55q104 0 168 -55q65 -56 65 -139q0 -53 -30.5 -96.5t-84.5 -68.5v-3q66 -24 106 -76t40 -115q0 -91 -74 -151q-73 -60 -190 -60zM450 549q0 52 -38.5 85.5
t-98.5 33.5q-63 0 -101.5 -33.5t-38.5 -85.5q0 -51 38.5 -84.5t100.5 -33.5t100 33.5t38 84.5zM313 75q73 0 119 38.5t46 98.5q0 58 -45.5 95.5t-119.5 37.5q-75 0 -121 -37.5t-46 -95.5q0 -60 46.5 -98.5t120.5 -38.5z" />
    <glyph glyph-name="eight.num" horiz-adv-x="383" 
d="M41 455q0 33 22 61t59 42v1q-64 28 -64 87q0 46 37 76t96 30t96.5 -30t37.5 -76q0 -58 -65 -87v-2q38 -13 60 -41t22 -61q0 -49 -42 -81.5t-109 -32.5q-68 0 -109 31.5t-41 82.5zM257 639q0 24 -18.5 40t-47.5 16t-48 -16t-19 -40t18.5 -39.5t48.5 -15.5t48 15.5t18 39.5
zM271 464q0 27 -22 45t-58 18t-58 -18t-22 -45q0 -28 22.5 -46.5t57.5 -18.5t57.5 18.5t22.5 46.5z" />
    <glyph glyph-name="eight.osf" horiz-adv-x="619" 
d="M310 -11q-118 0 -191 57q-74 57 -74 145q0 59 39.5 109.5t105.5 73.5v2q-54 25 -84 66.5t-30 90.5q0 80 65 133t169 53q103 0 168 -53t65 -133q0 -49 -31 -91t-85 -66v-3q67 -22 107 -73q40 -49 40 -109q0 -86 -74 -145q-74 -57 -190 -57zM447 525q0 49 -37.5 81
t-99.5 32t-101 -32t-39 -81t38.5 -81t100.5 -32t100 32t38 81zM310 73q73 0 119 36.5t46 93.5q0 55 -45.5 91t-119.5 36q-75 0 -121.5 -36t-46.5 -91q0 -57 47 -93.5t121 -36.5z" />
    <glyph glyph-name="eight.tf" horiz-adv-x="594" 
d="M297 -12q-118 0 -191 60q-74 60 -74 151q0 62 39.5 114.5t105.5 77.5v2q-54 25 -84 69t-30 96q0 83 65 139q64 55 169 55q104 0 168 -55q65 -56 65 -139q0 -53 -30.5 -96.5t-84.5 -68.5v-3q66 -24 106 -76t40 -115q0 -91 -74 -151q-73 -60 -190 -60zM434 549
q0 52 -38.5 85.5t-98.5 33.5q-63 0 -101.5 -33.5t-38.5 -85.5q0 -51 38.5 -84.5t100.5 -33.5t100 33.5t38 84.5zM297 75q73 0 119 38.5t46 98.5q0 58 -45.5 95.5t-119.5 37.5q-75 0 -121 -37.5t-46 -95.5q0 -60 46.5 -98.5t120.5 -38.5z" />
    <glyph glyph-name="eight_fraction_nine" horiz-adv-x="849" 
d="M340 455q0 -49 -42 -81.5t-109 -32.5q-68 0 -109 31.5t-41 82.5q0 33 22 61t59 42v1q-64 28 -64 87q0 46 37 76t96 30t96.5 -30t37.5 -76q0 -58 -65 -87v-2q38 -13 60 -41t22 -61zM102 -1l578 739h83l-576 -739h-85zM122 639q0 -24 18.5 -39.5t48.5 -15.5t48 15.5
t18 39.5t-18.5 40t-47.5 16t-48 -16t-19 -40zM109 464q0 -28 22.5 -46.5t57.5 -18.5t57.5 18.5t22.5 46.5q0 27 -22 45t-58 18t-58 -18t-22 -45zM660 405q74 0 113 -52t39 -142q0 -93 -44 -155t-129 -62q-69 0 -111 33l26 52q37 -25 81 -25q52 0 81.5 38.5t31.5 101.5
q-36 -52 -101 -52q-59 0 -95 35.5t-36 92.5q0 59 40 97t104 38zM658 199q32 0 54 20.5t22 51.5q0 32 -21.5 53.5t-53.5 21.5q-33 0 -54.5 -21.5t-21.5 -53.5t21 -52t54 -20z" />
    <glyph glyph-name="emdash.case" horiz-adv-x="1043" 
d="M973 332h-903v96h903v-96z" />
    <glyph glyph-name="endash.case" horiz-adv-x="724" 
d="M654 332h-584v96h584v-96z" />
    <glyph glyph-name="exclamdown.case" horiz-adv-x="286" 
d="M155 756q27 0 45 -18.5t18 -46.5q0 -26 -18.5 -44t-44.5 -18q-28 0 -46.5 18t-18.5 44q0 28 18.5 46.5t46.5 18.5zM101 3l4 561h96l6 -561h-106z" />
    <glyph glyph-name="five.dnom" horiz-adv-x="347" 
d="M176 256q59 0 97 -36.5t38 -92.5q0 -59 -42 -96q-41 -38 -106 -38q-72 0 -134 47l30 54q50 -38 100 -38q36 0 59.5 20.5t23.5 51.5q0 30 -21.5 50t-55.5 20q-41 0 -71 -30l-40 29l24 199h207v-60h-157l-12 -92q27 12 60 12z" />
    <glyph glyph-name="five.lf" horiz-adv-x="572" 
d="M285 482q107 0 177 -70q71 -69 71 -175q0 -108 -74 -179q-73 -70 -188 -70q-130 0 -237 89l47 78q90 -75 186 -75q72 0 119 44q46 45 46 112q0 66 -45 110q-45 45 -114 45q-80 0 -136 -59l-66 38l42 369h370v-89h-293l-25 -197q56 29 120 29z" />
    <glyph glyph-name="five.num" horiz-adv-x="347" 
d="M176 603q59 0 97 -36.5t38 -92.5q0 -58 -42 -96q-41 -38 -106 -38q-72 0 -134 47l30 54q50 -38 100 -38q36 0 59.5 20.5t23.5 51.5q0 30 -21.5 50t-55.5 20q-41 0 -71 -30l-40 29l24 199h207v-60h-157l-12 -92q27 12 60 12z" />
    <glyph glyph-name="five.osf" horiz-adv-x="554" 
d="M275 341q105 0 176 -63q70 -63 70 -161q0 -100 -73 -164q-74 -65 -187 -65q-131 0 -235 81l47 73q90 -69 185 -69q71 0 117 40t46 102q0 59 -45 100q-43 40 -113 40q-80 0 -135 -52l-65 35l42 338h366v-82h-290l-24 -180q54 27 118 27z" />
    <glyph glyph-name="five.tf" horiz-adv-x="594" 
d="M295 482q107 0 177 -70q71 -69 71 -175q0 -108 -74 -179q-73 -70 -188 -70q-130 0 -237 89l47 78q90 -75 186 -75q72 0 119 44q46 45 46 112q0 66 -45 110q-45 45 -114 45q-80 0 -136 -59l-66 38l42 369h370v-89h-293l-25 -197q56 29 120 29z" />
    <glyph glyph-name="five_fraction_nine" horiz-adv-x="848" 
d="M164 403q36 0 59.5 20.5t23.5 51.5q0 30 -21.5 50t-55.5 20q-41 0 -71 -30l-40 29l24 199h207v-60h-157l-12 -92q27 12 60 12q59 0 97 -36.5t38 -92.5q0 -58 -42 -96q-41 -38 -106 -38q-72 0 -134 47l30 54q50 -38 100 -38zM100 -1l578 739h83l-576 -739h-85zM658 405
q74 0 113 -52t39 -142q0 -93 -44 -155t-129 -62q-69 0 -111 33l26 52q37 -25 81 -25q52 0 81.5 38.5t31.5 101.5q-36 -52 -101 -52q-59 0 -95 35.5t-36 92.5q0 59 40 97t104 38zM656 199q32 0 54 20.5t22 51.5q0 32 -21.5 53.5t-53.5 21.5q-33 0 -54.5 -21.5t-21.5 -53.5
t21 -52t54 -20z" />
    <glyph glyph-name="five_fraction_seven" horiz-adv-x="851" 
d="M169 403q36 0 59.5 20.5t23.5 51.5q0 30 -21.5 50t-55.5 20q-41 0 -71 -30l-40 29l24 199h207v-60h-157l-12 -92q27 12 60 12q59 0 97 -36.5t38 -92.5q0 -58 -42 -96q-41 -38 -106 -38q-72 0 -134 47l30 54q50 -38 100 -38zM107 0l578 739h84l-576 -739h-86zM540 331v61
h262v-46l-156 -346h-74l151 331h-183z" />
    <glyph glyph-name="four.dnom" horiz-adv-x="366" 
d="M284 155h44v-57h-44v-98h-63v98h-185l-15 41l214 257h49v-241zM221 292l-115 -137h115v137z" />
    <glyph glyph-name="four.lf" horiz-adv-x="594" 
d="M470 273h83v-87h-83v-186h-96v186h-344l-21 60l404 493h57v-466zM374 558l-233 -285h233v285z" />
    <glyph glyph-name="four.num" horiz-adv-x="366" 
d="M284 502h44v-57h-44v-98h-63v98h-185l-15 41l214 257h49v-241zM221 639l-115 -137h115v137z" />
    <glyph glyph-name="four.osf" horiz-adv-x="590" 
d="M468 140h82v-78h-82v-160h-96v160h-334l-21 57l394 461h57v-440zM372 408l-227 -268h227v268z" />
    <glyph glyph-name="four.tf" horiz-adv-x="594" 
d="M481 273h83v-87h-83v-186h-96v186h-344l-21 60l404 493h57v-466zM385 558l-233 -285h233v285z" />
    <glyph glyph-name="four_fraction_nine" horiz-adv-x="905" 
d="M294 347h-63v98h-185l-15 41l214 257h49v-241h44v-57h-44v-98zM147 -1l578 739h84l-576 -739h-86zM231 639l-115 -137h115v137zM706 405q74 0 113 -52t39 -142q0 -93 -44 -155t-129 -62q-69 0 -111 33l26 52q37 -25 81 -25q52 0 81.5 38.5t31.5 101.5q-36 -52 -101 -52
q-59 0 -95 35.5t-36 92.5q0 59 40 97t104 38zM704 199q32 0 54 20.5t22 51.5q0 32 -21.5 53.5t-53.5 21.5q-33 0 -54.5 -21.5t-21.5 -53.5t21 -52t54 -20z" />
    <glyph glyph-name="four_fraction_seven" horiz-adv-x="876" 
d="M294 347h-63v98h-185l-15 41l214 257h49v-241h44v-57h-44v-98zM130 0l578 739h84l-576 -739h-86zM231 639l-115 -137h115v137zM562 331v61h262v-46l-156 -346h-74l151 331h-183z" />
    <glyph glyph-name="grave.case" horiz-adv-x="299" 
d="M158 962l60 -168h-84l-94 168h118z" />
    <glyph glyph-name="guillemotleft.case" horiz-adv-x="528" 
d="M284 177h-95l-142 203l142 203h95l-143 -203zM468 177h-95l-141 203l141 203h95l-141 -203z" />
    <glyph glyph-name="guillemotright.case" horiz-adv-x="528" 
d="M295 380l-140 -203h-96l142 203l-142 203h96zM481 380l-142 -203h-95l143 203l-143 203h95z" />
    <glyph glyph-name="guilsinglleft.case" horiz-adv-x="343" 
d="M284 177h-95l-142 203l142 203h95l-143 -203z" />
    <glyph glyph-name="guilsinglright.case" horiz-adv-x="343" 
d="M296 380l-142 -203h-95l143 203l-143 203h95z" />
    <glyph glyph-name="hungarumlaut.case" horiz-adv-x="509" 
d="M132 794h-82l41 168h118zM309 794h-82l48 168h119z" />
    <glyph glyph-name="hyphen.case" horiz-adv-x="526" 
d="M456 332h-386v96h386v-96z" />
    <glyph glyph-name="i.loclTRK" horiz-adv-x="245" 
d="M124 612q-30 0 -50 19.5t-20 49.5q0 29 20 48t50 19q28 0 48 -19.5t20 -47.5q0 -30 -20 -49.5t-48 -19.5zM170 536v-536h-96v536h96z" />
    <glyph glyph-name="i_j.loclNLD" horiz-adv-x="535" 
d="M124 612q-30 0 -50 19.5t-20 49.5q0 29 20 48t50 19q28 0 48 -19.5t20 -47.5q0 -30 -20 -49.5t-48 -19.5zM389 612q-30 0 -50 19.5t-20 49.5q0 29 20 48t50 19q28 0 48 -19.5t20 -47.5q0 -30 -20 -49.5t-48 -19.5zM170 536v-536h-96v536h96zM260 -229q-60 0 -95 22l19 80
q39 -14 65 -14q92 0 92 110v567h96v-561q0 -98 -47 -151t-130 -53z" />
    <glyph glyph-name="iacute_j.loclNLD" horiz-adv-x="512" 
d="M164 623h-83l59 167h117zM436 623h-83l59 167h117zM170 536v-536h-96v536h96zM260 -229q-60 0 -95 22l19 80q39 -14 65 -14q92 0 92 110v567h96v-561q0 -98 -47 -151t-130 -53z" />
    <glyph glyph-name="j.loclNLD" horiz-adv-x="269" 
d="M146 612q-30 0 -50 19.5t-20 49.5q0 29 20 48t50 19q28 0 48 -19.5t20 -47.5q0 -30 -20 -49.5t-48 -19.5zM17 -229q-60 0 -95 22l19 80q39 -14 65 -14q92 0 92 110v567h96v-561q0 -98 -47 -151t-130 -53z" />
    <glyph glyph-name="jacute" horiz-adv-x="269" 
d="M185 623h-83l59 167h117zM17 -229q-60 0 -95 22l19 80q39 -14 65 -14q92 0 92 110v567h96v-561q0 -98 -47 -151t-130 -53z" />
    <glyph glyph-name="macron.case" horiz-adv-x="475" 
d="M383 825l-339 -1v86h339v-85z" />
    <glyph glyph-name="nine.dnom" horiz-adv-x="375" 
d="M181 405q74 0 113 -52t39 -142q0 -93 -44 -155t-129 -62q-69 0 -111 33l26 52q37 -25 81 -25q52 0 81.5 38.5t31.5 101.5q-36 -52 -101 -52q-58 0 -94.5 36t-36.5 92q0 59 40 97t104 38zM179 199q32 0 54 20.5t22 51.5q0 32 -21.5 53.5t-53.5 21.5q-33 0 -54.5 -21.5
t-21.5 -53.5t21 -52t54 -20z" />
    <glyph glyph-name="nine.lf" horiz-adv-x="612" 
d="M295 752q129 0 196 -99q68 -98 68 -261q0 -82 -17 -153t-52 -128t-93.5 -90t-135.5 -33q-118 0 -192 62l38 77q70 -52 151 -52q104 0 156 86.5t52 212.5q-25 -49 -76.5 -79t-115.5 -30q-100 0 -166 68q-66 67 -66 171q0 107 71 178q70 70 182 70zM445 505q0 66 -44 113
q-43 46 -108 46q-67 0 -110 -46q-44 -46 -44 -114q0 -67 43 -110t109 -43q65 0 109 44q45 43 45 110z" />
    <glyph glyph-name="nine.num" horiz-adv-x="375" 
d="M181 752q74 0 113 -52t39 -142q0 -93 -44 -155t-129 -62q-69 0 -111 33l26 52q37 -25 81 -25q52 0 81.5 38.5t31.5 101.5q-36 -52 -101 -52q-57 0 -94 36.5t-37 91.5q0 59 40 97t104 38zM179 546q32 0 54 20.5t22 51.5q0 32 -21.5 53.5t-53.5 21.5q-33 0 -54.5 -21.5
t-21.5 -53.5t21 -52t54 -20z" />
    <glyph glyph-name="nine.osf" horiz-adv-x="597" 
d="M253 -112q-119 0 -192 57l38 75q70 -49 151 -49q54 0 95.5 24t65 65t35.5 90.5t12 105.5q-24 -48 -75.5 -76.5t-116.5 -28.5q-101 0 -166 64q-65 65 -65 162q0 102 70 168q71 66 182 66q129 0 196 -93q68 -94 68 -248q0 -105 -29.5 -188.5t-98.5 -138.5t-170 -55z
M285 527q-67 0 -110 -43q-44 -42 -44 -107q0 -62 43 -104q44 -41 109 -41t109 42q45 42 45 104q0 61 -44 105t-108 44z" />
    <glyph glyph-name="nine.tf" horiz-adv-x="594" 
d="M286 752q128 0 196 -99q68 -98 68 -261q0 -82 -17 -153t-52 -128t-93.5 -90t-135.5 -33q-118 0 -192 62l38 77q70 -52 151 -52q104 0 156 86.5t52 212.5q-25 -49 -76.5 -79t-115.5 -30q-100 0 -166 68q-66 67 -66 171q0 107 71 178q70 70 182 70zM436 505q0 66 -44 113
q-43 46 -108 46q-67 0 -110 -46q-44 -46 -44 -114q0 -67 43 -110t109 -43q65 0 109 44q45 43 45 110z" />
    <glyph glyph-name="ogonek.case" horiz-adv-x="324" 
d="M215 -163l37 -68q-46 -29 -95 -29q-53 0 -85 31t-32 79q0 100 138 167l59 -17q-49 -21 -80 -56.5t-31 -69.5q0 -22 13 -35.5t35 -13.5q20 0 41 12z" />
    <glyph glyph-name="one.dnom" horiz-adv-x="265" 
d="M17 286l132 106h55v-393h-73v293l-75 -60z" />
    <glyph glyph-name="one.lf" horiz-adv-x="386" 
d="M4 563l209 176h79v-739h-99v606l-134 -112z" />
    <glyph glyph-name="one.num" horiz-adv-x="265" 
d="M18 633l132 106h54v-392h-72v293l-76 -61z" />
    <glyph glyph-name="one.numalt" horiz-adv-x="330" 
d="M30 633l132 106h55v-393h-73v293l-75 -60z" />
    <glyph glyph-name="one.osf" horiz-adv-x="470" 
d="M313 582v-500h144v-82h-421v82h182v384l-174 -115l-47 72l234 159h82z" />
    <glyph glyph-name="one.tf" horiz-adv-x="594" 
d="M367 739v-647h159v-92h-423v92h165v514l-134 -112l-55 69l209 176h79z" />
    <glyph glyph-name="parenleft.case" horiz-adv-x="395" 
d="M384 -80l-41 -72q-143 76 -222 211q-78 135 -78 303q0 170 78 303q78 136 222 212l41 -72q-237 -156 -237 -443q0 -284 237 -442z" />
    <glyph glyph-name="parenright.case" horiz-adv-x="395" 
d="M51 -152l-41 72q238 159 238 442q0 286 -238 443l40 72q144 -76 223 -212q78 -133 78 -303t-78 -303q-79 -135 -222 -211z" />
    <glyph glyph-name="periodcentered.case" horiz-adv-x="255" 
d="M64 371q0 26 18.5 44t45.5 18t45.5 -18t18.5 -44q0 -28 -18.5 -46.5t-45.5 -18.5t-45.5 18.5t-18.5 46.5z" />
    <glyph glyph-name="questiondown.case" horiz-adv-x="511" 
d="M358 691q0 -26 -19 -44t-46 -18q-26 0 -44.5 18t-18.5 44q0 28 18 46.5t45 18.5t46 -18.5t19 -46.5zM249 577h90v-73q0 -39 -20.5 -73t-50 -60l-59 -51.5t-50 -57.5t-20.5 -68q0 -53 38 -86.5t96 -33.5q80 0 152 79l59 -67q-41 -47 -98.5 -74.5t-118.5 -27.5
q-93 0 -158 58q-66 58 -66 149q0 87 72 152q12 11 36.5 31.5t38 33t29.5 30t23 34t7 33.5v72z" />
    <glyph glyph-name="quotedblbase.ss03" horiz-adv-x="471" 
d="M42 -147l71 295h95l-98 -295h-68zM264 -147l71 295h95l-98 -295h-68z" />
    <glyph glyph-name="quotedblleft.ss03" horiz-adv-x="448" 
d="M209 831l-71 -295h-95l98 295h68zM433 831l-71 -295h-95l98 295h68z" />
    <glyph glyph-name="quotedblright.ss03" horiz-adv-x="466" 
d="M43 537l71 295h95l-98 -295h-68zM265 537l71 295h95l-98 -295h-68z" />
    <glyph glyph-name="quoteleft.ss03" horiz-adv-x="236" 
d="M206 831l-71 -295h-95l98 295h68z" />
    <glyph glyph-name="quoteright.ss03" horiz-adv-x="234" 
d="M51 537l71 295h95l-98 -295h-68z" />
    <glyph glyph-name="quotesinglbase.ss03" horiz-adv-x="242" 
d="M13 -147l71 295h95l-98 -295h-68z" />
    <glyph glyph-name="ring.case" horiz-adv-x="326" 
d="M158 778q-50 0 -84 32.5t-34 80.5q0 47 34 80t84 33q49 0 82 -33q34 -33 34 -80q0 -48 -33.5 -80.5t-82.5 -32.5zM158 837q22 0 37.5 16t15.5 40q0 21 -16 36.5t-37 15.5q-23 0 -39 -15t-16 -37q0 -24 16 -40t39 -16z" />
    <glyph glyph-name="semicolon.case" horiz-adv-x="288" 
d="M88 525q0 26 18.5 44t45.5 18t46 -18t19 -44q0 -28 -19 -46.5t-46 -18.5t-45.5 18.5t-18.5 46.5zM148 257q30 0 49.5 -21t19.5 -53q0 -86 -124 -165l-31 43q61 46 74 66q3 3 7 11h-4q-23 0 -39.5 17t-16.5 40q0 25 19.5 43.5t45.5 18.5z" />
    <glyph glyph-name="semicolon.case.ss03" horiz-adv-x="288" 
d="M88 525q0 26 18.5 44t45.5 18t46 -18t19 -44q0 -28 -19 -46.5t-46 -18.5t-45.5 18.5t-18.5 46.5zM28 -145l71 295h95l-98 -295h-68z" />
    <glyph glyph-name="semicolon.ss03" horiz-adv-x="268" 
d="M83 417q0 26 18.5 44t45.5 18t46 -18t19 -44q0 -28 -19 -46.5t-46 -18.5t-45.5 18.5t-18.5 46.5zM28 -176l71 295h95l-98 -295h-68z" />
    <glyph glyph-name="seven.dnom" horiz-adv-x="288" 
d="M14 331v61h262v-46l-156 -346h-74l151 331h-183z" />
    <glyph glyph-name="seven.lf" horiz-adv-x="503" 
d="M21 650v89h465v-59l-288 -680h-107l282 650h-352z" />
    <glyph glyph-name="seven.num" horiz-adv-x="288" 
d="M14 678v61h262v-46l-156 -346h-74l151 331h-183z" />
    <glyph glyph-name="seven.osf" horiz-adv-x="496" 
d="M16 491v85h465v-57l-288 -617h-107l281 589h-351z" />
    <glyph glyph-name="seven.tf" horiz-adv-x="594" 
d="M69 650v89h482v-58l-337 -681h-108l330 650h-367z" />
    <glyph glyph-name="seven_fraction_nine" horiz-adv-x="801" 
d="M126 347h-74l151 331h-183v61h262v-46zM32 -1l578 739h84l-577 -739h-85zM610 405q74 0 113 -52t39 -142q0 -93 -44 -155t-129 -62q-69 0 -111 33l26 52q37 -25 81 -25q52 0 81.5 38.5t31.5 101.5q-36 -52 -101 -52q-59 0 -95 35.5t-36 92.5q0 59 40 97t104 38zM608 199
q32 0 54 20.5t22 51.5q0 32 -21.5 53.5t-53.5 21.5q-33 0 -54.5 -21.5t-21.5 -53.5t21 -52t54 -20z" />
    <glyph glyph-name="six.dnom" horiz-adv-x="348" 
d="M190 256q57 0 94.5 -36.5t37.5 -92.5q0 -58 -40.5 -96t-103.5 -38q-74 0 -115 54q-40 55 -40 138q0 91 45 156q46 64 133 64q63 0 110 -34l-29 -51q-35 25 -77 25q-54 0 -84 -43q-31 -43 -32 -96q32 50 101 50zM179 199q-33 0 -55 -20.5t-22 -52.5q-2 -31 22 -52.5
t54 -21t54 21.5q22 24 22.5 53t-21.5 51.5t-54 20.5z" />
    <glyph glyph-name="six.lf" horiz-adv-x="614" 
d="M320 -9q-130 0 -199 100q-69 101 -69 256q0 107 32 196.5t103 149t171 59.5q112 0 189 -62l-42 -75q-65 50 -141 50q-71 0 -122 -49.5t-72.5 -115t-20.5 -131.5v-4q24 51 75 81.5t116 30.5q100 0 166 -68q66 -67 66 -171q0 -106 -71 -177q-70 -70 -181 -70zM321 80
q65 0 109 45q45 47 45 113q0 65 -44 109q-43 43 -108 43q-66 0 -110 -44t-44 -109t44 -112q43 -45 108 -45z" />
    <glyph glyph-name="six.num" horiz-adv-x="348" 
d="M190 603q57 0 94.5 -36.5t37.5 -92.5q0 -58 -40.5 -96t-103.5 -38q-74 0 -115 54q-40 55 -40 138q0 92 45 156q46 64 133 64q63 0 110 -34l-29 -51q-35 25 -77 25q-54 0 -84 -43q-31 -43 -32 -96q32 50 101 50zM179 546q-33 0 -55 -20.5t-22 -52.5q-2 -31 22 -52.5
t54 -21t54 21.5q22 24 22.5 53t-21.5 51.5t-54 20.5z" />
    <glyph glyph-name="six.osf" horiz-adv-x="604" 
d="M310 -9q-130 0 -199 96t-69 244q0 102 32 187.5t103 142.5t171 57q109 0 188 -59l-42 -72q-65 47 -140 47q-72 0 -123 -48q-92 -85 -92 -233v-5q24 49 74.5 78.5t116.5 29.5q100 0 165 -65q66 -65 66 -164q0 -101 -71 -169q-70 -67 -180 -67zM311 77q66 0 109 43
q44 44 44 107q0 64 -43 104q-44 41 -108 41q-67 0 -110 -42q-44 -41 -44 -104q0 -62 44 -106q43 -43 108 -43z" />
    <glyph glyph-name="six.tf" horiz-adv-x="594" 
d="M310 -9q-130 0 -199 100q-69 101 -69 256q0 107 32 196.5t103 149t171 59.5q112 0 189 -62l-42 -75q-65 50 -141 50q-71 0 -122 -49.5t-72.5 -115t-20.5 -131.5v-4q24 51 75 81.5t116 30.5q100 0 166 -68q66 -67 66 -171q0 -106 -71 -177q-70 -70 -181 -70zM311 80
q65 0 109 45q45 47 45 113q0 65 -44 109q-43 43 -108 43q-66 0 -110 -44t-44 -109t44 -112q43 -45 108 -45z" />
    <glyph glyph-name="six_fraction_seven" horiz-adv-x="857" 
d="M323 474q0 -58 -40.5 -96t-103.5 -38q-74 0 -115 54q-40 55 -40 138q0 92 45 156q46 64 133 64q63 0 110 -34l-29 -51q-35 25 -77 25q-54 0 -84 -43q-31 -43 -32 -96q32 50 101 50q57 0 94.5 -36.5t37.5 -92.5zM108 0l578 739h84l-576 -739h-86zM103 473q-2 -31 22 -52.5
t54 -21t54 21.5q22 24 22.5 53t-21.5 51.5t-54 20.5q-33 0 -55 -20.5t-22 -52.5zM546 331v61h262v-46l-156 -346h-74l151 331h-183z" />
    <glyph glyph-name="slash.case" horiz-adv-x="544" 
d="M116 0h-93l406 739h94z" />
    <glyph glyph-name="sterling.osf" horiz-adv-x="472" 
d="M147 82h315v-82h-432v65q41 25 65.5 63.5t24.5 77.5q0 22 -12 54h-78v68h48q-16 39 -16 73q0 83 57 135q59 53 146 54q132 2 193 -116l-68 -40q-40 81 -122 81q-50 0 -81.5 -32.5t-31.5 -83.5q0 -33 16 -71h225v-68h-196q9 -24 9 -50q0 -75 -62 -128z" />
    <glyph glyph-name="three.dnom" horiz-adv-x="331" 
d="M147 -6q-69 0 -130 39l30 56q56 -32 98 -32q35 0 54.5 15.5t19.5 42.5q0 26 -20.5 42t-54.5 16h-51v61h48q30 0 50 15t20 39t-18.5 38.5t-45.5 14.5q-40 0 -85 -33l-35 50q50 47 127 47q56 0 92.5 -30t36.5 -75q0 -32 -19.5 -56.5t-51.5 -34.5v-2q38 -8 59 -34t21 -63
q0 -51 -40.5 -83.5t-104.5 -32.5z" />
    <glyph glyph-name="three.lf" horiz-adv-x="554" 
d="M248 -12q-120 0 -227 73l45 81q98 -62 181 -62q69 0 109.5 34.5t40.5 91.5t-42.5 93t-109.5 36h-91v89h90q61 0 100 33.5t39 86.5t-37 84.5t-95 31.5q-77 0 -162 -65l-51 70q40 40 99.5 63.5t121.5 23.5q99 0 163 -56q63 -56 63 -139q0 -59 -35 -105t-93 -64v-4
q66 -15 105 -64.5t39 -116.5q0 -95 -71 -155q-70 -60 -182 -60z" />
    <glyph glyph-name="three.num" horiz-adv-x="331" 
d="M147 341q-69 0 -130 39l30 56q56 -32 98 -32q35 0 54.5 15.5t19.5 42.5q0 26 -20.5 42t-54.5 16h-51v61h48q30 0 50 15t20 39t-18.5 38.5t-45.5 14.5q-40 0 -85 -33l-35 50q50 47 127 47q56 0 92.5 -30t36.5 -75q0 -32 -19.5 -56.5t-51.5 -34.5v-2q38 -8 59 -34t21 -63
q0 -51 -40.5 -83.5t-104.5 -32.5z" />
    <glyph glyph-name="three.osf" horiz-adv-x="534" 
d="M238 -111q-119 0 -225 67l45 75q99 -57 180 -57q68 0 108.5 32t40.5 83q0 52 -42 84.5t-109 32.5h-91v84h90q60 0 99 30.5t39 77.5q0 48 -37 77t-94 29q-78 0 -161 -59l-51 66q39 37 98 58t121 21q100 0 162 -52q63 -51 63 -127q0 -54 -35.5 -96.5t-92.5 -58.5v-4
q66 -13 104.5 -58t38.5 -108q0 -87 -70 -142q-68 -55 -181 -55z" />
    <glyph glyph-name="three.tf" horiz-adv-x="594" 
d="M263 -12q-120 0 -227 73l45 81q98 -62 181 -62q69 0 109.5 34.5t40.5 91.5t-42.5 93t-109.5 36h-91v89h90q61 0 100 33.5t39 86.5t-37 84.5t-95 31.5q-77 0 -162 -65l-51 70q40 40 99.5 63.5t121.5 23.5q99 0 163 -56q63 -56 63 -139q0 -59 -35 -105t-93 -64v-4
q66 -15 105 -64.5t39 -116.5q0 -95 -71 -155t-182 -60z" />
    <glyph glyph-name="three_fraction_seven" horiz-adv-x="860" 
d="M155 404q35 0 54.5 15.5t19.5 42.5q0 26 -20.5 42t-54.5 16h-51v61h48q30 0 50 15t20 39t-18.5 38.5t-45.5 14.5q-40 0 -85 -33l-35 50q50 47 127 47q56 0 92.5 -30t36.5 -75q0 -32 -19.5 -56.5t-51.5 -34.5v-2q38 -8 59 -34t21 -63q0 -51 -40.5 -83.5t-104.5 -32.5
q-69 0 -130 39l30 56q56 -32 98 -32zM108 0l578 739h84l-576 -739h-86zM550 331v61h262v-46l-156 -346h-74l151 331h-183z" />
    <glyph glyph-name="tilde.case" horiz-adv-x="540" 
d="M102 822l-62 29q13 45 44.5 70.5t73.5 25.5q33 0 76 -22q44 -22 64 -22q37 0 58 45l60 -28q-12 -45 -43 -70.5t-73 -25.5q-32 0 -75 22q-44 23 -63 23q-37 0 -60 -47z" />
    <glyph glyph-name="two.dnom" horiz-adv-x="344" 
d="M244 171l-101 -106h159v-65h-262v58l130 132q56 59 56 93q0 25 -17.5 40.5t-44.5 15.5q-46 0 -94 -45l-37 53q59 58 135 58q57 0 93.5 -33.5t36.5 -87.5t-54 -113z" />
    <glyph glyph-name="two.lf" horiz-adv-x="560" 
d="M397 319l-206 -227h318v-92h-461v83l237 254q64 67 91 109.5t27 88.5q0 54 -38.5 89.5t-95.5 35.5q-92 0 -179 -84l-55 71q106 105 236 105q101 0 165 -61t64 -161q0 -98 -103 -211z" />
    <glyph glyph-name="two.num" horiz-adv-x="344" 
d="M244 518l-101 -106h159v-65h-262v58l130 132q56 59 56 93q0 25 -17.5 40.5t-44.5 15.5q-46 0 -94 -45l-37 53q59 58 135 58q57 0 93.5 -33.5t36.5 -87.5q0 -55 -54 -113z" />
    <glyph glyph-name="two.osf" horiz-adv-x="531" 
d="M353 222l-159 -140h288v-82h-429v75l208 179q66 58 91.5 91t25.5 68q0 39 -30 63.5t-81 24.5q-46 0 -87 -21t-92 -68l-53 73q58 53 112 78.5t119 25.5q93 0 150 -51q58 -49 58 -125q0 -45 -27.5 -89.5t-93.5 -101.5z" />
    <glyph glyph-name="two.tf" horiz-adv-x="594" 
d="M414 319l-206 -227h318v-92h-461v83l237 254q64 67 91 109.5t27 88.5q0 54 -38.5 89.5t-95.5 35.5q-92 0 -179 -84l-55 71q106 105 236 105q101 0 165 -61t64 -161q0 -98 -103 -211z" />
    <glyph glyph-name="two_fraction_nine" horiz-adv-x="869" 
d="M44 347v58l130 132q56 59 56 93q0 25 -17.5 40.5t-44.5 15.5q-46 0 -94 -45l-37 53q59 58 135 58q57 0 93.5 -33.5t36.5 -87.5q0 -55 -54 -113l-101 -106h159v-65h-262zM123 0l578 739h84l-577 -739h-85zM680 405q74 0 113 -52t39 -142q0 -93 -44 -155t-129 -62
q-69 0 -111 33l26 52q37 -25 81 -25q52 0 81.5 38.5t31.5 101.5q-36 -52 -101 -52q-59 0 -95 35.5t-36 92.5q0 59 40 97t104 38zM678 199q32 0 54 20.5t22 51.5q0 32 -21.5 53.5t-53.5 21.5q-33 0 -54.5 -21.5t-21.5 -53.5t21 -52t54 -20z" />
    <glyph glyph-name="two_fraction_seven" horiz-adv-x="872" 
d="M49 347v58l130 132q56 59 56 93q0 25 -17.5 40.5t-44.5 15.5q-46 0 -94 -45l-37 53q59 58 135 58q57 0 93.5 -33.5t36.5 -87.5q0 -55 -54 -113l-101 -106h159v-65h-262zM129 0l578 739h84l-577 -739h-85zM561 331v61h262v-46l-156 -346h-74l151 331h-183z" />
    <glyph glyph-name="uni0414.ss01" horiz-adv-x="738" 
d="M622 739v-644h72v-245h-100v150h-464v-150h-99v245h57q63 101 102 416l28 228h404zM200 95h323v548h-216l-6 -49q-48 -382 -101 -499z" />
    <glyph glyph-name="uni0416.ss01" horiz-adv-x="885" 
d="M577 379l311 -379h-123l-273 338v-338h-98v338l-273 -338h-123l311 379l-299 360h117l267 -320v320h98v-320l267 320h117z" />
    <glyph glyph-name="uni041B.ss01" horiz-adv-x="716" 
d="M66 -6q-27 0 -45 5l-7 92q18 -3 31 -3q55 0 86 45q36 47 66 208q5 24 14 96q3 23 6.5 56t4.5 40q2 19 10 106l10 100h380v-739h-100v643h-191q-6 -66 -8 -84l-9 -92q-2 -23 -9 -81q-8 -64 -13 -87q-9 -45 -16 -72q-18 -77 -49 -132q-59 -101 -161 -101z" />
    <glyph glyph-name="uni0424.ss01" horiz-adv-x="951" 
d="M525 36v-116h-99v116q-173 5 -278 95q-107 92 -107 240q0 150 107 240q108 91 278 93v115h99v-115q166 -5 275 -96q110 -92 110 -237q0 -146 -109 -239q-109 -92 -276 -96zM525 609v-479q121 2 201 69q81 67 81 172q0 107 -81 171q-81 66 -201 67zM144 371
q0 -109 78 -174q81 -66 204 -67v479q-123 -1 -203 -66q-79 -64 -79 -172z" />
    <glyph glyph-name="uni042A.ss01" horiz-adv-x="746" 
d="M296 473h158q75 0 130.5 -24t82.5 -65q49 -71 49 -152q0 -98 -66 -165q-64 -67 -187 -67h-266v646h-181v93h280v-266zM296 94h151q79 0 122.5 39t43.5 104q0 63 -41 102.5t-119 39.5h-157v-285z" />
    <glyph glyph-name="uni042C.ss01" horiz-adv-x="642" 
d="M192 473h158q75 0 130.5 -24t82.5 -65q49 -71 49 -152q0 -98 -66 -165q-64 -67 -187 -67h-266v739h99v-266zM192 94h151q79 0 122.5 39t43.5 104q0 63 -41 102.5t-119 39.5h-157v-285z" />
    <glyph glyph-name="uni0431.ss01" horiz-adv-x="662" 
d="M355 526q106 0 185 -73q80 -72 80 -196q0 -114 -78 -192q-76 -78 -197 -78q-61 0 -111.5 21t-84 55.5t-56 81t-32.5 95.5t-10 101q0 100 25 171q25 73 61 113q37 40 96 70q54 29 110 44l122 33q72 20 117 39v-97q-37 -17 -99 -35q-24 -7 -63.5 -17t-66 -17.5t-53.5 -18.5
q-44 -18 -76 -42q-69 -54 -85 -175q29 55 88.5 86t127.5 31zM346 75q75 0 126 54q52 55 52 131q0 74 -52 126q-51 53 -124 53q-72 0 -128 -50q-54 -49 -54 -127q0 -75 50 -131t130 -56z" />
    <glyph glyph-name="uni0432.ss01" horiz-adv-x="576" 
d="M425 299q52 -12 80.5 -49.5t28.5 -89.5q0 -68 -48 -114q-46 -46 -132 -46h-280v536h264q79 0 122 -40t43 -93q0 -37 -20.5 -64.5t-57.5 -39.5zM336 455h-170v-129h174q45 -2 64 31.5t-0.5 67t-67.5 30.5zM166 81h182q43 0 67.5 23t24.5 61q0 37 -24 60.5t-68 23.5h-182
v-168z" />
    <glyph glyph-name="uni0433.ss01" horiz-adv-x="433" 
d="M74 536h351v-83h-255v-453h-96v536z" />
    <glyph glyph-name="uni0434.ss01" horiz-adv-x="634" 
d="M537 536v-451h55v-204h-90v119h-388v-119h-90v204h61q48 79 79 294l23 157h350zM268 452l-6 -36q-33 -242 -77 -331h257v367h-174z" />
    <glyph glyph-name="uni0436.ss01" horiz-adv-x="717" 
d="M474 275l243 -275h-107l-209 238v-238h-85v238l-209 -238h-107l244 275l-234 261h103l203 -228v228h85v-227l203 227h103z" />
    <glyph glyph-name="uni0437.ss01" horiz-adv-x="506" 
d="M234 -12q-113 0 -211 55l36 78q90 -48 172 -48q63 0 100.5 23.5t37.5 62.5q0 75 -123 75h-113v82h81q67 0 102.5 20.5t35.5 57.5q0 35 -29.5 53t-80.5 18q-74 0 -162 -49l-41 71q85 62 206 62q89 0 145 -42q56 -41 56 -101q0 -42 -30 -73.5t-83 -46.5v-3
q60 -12 95.5 -48.5t35.5 -87.5q0 -69 -63 -114t-167 -45z" />
    <glyph glyph-name="uni0438.ss01" horiz-adv-x="638" 
d="M134 0h-60v536h93v-389l338 389h58v-536h-92v386z" />
    <glyph glyph-name="uni0439.ss01" horiz-adv-x="638" 
d="M324 572q-105 0 -178 93l48 52q61 -73 130 -73q73 0 131 73l49 -52q-76 -93 -180 -93zM134 0h-60v536h93v-389l338 389h58v-536h-92v386z" />
    <glyph glyph-name="uni043A.ss01" horiz-adv-x="543" 
d="M544 0h-122l-200 249l-52 -47v-202h-96v536h96v-219l240 219h129l-248 -225z" />
    <glyph glyph-name="uni043B.ss01" 
d="M69 -5q-22 0 -37 4l-21 70q10 0 21.5 -1t12.5 -1q45 0 73 34q11 15 22 37q13 28 31 110q6 25 12 70l10 68l9 78l8 72h327v-536h-96v453h-148l-6 -47l-6 -49l-6 -46l-7 -48q-5 -21 -8 -42q-4 -24 -11 -44q-24 -78 -45 -108q-48 -74 -135 -74z" />
    <glyph glyph-name="uni043F.ss01" horiz-adv-x="598" 
d="M74 536h450v-536h-96v453h-258v-453h-96v536z" />
    <glyph glyph-name="uni0442.ss01" horiz-adv-x="469" 
d="M9 536h451v-83h-178v-453h-95v453h-178v83z" />
    <glyph glyph-name="uni0444.ss01" horiz-adv-x="821" 
d="M780 267q0 -125 -90 -201q-90 -75 -236 -78v-143h-87v143q-149 3 -237 79q-89 77 -89 201q0 126 91 202q93 78 235 79v144h87v-144q144 -3 235 -79t91 -203zM454 466v-397q105 1 171 55q65 53 65 146q0 90 -63 142t-173 54zM131 269q0 -92 64 -145t172 -55v397
q-109 -2 -172.5 -54t-63.5 -143z" />
    <glyph glyph-name="uni0446.ss01" horiz-adv-x="631" 
d="M606 -180h-93v180h-439v536h96v-450h257v450h96v-450h83v-266z" />
    <glyph glyph-name="uni0448.ss01" horiz-adv-x="896" 
d="M822 0h-748v536h96v-450h230v450h96v-450h230v450h96v-536z" />
    <glyph glyph-name="uni0449.ss01" horiz-adv-x="929" 
d="M822 536v-450h82v-266h-92v180h-738v536h96v-450h230v450h96v-450h230v450h96z" />
    <glyph glyph-name="uni044A.ss01" horiz-adv-x="603" 
d="M238 355h124q124 0 172 -61q43 -50 43 -116q0 -73 -53 -126q-52 -52 -157 -52h-224v453h-130v83h225v-181zM238 82h118q126 0 126 98q0 41 -30 67t-89 26h-125v-191z" />
    <glyph glyph-name="uni044C.ss01" horiz-adv-x="541" 
d="M169 355h131q124 0 172 -61q43 -50 43 -116q0 -73 -53 -126q-52 -52 -157 -52h-231v536h95v-181zM169 82h125q126 0 126 98q0 41 -30 67t-89 26h-132v-191z" />
    <glyph glyph-name="uni044E.ss01" horiz-adv-x="844" 
d="M522 550q122 0 201 -82q80 -83 80 -199q0 -118 -80 -201q-79 -81 -201 -81q-112 0 -188 67t-91 170h-73v-224h-96v536h96v-230h72q14 105 90 174q77 70 190 70zM707 269q0 79 -54 135q-54 57 -131 57t-131 -57q-54 -56 -54 -135q0 -80 54 -137t131 -57t131 57t54 137z
" />
    <glyph glyph-name="yen.osf" horiz-adv-x="474" 
d="M383 582h98l-162 -289h114v-68h-148v-37h148v-68h-148v-120h-92v120h-148v68h148v37h-148v68h115l-161 289h99l142 -268z" />
    <glyph glyph-name="zero.dnom" horiz-adv-x="372" 
d="M307 54q-41 -59 -121 -59q-81 0 -122 59q-40 59 -40 146t40 146q41 60 122 60q80 0 121 -60q41 -61 41 -146t-41 -146zM274 200q0 62 -22.5 99.5t-65.5 37.5t-65.5 -37.5t-22.5 -99.5q0 -63 22 -100t66 -37t66 37t22 100z" />
    <glyph glyph-name="zero.lf" horiz-adv-x="679" 
d="M340 -12q-76 0 -134 33.5t-92 91.5q-63 111 -63 257t63 257q34 58 92 91.5t134 33.5q77 0 135 -34t90 -90.5t47.5 -121.5t15.5 -136t-15.5 -136t-47.5 -121.5t-90 -90.5t-135 -34zM527 370q0 127 -46 207q-46 82 -141 82t-141 -82q-46 -80 -46 -207q0 -128 46 -208
q47 -81 141 -81t141 81q46 80 46 208z" />
    <glyph glyph-name="zero.num" horiz-adv-x="372" 
d="M307 400q-41 -59 -121 -59q-81 0 -122 59q-40 59 -40 146t40 146q41 60 122 60q80 0 121 -60q41 -61 41 -146t-41 -146zM274 546q0 62 -22.5 99.5t-65.5 37.5t-65.5 -37.5t-22.5 -99.5q0 -63 22 -100t66 -37t66 37t22 100z" />
    <glyph glyph-name="zero.osf" horiz-adv-x="600" 
d="M413 14q-50 -26 -113 -26q-64 0 -114 26q-88 46 -121 165q-15 75 -12.5 147.5t37 139t96.5 99.5q50 26 114 26q63 0 113 -26q88 -46 121 -166q15 -75 12.5 -147.5t-37 -138.5t-96.5 -99zM450 289q0 99 -38.5 157.5t-110.5 58.5q-75 0 -113 -60q-37 -58 -37 -156t37 -156
q38 -59 112 -59q73 0 111.5 58t38.5 157z" />
    <glyph glyph-name="zero.slash" horiz-adv-x="679" 
d="M340 752q77 0 135 -34t90 -90.5t47.5 -121.5t15.5 -136t-15.5 -136t-47.5 -121.5t-90 -90.5t-135 -34q-76 0 -134 33.5t-92 91.5q-63 111 -63 257t63 257q34 58 92 91.5t134 33.5zM340 666q-97 0 -145 -84q-47 -83 -47 -212q0 -100 27 -171l290 411q-48 56 -125 56z
M340 74q65 1 110 42t64.5 106t17.5 148q0 91 -23 158l-286 -407q45 -47 117 -47z" />
    <glyph glyph-name="zero.tf" horiz-adv-x="594" 
d="M423 22q-53 -34 -126 -34q-72 0 -127 34q-93 58 -129 212q-32 137 0 271q36 155 129 213q55 34 127 34q73 0 126 -34q96 -59 131 -213q32 -134 0 -271q-36 -154 -131 -212zM297 81q89 0 132 81q44 82 44 208q0 125 -44 207q-43 82 -132 82t-132 -82q-43 -80 -43 -207
q-2 -127 42.5 -207.5t132.5 -81.5z" />
    </font>
</defs>
</svg>
