<?xml version="1.0" standalone="no"?>
<!DOCTYPE svg PUBLIC "-//W3C//DTD SVG 1.1//EN" "http://www.w3.org/Graphics/SVG/1.1/DTD/svg11.dtd" >
<svg>
<metadata>
Created by FontForge 20090622 at Fri Jul 27 08:56:45 2018
 By deploy user
Copyright &#194;&#169; 2017 by Kastelov. All rights reserved.
</metadata>
<defs>
<font id="Axiforma-Book" horiz-adv-x="856" >
  <font-face 
    font-family="Axiforma Book"
    font-weight="300"
    font-stretch="normal"
    units-per-em="1000"
    panose-1="0 0 4 0 0 0 0 0 0 0"
    ascent="771"
    descent="-229"
    x-height="534"
    cap-height="739"
    bbox="-74 -248 1011 1001"
    underline-thickness="50"
    underline-position="-150"
    unicode-range="U+0020-U+00FE"
  />
<missing-glyph horiz-adv-x="364" 
d="M33 0v666h265v-666h-265zM66 33h199v600h-199v-600z" />
    <glyph glyph-name=".notdef" horiz-adv-x="364" 
d="M33 0v666h265v-666h-265zM66 33h199v600h-199v-600z" />
    <glyph glyph-name=".null" horiz-adv-x="0" 
 />
    <glyph glyph-name="nonmarkingreturn" horiz-adv-x="333" 
 />
    <glyph glyph-name="space" unicode=" " horiz-adv-x="247" 
 />
    <glyph glyph-name="exclam" unicode="!" horiz-adv-x="292" 
d="M191 176h-91l-4 563h100zM85 50q0 25 18 42.5t44 17.5t43.5 -17.5t17.5 -42.5q0 -27 -17.5 -44.5t-43.5 -17.5t-44 17.5t-18 44.5z" />
    <glyph glyph-name="quotedbl" unicode="&#x22;" horiz-adv-x="455" 
d="M129 449h-82l81 290h109zM325 449h-82l81 290h109z" />
    <glyph glyph-name="numbersign" unicode="#" horiz-adv-x="698" 
d="M663 536l-14 -73h-108l-33 -174h108l-14 -73h-108l-41 -216h-81l41 216h-180l-41 -216h-82l41 216h-116l13 73h117l33 174h-117l14 73h117l39 203h81l-38 -203h180l38 203h81l-38 -203h108zM247 289h180l33 174h-180z" />
    <glyph glyph-name="dollar" unicode="$" horiz-adv-x="561" 
d="M519 198q0 -83 -55 -139t-141 -68v-103h-66v101q-74 6 -134 46t-92 107l72 55q58 -120 175 -120q64 0 102 33.5t38 82.5q0 63 -78 107q-19 11 -74 35q-55 26 -85 45q-110 71 -110 175q0 78 53 134q53 54 142 62v92h66v-94q106 -16 171 -107l-66 -58q-59 81 -147 81
q-52 0 -86 -28.5t-34 -75.5q0 -60 63 -99q19 -12 87 -45q74 -35 95 -49q104 -63 104 -170z" />
    <glyph glyph-name="percent" unicode="%" horiz-adv-x="877" 
d="M354 442q-56 -53 -132 -53t-132 53q-55 52 -55 128t55 128q56 54 132 54t132 -54q55 -52 55 -128t-55 -128zM210 0h-94l545 739h95zM141 490q34 -32 81 -32q48 0 80 32q33 32 33 80t-33 80q-32 32 -80 32q-47 0 -81 -32q-32 -32 -32 -80t32 -80zM655 -12q-77 0 -133 53
q-55 52 -55 127q0 76 55 128q56 54 133 54t132 -54q56 -53 56 -128q0 -74 -56 -127t-132 -53zM655 57q48 0 80.5 32t32.5 79q0 49 -32.5 81.5t-80.5 32.5t-80.5 -32.5t-32.5 -81.5q0 -47 33 -79t80 -32z" />
    <glyph glyph-name="ampersand" unicode="&#x26;" horiz-adv-x="697" 
d="M573 159l121 -106l-49 -59l-123 109q-116 -113 -240 -113q-100 0 -170 63q-70 64 -70 154q0 138 136 217q-43 64 -43 137q0 77 57 133q58 56 134 56q69 0 119 -44t50 -109q0 -73 -58 -118q-34 -24 -54 -35l-68 -34l-19 -9l60 -53l158 -138q41 52 71 105l61 -47
q-36 -63 -73 -109zM325 684q-48 0 -80 -34t-32 -87q0 -58 32 -105l31 14l32 15q49 26 54 30q28 19 38 36q14 21 14 45q0 37 -25.5 61.5t-63.5 24.5zM292 66q87 0 172 88l-178 157q-35 30 -58 54q-98 -59 -98 -154q0 -62 46 -104q47 -41 116 -41z" />
    <glyph glyph-name="quotesingle" unicode="'" horiz-adv-x="257" 
d="M127 449h-82l81 290h109z" />
    <glyph glyph-name="parenleft" unicode="(" horiz-adv-x="387" 
d="M379 -154l-38 -66q-144 77 -221 211q-78 135 -78 303q0 170 78 303q78 135 221 212l38 -66q-241 -160 -241 -449q0 -288 241 -448z" />
    <glyph glyph-name="parenright" unicode=")" horiz-adv-x="387" 
d="M45 -220l-37 66q241 160 241 448q0 289 -241 449l37 66q144 -76 222 -212q78 -133 78 -303q0 -169 -78 -303.5t-222 -210.5z" />
    <glyph glyph-name="asterisk" unicode="*" horiz-adv-x="450" 
d="M226 509l-94 -118l-54 44l95 111l-134 60l31 63l123 -62l-2 146h69l-2 -146l124 62l29 -63l-133 -60l95 -111l-55 -44z" />
    <glyph glyph-name="plus" unicode="+" horiz-adv-x="530" 
d="M308 391h188v-84h-188v-189l-84 -1v190h-190v84h190v189h84v-189z" />
    <glyph glyph-name="comma" unicode="," horiz-adv-x="239" 
d="M118 103q29 0 47.5 -20t18.5 -51q0 -82 -120 -159l-29 41q65 48 78 75h-4q-22 0 -37.5 16t-15.5 39q0 24 18.5 41.5t43.5 17.5z" />
    <glyph glyph-name="hyphen" unicode="-" horiz-adv-x="516" 
d="M449 235h-382v84h382v-84z" />
    <glyph glyph-name="period" unicode="." horiz-adv-x="230" 
d="M53 46q0 25 18 42.5t44 17.5t43.5 -17.5t17.5 -42.5q0 -27 -17.5 -44.5t-43.5 -17.5t-44 17.5t-18 44.5z" />
    <glyph glyph-name="slash" unicode="/" horiz-adv-x="597" 
d="M105 -123h-85l471 948h85z" />
    <glyph glyph-name="zero" unicode="0" horiz-adv-x="678" 
d="M474 22q-58 -34 -135 -34t-135 34q-101 62 -137 214q-32 134 0 268q36 154 137 213q59 35 135 35t135 -35q101 -59 137 -213q32 -134 0 -268q-36 -152 -137 -214zM339 74q98 0 145 83q48 83 48 213t-48 212q-46 84 -145 84q-97 0 -145 -84q-47 -83 -47 -212
q-2 -83 17.5 -148t64.5 -106t110 -42z" />
    <glyph glyph-name="one" unicode="1" horiz-adv-x="381" 
d="M5 564l206 175h75v-739h-93v615l-136 -115z" />
    <glyph glyph-name="two" unicode="2" horiz-adv-x="556" 
d="M399 326l-217 -240h324v-86h-458v77l238 256q45 48 62 69q59 73 59 136q0 57 -40 93q-41 36 -99 36q-94 0 -180 -84l-52 66q106 103 233 103q101 0 163 -61q64 -60 64 -160q0 -99 -97 -205z" />
    <glyph glyph-name="three" unicode="3" horiz-adv-x="552" 
d="M247 -12q-118 0 -225 73l43 75q97 -63 182 -63q71 0 113 36.5t42 94.5q0 60 -44 97.5t-114 37.5h-91v83h92q63 0 103 34.5t40 89.5t-38.5 88t-97.5 33q-81 0 -165 -66l-48 65q39 40 98 63t121 23q99 0 162 -57q63 -55 63 -138q0 -60 -35.5 -106t-93.5 -64v-4
q67 -15 105.5 -64t38.5 -117q0 -94 -70 -154t-181 -60z" />
    <glyph glyph-name="four" unicode="4" horiz-adv-x="591" 
d="M466 270h83v-82h-83v-188h-90v188h-347l-19 55l406 496h50v-469zM376 563l-239 -293h239v293z" />
    <glyph glyph-name="five" unicode="5" horiz-adv-x="570" 
d="M282 483q107 0 177 -70q71 -69 71 -176q0 -108 -74 -179q-73 -70 -186 -70q-128 0 -235 90l45 72q92 -77 187 -77q75 0 121 46q48 47 48 117q0 68 -47 115q-46 46 -117 46q-82 0 -138 -60l-63 33l43 369h366v-82h-294l-26 -205q55 31 122 31z" />
    <glyph glyph-name="six" unicode="6" horiz-adv-x="612" 
d="M319 -9q-127 0 -198 102t-68 254q0 107 31.5 196.5t102 149t170.5 59.5q110 0 186 -61l-38 -70q-67 51 -142 51q-55 0 -99 -29t-70 -78q-50 -95 -50 -198h3q25 50 75.5 80t115.5 30q100 0 165 -68q66 -67 66 -171q0 -106 -71 -177q-70 -70 -179 -70zM479 238
q0 68 -45 113t-112 45q-68 0 -114 -45q-45 -45 -45 -114q0 -68 45 -116q45 -47 112 -47q66 0 113 47q46 47 46 117z" />
    <glyph glyph-name="seven" unicode="7" horiz-adv-x="500" 
d="M21 657v82h462v-53l-291 -686h-100l287 657h-358z" />
    <glyph glyph-name="eight" unicode="8" horiz-adv-x="623" 
d="M49 198q0 63 40 116t106 77v2q-54 26 -84.5 70t-30.5 95q0 84 64 139t168 55q102 0 166 -55q65 -56 65 -139q0 -52 -31 -96t-85 -69v-3q67 -24 107 -77t40 -115q0 -91 -74 -151q-74 -59 -188 -59q-115 0 -189 59q-74 60 -74 151zM311 428q65 0 104 34.5t39 88.5
t-39.5 88.5t-102.5 34.5t-103.5 -34.5t-40.5 -88.5t39.5 -88.5t103.5 -34.5zM312 69q76 0 123 40q48 41 48 102q0 60 -47 98.5t-124 38.5q-78 0 -125.5 -38.5t-47.5 -98.5q0 -61 48 -102q49 -40 125 -40z" />
    <glyph glyph-name="nine" unicode="9" horiz-adv-x="610" 
d="M260 -12q-117 0 -190 61l35 73q73 -53 153 -53q73 0 122.5 46.5t69.5 113.5t20 148h-3q-25 -50 -76.5 -81t-116.5 -31q-100 0 -166 68q-65 68 -65 171q0 108 70 178t181 70q129 0 195 -99q67 -97 67 -262q0 -82 -17 -152.5t-51.5 -127.5t-93 -90t-134.5 -33zM290 345
q68 0 113 46q46 46 46 114q0 70 -46 117q-45 48 -111 48q-67 0 -114 -47q-45 -47 -45 -119q0 -68 45 -114q45 -45 112 -45z" />
    <glyph glyph-name="colon" unicode=":" horiz-adv-x="258" 
d="M67 417q0 25 18 42.5t44 17.5t43.5 -17.5t17.5 -42.5q0 -27 -17.5 -44.5t-43.5 -17.5t-44 17.5t-18 44.5zM67 46q0 25 18 42.5t44 17.5t43.5 -17.5t17.5 -42.5q0 -27 -17.5 -44.5t-43.5 -17.5t-44 17.5t-18 44.5z" />
    <glyph glyph-name="semicolon" unicode=";" horiz-adv-x="285" 
d="M85 416q0 25 18 42.5t44 17.5t43.5 -17.5t17.5 -42.5q0 -27 -17.5 -44.5t-43.5 -17.5t-44 17.5t-18 44.5zM144 103q29 0 47.5 -20t18.5 -51q0 -82 -120 -159l-29 41q65 48 78 75h-4q-22 0 -37.5 16t-15.5 39q0 24 18.5 41.5t43.5 17.5z" />
    <glyph glyph-name="less" unicode="&#x3c;" horiz-adv-x="574" 
d="M500 156v-95l-466 230v82l466 231v-94l-371 -178z" />
    <glyph glyph-name="equal" unicode="=" horiz-adv-x="604" 
d="M533 373h-462v81h462v-81zM533 201h-462v81h462v-81z" />
    <glyph glyph-name="greater" unicode="&#x3e;" horiz-adv-x="546" 
d="M516 291l-454 -244v95l339 177l-339 176v95l454 -245v-54z" />
    <glyph glyph-name="question" unicode="?" horiz-adv-x="505" 
d="M254 163h-83v74q0 39 21 73t50.5 59.5l59.5 51t51 58.5t21 70q0 56 -40 90q-41 35 -99 35q-79 0 -153 -78l-55 62q40 46 97 73t116 27q91 0 156 -58q66 -58 66 -149q0 -86 -74 -153q-11 -10 -44 -38t-47 -42t-28.5 -37t-14.5 -44v-74zM214 -12q-27 0 -45 17.5t-18 44.5
q0 25 18.5 42.5t44.5 17.5q25 0 42.5 -17.5t17.5 -42.5q0 -27 -17.5 -44.5t-42.5 -17.5z" />
    <glyph glyph-name="at" unicode="@" horiz-adv-x="975" 
d="M621 440v49h73v-278q0 -33 16.5 -54t41.5 -21q48 0 79 54q33 54 33 137q0 138 -107 239t-258 101q-155 0 -263 -112q-108 -111 -108 -270q0 -157 113 -270q114 -111 280 -111q159 0 279 99l40 -60q-56 -49 -144 -80q-88 -33 -183 -33q-94 0 -181 36t-151 98
q-62 62 -98 146t-36 173q0 189 132 323t317 134q183 0 313 -124q131 -123 131 -290q0 -111 -58 -184q-59 -74 -142 -74q-44 0 -73.5 22.5t-38.5 55.5q-58 -78 -161 -78q-85 0 -145 62q-59 64 -59 155q0 92 60 155q61 64 149 64q97 0 149 -64zM621 284q0 65 -40 108
q-41 44 -100 44q-61 0 -101 -43q-41 -44 -41 -107q0 -64 40 -107t100 -43q61 0 101 42q41 44 41 106z" />
    <glyph glyph-name="A" unicode="A" horiz-adv-x="671" 
d="M657 0h-102l-78 197h-284l-78 -197h-102l301 739h44zM445 285l-110 284l-110 -284h220z" />
    <glyph glyph-name="B" unicode="B" horiz-adv-x="669" 
d="M484 404q65 -18 102 -71t37 -121q0 -86 -60 -149t-168 -63h-300v739h287q95 0 148 -56q54 -55 54 -129q0 -51 -27 -92t-73 -58zM371 651h-184v-212h181q55 0 88 32t33 79q0 43 -32.5 72t-85.5 29zM187 88h194q67 0 106 39q40 39 40 91q0 57 -40.5 95.5t-110.5 38.5h-189
v-264z" />
    <glyph glyph-name="C" unicode="C" horiz-adv-x="778" 
d="M427 -11q-160 0 -270 106q-110 107 -110 272q0 168 112 276q112 109 271 109q100 0 186 -45q87 -46 133 -118l-70 -57q-45 61 -109.5 95.5t-138.5 34.5q-121 0 -205 -84t-84 -212q0 -126 82 -207t206 -81q155 0 253 128l68 -57q-53 -73 -138.5 -116.5t-185.5 -43.5z" />
    <glyph glyph-name="D" unicode="D" horiz-adv-x="756" 
d="M357 0h-262v739h272q156 0 247 -100t91 -271q0 -170 -93 -269t-255 -99zM187 651v-563h173q117 0 183 79t66 204q0 123 -66 201q-64 79 -182 79h-174z" />
    <glyph glyph-name="E" unicode="E" horiz-adv-x="605" 
d="M549 0h-454v739h453v-88h-361v-231h334v-88h-334v-244h362v-88z" />
    <glyph glyph-name="F" unicode="F" horiz-adv-x="568" 
d="M187 0h-92v739h446v-90h-354v-228h308v-90h-308v-331z" />
    <glyph glyph-name="G" unicode="G" horiz-adv-x="812" 
d="M424 -11q-164 0 -270 108q-107 109 -107 272q0 166 112 274q112 109 271 109q92 0 176 -38q83 -38 133 -100l-67 -59q-95 107 -241 107q-123 0 -206 -83t-83 -211q0 -126 82 -208t204 -82q68 0 131.5 28.5t111.5 79.5v154h-254v86h342v-280q-136 -157 -335 -157z" />
    <glyph glyph-name="H" unicode="H" horiz-adv-x="756" 
d="M188 0h-93v739h93v-315h381v315h92v-739h-92v335h-381v-335z" />
    <glyph glyph-name="I" unicode="I" horiz-adv-x="282" 
d="M95 0v739h92v-739h-92z" />
    <glyph glyph-name="J" unicode="J" horiz-adv-x="554" 
d="M224 -12q-128 0 -210 96l60 66q59 -74 151 -74q67 0 107.5 43t40.5 120v500h93v-504q0 -118 -67 -182q-68 -65 -175 -65z" />
    <glyph glyph-name="K" unicode="K" horiz-adv-x="661" 
d="M673 0h-115l-269 328l-102 -121v-207h-92v739h92v-410l348 410h110l-295 -349z" />
    <glyph glyph-name="L" unicode="L" horiz-adv-x="601" 
d="M587 0h-492v739h92v-649h400v-90z" />
    <glyph glyph-name="M" unicode="M" horiz-adv-x="916" 
d="M187 0h-92v739h40l324 -476l321 476h41v-739h-93v511l-259 -382h-23l-259 382v-511z" />
    <glyph glyph-name="N" unicode="N" horiz-adv-x="778" 
d="M591 201v538h92v-739h-44l-452 535v-535h-92v739h37z" />
    <glyph glyph-name="O" unicode="O" 
d="M46 365q0 162 112 274q113 113 270 113t270 -113q112 -112 112 -270q0 -157 -113 -270q-113 -111 -273 -111q-161 0 -270 109q-108 110 -108 268zM428 78q120 0 203 83t83 207t-83 209q-82 84 -203 84t-203 -85q-83 -85 -83 -208q0 -124 82 -207q83 -83 204 -83z" />
    <glyph glyph-name="P" unicode="P" horiz-adv-x="603" 
d="M95 739h243q115 0 175 -67q61 -67 61 -159q0 -93 -64 -160q-63 -66 -181 -66h-142v-287h-92v739zM187 374h143q72 0 111.5 40t39.5 101q0 59 -36.5 97.5t-100.5 38.5h-157v-277z" />
    <glyph glyph-name="Q" unicode="Q" 
d="M712 -42q43 0 85 16l11 -78q-42 -19 -102 -19q-134 0 -241 113q-32 -2 -36 -2q-159 0 -271 112t-112 270q0 157 112 269q113 113 271 113q157 0 269 -112t112 -270q0 -119 -68 -217q-67 -97 -175 -139q68 -56 145 -56zM143 368q0 -124 83 -207t203 -83q119 0 202 83
t83 207t-83 209q-82 84 -202 84t-203 -84q-83 -85 -83 -209z" />
    <glyph glyph-name="R" unicode="R" horiz-adv-x="636" 
d="M604 0h-115l-198 305h-104v-305h-92v739h246q109 0 169 -65q60 -64 60 -153q0 -74 -46 -133q-47 -61 -130 -77zM342 650h-155v-257h134q75 0 114.5 36t39.5 94q0 56 -35.5 91.5t-97.5 35.5z" />
    <glyph glyph-name="S" unicode="S" horiz-adv-x="558" 
d="M276 -12q-80 0 -146.5 40t-101.5 114l72 55q58 -120 175 -120q64 0 102 33.5t38 82.5q0 63 -78 107q-14 8 -77 37q-47 22 -82 43q-110 71 -110 175q0 85 60 140q60 57 158 57q136 0 214 -110l-66 -58q-58 81 -147 81q-52 0 -86 -28.5t-34 -75.5q0 -60 63 -99
q20 -12 87 -45q74 -35 95 -49q104 -63 104 -170q0 -94 -69 -152q-67 -58 -171 -58z" />
    <glyph glyph-name="T" unicode="T" horiz-adv-x="561" 
d="M234 0v649h-220v90h533v-90h-220v-649h-93z" />
    <glyph glyph-name="U" unicode="U" horiz-adv-x="703" 
d="M87 246v493h92v-474q0 -91 45 -139t128 -48q81 0 126 49.5t45 137.5v474h93v-493q0 -120 -72 -190q-72 -69 -192 -69t-193 69q-72 70 -72 190z" />
    <glyph glyph-name="V" unicode="V" horiz-adv-x="704" 
d="M354 164l239 575h100l-316 -739h-48l-320 739h105z" />
    <glyph glyph-name="W" unicode="W" horiz-adv-x="1024" 
d="M313 0h-46l-255 739h97l183 -548l200 548h38l205 -548l179 548h97l-253 -739h-45l-201 562z" />
    <glyph glyph-name="X" unicode="X" horiz-adv-x="621" 
d="M121 0h-112l247 375l-236 364h108l183 -293l184 293h112l-243 -364l246 -375h-108l-191 298z" />
    <glyph glyph-name="Y" unicode="Y" horiz-adv-x="633" 
d="M513 739h102l-253 -471v-268h-92v268l-250 471h102l194 -382z" />
    <glyph glyph-name="Z" unicode="Z" horiz-adv-x="613" 
d="M579 0h-549v55l408 596h-389v88h519v-56l-403 -595h414v-88z" />
    <glyph glyph-name="bracketleft" unicode="[" horiz-adv-x="364" 
d="M348 -227h-259v1038h259v-72h-167v-894h167v-72z" />
    <glyph glyph-name="backslash" unicode="\" horiz-adv-x="597" 
d="M106 825l471 -948h-85l-471 948h85z" />
    <glyph glyph-name="bracketright" unicode="]" horiz-adv-x="364" 
d="M275 -227h-259v72h167v894h-167v72h259v-1038z" />
    <glyph glyph-name="asciicircum" unicode="^" horiz-adv-x="517" 
d="M131 431h-90l193 308h50l192 -308h-89l-128 216z" />
    <glyph glyph-name="underscore" unicode="_" horiz-adv-x="581" 
d="M581 -167h-581v81h581v-81z" />
    <glyph glyph-name="grave" unicode="`" horiz-adv-x="426" 
d="M151 786l59 -166h-77l-93 166h111z" />
    <glyph glyph-name="a" unicode="a" horiz-adv-x="663" 
d="M501 456v79h86v-535h-86v77q-73 -90 -191 -90q-116 0 -192 81q-76 82 -76 203t76 198q76 79 192 79q117 0 191 -92zM508 268q0 82 -53 140q-52 58 -136 58t-136 -58q-51 -57 -51 -141q0 -83 51 -141q53 -57 136 -57t136 57q53 59 53 142z" />
    <glyph glyph-name="b" unicode="b" horiz-adv-x="666" 
d="M357 548q114 0 190 -82q77 -83 77 -199t-77 -199q-77 -81 -191 -81q-119 0 -191 92v-79h-89v757h89v-304q74 95 192 95zM347 71q83 0 134 57q52 56 52 140t-52 139q-51 57 -134 57q-84 0 -135 -57t-51 -139q0 -83 51 -140t135 -57z" />
    <glyph glyph-name="c" unicode="c" horiz-adv-x="598" 
d="M324 -12q-123 0 -203 78q-79 79 -79 201t80 202q80 79 207 79q79 0 145 -38t97 -101l-74 -43q-28 46 -72.5 73t-95.5 27q-85 0 -141 -57q-56 -58 -56 -142t54 -141q56 -56 138 -56q52 0 99 28q49 29 71 70l74 -43q-33 -61 -100 -99t-144 -38z" />
    <glyph glyph-name="d" unicode="d" horiz-adv-x="666" 
d="M501 455v302h89v-757h-89v75q-70 -88 -189 -88q-118 0 -194 81q-76 82 -76 200q0 116 77 198q76 82 191 82q118 0 191 -93zM508 268q0 84 -52 140q-52 58 -136 58t-136 -58q-52 -56 -52 -140t52 -142q52 -57 136 -57t136 57q52 58 52 142z" />
    <glyph glyph-name="e" unicode="e" horiz-adv-x="609" 
d="M569 277q0 -11 -3 -47h-429q12 -73 60 -116t132 -43q47 0 98.5 17t90.5 44l38 -69q-41 -32 -103 -53.5t-126 -21.5q-96 0 -162 42t-94 103.5t-28 135.5q0 121 75 200t194 79q113 0 185 -73t72 -198zM312 467q-68 0 -116 -43.5t-59 -113.5h338q-4 71 -49.5 114t-113.5 43z
" />
    <glyph glyph-name="f" unicode="f" horiz-adv-x="389" 
d="M327 684q-118 0 -118 -114v-35h171v-77h-171v-458h-89v458h-94v77h94v37q0 92 53.5 144t143.5 52q64 0 115 -27l-27 -75q-43 18 -78 18z" />
    <glyph glyph-name="g" unicode="g" horiz-adv-x="666" 
d="M501 465v70h89v-480q0 -129 -78 -206q-76 -76 -207 -76t-234 75l43 71q88 -65 191 -65q90 0 142 52q54 51 54 133v44q-72 -84 -190 -84q-116 0 -192 79q-77 80 -77 196t79 195t194 79t186 -83zM320 467q-83 0 -135 -55q-53 -56 -53 -138q0 -83 53 -139q54 -55 135 -55
q82 0 134 55q54 55 54 139q0 82 -54 138q-52 55 -134 55z" />
    <glyph glyph-name="h" unicode="h" horiz-adv-x="612" 
d="M165 0h-89v757h86v-288q25 37 70.5 58.5t99.5 21.5q89 0 150 -58t61 -167v-324h-89v299q0 80 -37.5 123.5t-101.5 43.5q-67 0 -109 -47q-41 -47 -41 -120v-299z" />
    <glyph glyph-name="i" unicode="i" horiz-adv-x="241" 
d="M122 613q-29 0 -48 19t-19 47t19 46.5t48 18.5q27 0 46 -18.5t19 -46.5t-19 -47t-46 -19zM165 535v-535h-89v535h89z" />
    <glyph glyph-name="j" unicode="j" horiz-adv-x="265" 
d="M145 613q-29 0 -48 19t-19 47t19 46.5t48 18.5q27 0 46 -18.5t19 -46.5t-19 -47t-46 -19zM17 -228q-59 0 -91 21l18 75q39 -14 63 -14q93 0 93 111v570h89v-562q0 -97 -45.5 -149t-126.5 -52z" />
    <glyph glyph-name="k" unicode="k" horiz-adv-x="539" 
d="M542 0h-119l-205 253l-53 -48v-205h-89v757h89v-443l246 221h123l-252 -225z" />
    <glyph glyph-name="l" unicode="l" horiz-adv-x="241" 
d="M165 757v-757h-89v757h89z" />
    <glyph glyph-name="m" unicode="m" horiz-adv-x="970" 
d="M689 549q98 0 155 -63t57 -169v-317h-89v304q0 77 -35.5 119.5t-96.5 42.5q-65 0 -105.5 -45.5t-40.5 -118.5v-302h-89v302q0 77 -35.5 120.5t-97.5 43.5q-66 0 -106.5 -45.5t-40.5 -120.5v-300h-89v535h87v-79q24 43 66.5 68t94.5 25q55 0 101 -26.5t69 -73.5
q27 45 80 72.5t115 27.5z" />
    <glyph glyph-name="n" unicode="n" horiz-adv-x="614" 
d="M165 0h-89v535h87v-76q51 90 170 90q90 0 151 -58t61 -167v-324h-89v298q0 80 -38 124t-102 44q-67 0 -109 -47t-42 -121v-298z" />
    <glyph glyph-name="o" unicode="o" horiz-adv-x="644" 
d="M42 268q0 118 79 198q79 82 201 82q121 0 200 -82q80 -82 80 -198q0 -120 -79 -200q-79 -81 -201 -81t-201 81q-79 80 -79 200zM512 268q0 81 -55 139q-56 59 -135 59t-135 -59q-55 -58 -55 -139q0 -83 55 -141t135 -58t135 58t55 141z" />
    <glyph glyph-name="p" unicode="p" horiz-adv-x="668" 
d="M359 548q114 0 190 -82q77 -83 77 -199t-77 -199q-77 -81 -192 -81q-120 0 -192 92v-299h-89v755h89v-82q74 95 194 95zM349 69q83 0 136 57q52 58 52 142t-52 140q-52 58 -136 58q-85 0 -137 -58q-51 -57 -51 -140t51 -142q52 -57 137 -57z" />
    <glyph glyph-name="q" unicode="q" horiz-adv-x="668" 
d="M503 454v81h89v-755h-89v299q-72 -92 -193 -92q-116 0 -192 81q-76 82 -76 200q0 116 77 198q76 82 191 82q120 0 193 -94zM508 268q0 84 -52 140q-52 58 -136 58t-136 -58q-52 -56 -52 -140t52 -142q52 -57 136 -57t136 57q52 58 52 142z" />
    <glyph glyph-name="r" unicode="r" horiz-adv-x="384" 
d="M165 0h-89v535h84v-80q46 94 155 94q28 0 62 -8l-8 -87q-29 9 -55 9q-67 0 -108 -45.5t-41 -129.5v-288z" />
    <glyph glyph-name="s" unicode="s" horiz-adv-x="448" 
d="M221 -12q-62 0 -114 30t-81 88l68 47q23 -42 57.5 -64t72.5 -22q43 0 70.5 22.5t27.5 54.5q0 44 -51 72q-20 11 -65 30q-51 22 -67 31q-80 44 -80 128q0 64 46 106t124 42q53 0 98.5 -22.5t68.5 -63.5l-60 -53q-41 63 -113 63q-37 0 -58 -19.5t-21 -48.5q0 -44 44 -65
l61 -28q47 -20 70 -32q91 -48 91 -135q0 -67 -53 -114t-136 -47z" />
    <glyph glyph-name="t" unicode="t" horiz-adv-x="422" 
d="M384 101l35 -69q-57 -45 -140 -45t-126 51.5t-43 147.5v272h-95v77h96v189h88v-189h191v-77h-191v-281q0 -108 88 -108q45 0 97 32z" />
    <glyph glyph-name="u" unicode="u" horiz-adv-x="592" 
d="M296 -13q-105 0 -166 61t-61 166v321h89v-318q0 -69 36.5 -108t101.5 -39t101.5 39t36.5 108v318h89v-321q0 -105 -60.5 -166t-166.5 -61z" />
    <glyph glyph-name="v" unicode="v" horiz-adv-x="558" 
d="M280 127l167 408h98l-236 -534h-60l-236 534h99z" />
    <glyph glyph-name="w" unicode="w" horiz-adv-x="834" 
d="M268 1h-73l-183 534h93l130 -409l150 409h62l155 -409l125 409h93l-179 -534h-73l-152 410z" />
    <glyph glyph-name="x" unicode="x" horiz-adv-x="501" 
d="M302 271l185 -271h-103l-134 204l-134 -204h-108l190 278l-172 257h104l123 -192l124 192h106z" />
    <glyph glyph-name="y" unicode="y" horiz-adv-x="548" 
d="M287 125l147 410h99l-226 -600q-32 -86 -75.5 -124t-104.5 -38q-51 0 -83 20l10 79q36 -16 65 -16q67 0 106 95l21 52l-232 532h103z" />
    <glyph glyph-name="z" unicode="z" horiz-adv-x="504" 
d="M461 483l-311 -406h320v-77h-440v56l311 401h-293v77h413v-51z" />
    <glyph glyph-name="braceleft" unicode="{" horiz-adv-x="366" 
d="M112 292v-4q47 -15 78 -52.5t31 -86.5q0 -39 -4 -106q-3 -74 -3 -106q0 -96 97 -96h34v-72h-40q-85 0 -130 44t-45 130q0 42 3 116q4 65 4 97q0 55 -39 77q-27 16 -76 28v58q47 12 76 28q39 23 39 77q0 32 -4 97q-3 75 -3 117q0 86 45 129.5t130 43.5h40v-72h-34
q-97 0 -97 -95q0 -33 3 -108q4 -65 4 -104q0 -49 -31 -87t-78 -53z" />
    <glyph glyph-name="bar" unicode="|" horiz-adv-x="256" 
d="M167 -179h-78v1026h78v-1026z" />
    <glyph glyph-name="braceright" unicode="}" horiz-adv-x="366" 
d="M254 288v4q-47 15 -78.5 53t-31.5 87q0 39 4 104q4 67 4 108q0 95 -97 95h-34v72h40q85 0 130 -44t45 -129q0 -50 -4 -117q-3 -74 -3 -97q0 -54 39 -77q29 -16 76 -28v-58q-47 -11 -77 -28q-38 -23 -38 -77q0 -24 3 -97q4 -65 4 -116q0 -86 -45 -130t-130 -44h-40v72h34
q97 0 97 96q0 41 -4 106q-4 67 -4 106q0 49 31.5 86.5t78.5 52.5z" />
    <glyph glyph-name="asciitilde" unicode="~" horiz-adv-x="663" 
d="M435 253q-48 0 -115 34t-95 34q-32 0 -54.5 -13t-47.5 -46l-57 41q57 96 165 96q47 0 114 -34t96 -34q32 0 54.5 13t47.5 46l57 -41q-58 -96 -165 -96z" />
    <glyph glyph-name="exclamdown" unicode="&#xa1;" horiz-adv-x="258" 
d="M201 464q0 -25 -17.5 -42.5t-43.5 -17.5t-44 17.5t-18 42.5q0 27 18 44.5t44 17.5t43.5 -17.5t17.5 -44.5zM89 -225l4 563h91l5 -563h-100z" />
    <glyph glyph-name="cent" unicode="&#xa2;" horiz-adv-x="609" 
d="M362 464v-390q42 8 78.5 33.5t56.5 60.5l74 -43q-29 -54 -85 -90.5t-124 -44.5v-81h-66v80q-110 10 -181 87q-70 76 -70 191t69 191q72 78 182 88v83h66v-83q70 -7 127 -43.5t85 -93.5l-74 -43q-50 83 -138 98zM296 72v391q-72 -12 -116 -67q-45 -54 -45 -129t45 -130
q45 -54 116 -65z" />
    <glyph glyph-name="sterling" unicode="&#xa3;" horiz-adv-x="568" 
d="M164 85h363v-85h-472v74q43 28 72 86t29 110q0 28 -12 67h-89v78h61q-28 75 -28 124q2 90 65 151q63 60 159 62q66 1 121.5 -30.5t88.5 -86.5l-70 -48q-21 37 -57 59t-77 22q-59 0 -97.5 -39t-38.5 -98q0 -43 27 -116h244v-78h-217q12 -45 11 -81q-1 -48 -24 -94.5
t-59 -76.5z" />
    <glyph glyph-name="currency" unicode="&#xa4;" horiz-adv-x="635" 
d="M541 367q0 -71 -39 -126l71 -70l-51 -50l-69 68q-61 -48 -138 -48q-76 0 -134 46l-68 -66l-50 50l68 67q-40 58 -40 129q0 75 45 138l-73 72l50 50l74 -73q56 42 128 42q74 0 132 -43l75 74l51 -50l-76 -75q44 -61 44 -135zM315 214q61 0 105 45q44 46 44 110
q0 65 -44 109q-44 45 -105 45t-105 -45q-42 -44 -42 -109q0 -66 43 -110q43 -45 104 -45z" />
    <glyph glyph-name="yen" unicode="&#xa5;" horiz-adv-x="633" 
d="M505 739h98l-202 -376h137v-70h-175l-1 -2v-56h176v-70h-176v-165h-92v165h-178v70h178v58h-178v70h140l-201 376h99l187 -359z" />
    <glyph glyph-name="brokenbar" unicode="&#xa6;" horiz-adv-x="256" 
d="M167 434h-78v413h78v-413zM89 234h78v-413h-78v413z" />
    <glyph glyph-name="section" unicode="&#xa7;" horiz-adv-x="554" 
d="M516 212q0 -86 -76 -130q29 -44 29 -100q0 -84 -58 -138q-58 -55 -152 -55q-132 0 -213 104l63 58q65 -78 149 -78q54 0 87.5 30.5t33.5 76.5q0 53 -50 91q-27 20 -47 32q-22 13 -59 32l-54 28q-15 8 -47 30q-39 28 -57.5 58.5t-22.5 76.5q0 40 20 74.5t55 54.5
q-29 46 -29 101q0 84 58 138q58 55 151 55q126 0 201 -101l-63 -54q-59 71 -133 71q-55 0 -89 -30.5t-34 -75.5q-6 -37 46 -89q10 -10 34 -25l35 -20l40 -21q8 -4 15 -8q72 -37 113 -74q54 -45 54 -112zM213 239l53 -28q79 -42 118 -70q40 16 40 61q0 35 -27.5 61t-91.5 59
q-104 54 -132 77q-40 -18 -40 -62q0 -41 42 -72z" />
    <glyph glyph-name="dieresis" unicode="&#xa8;" horiz-adv-x="494" 
d="M117 632q-29 0 -48 19t-19 48q0 27 19.5 45.5t47.5 18.5q27 0 46 -18.5t19 -45.5q0 -29 -19 -48t-46 -19zM313 632q-29 0 -48 19t-19 48q0 27 19.5 45.5t47.5 18.5q27 0 46 -18.5t19 -45.5q0 -29 -19 -48t-46 -19z" />
    <glyph glyph-name="copyright" unicode="&#xa9;" horiz-adv-x="862" 
d="M46 369q0 157 113 270t272 113t272 -113t113 -270q0 -156 -113 -269q-112 -112 -272 -112t-272 112q-113 113 -113 269zM750 369q0 131 -94 224q-93 94 -225 94t-226 -94q-93 -93 -93 -224q0 -129 93 -224q95 -93 226 -93q132 0 225 93q94 94 94 224zM434 164
q-86 0 -145 59q-59 61 -59 146q0 87 59 146t145 59q98 0 155 -70l-44 -38q-45 50 -111 50q-62 0 -101 -41t-39 -106q0 -64 39 -105t101 -41q71 0 113 47l41 -42q-57 -64 -154 -64z" />
    <glyph glyph-name="ordfeminine" unicode="&#xaa;" horiz-adv-x="413" 
d="M195 736q69 0 110.5 -42t41.5 -114v-189h-56v38q-41 -47 -115 -47q-58 0 -93.5 32t-35.5 81q0 46 37 73.5t100 27.5q53 0 107 -12q-4 94 -100 94q-55 0 -99 -29l-23 49q49 38 126 38zM181 442q96 0 108 92q-46 11 -99 11q-38 0 -59.5 -13t-21.5 -36q0 -25 20 -39.5
t52 -14.5z" />
    <glyph glyph-name="guillemotleft" unicode="&#xab;" horiz-adv-x="506" 
d="M272 88h-87l-143 203l143 203h87l-143 -203zM451 88h-88l-141 203l141 203h88l-142 -203z" />
    <glyph glyph-name="logicalnot" unicode="&#xac;" horiz-adv-x="608" 
d="M454 277h-383v84h462v-207h-79v123z" />
    <glyph glyph-name="uni00AD" unicode="&#xad;" horiz-adv-x="514" 
d="M448 287h-382v82h382v-82z" />
    <glyph glyph-name="registered" unicode="&#xae;" horiz-adv-x="564" 
d="M114 691q70 70 168 70t168 -70t70 -168t-70 -168t-168 -70t-168 70t-70 168t70 168zM147 388q56 -56 135 -56t135 56t56 135t-56 135t-135 56t-135 -56t-56 -135t56 -135zM377 566q0 -52 -46 -71l53 -90h-51l-48 82h-41v-82h-45v241h95q36 0 59.5 -22.5t23.5 -57.5z
M284 608h-40v-84h40q49 0 49 43q0 41 -49 41z" />
    <glyph glyph-name="overscore" unicode="&#xaf;" horiz-adv-x="474" 
d="M344 648l-304 -1v81h304v-80z" />
    <glyph glyph-name="degree" unicode="&#xb0;" horiz-adv-x="363" 
d="M40 679q0 57 41 98q43 41 101 41q59 0 100 -41t41 -98q0 -56 -41 -97q-40 -40 -100 -40t-101 40q-41 41 -41 97zM125 622q24 -23 57 -23t56 23q24 23 24 57t-24 58q-23 24 -56 24t-57 -24q-23 -24 -23 -58t23 -57z" />
    <glyph glyph-name="plusminus" unicode="&#xb1;" horiz-adv-x="594" 
d="M340 672v-189h188v-85h-188v-188l-84 -1v189h-190v85h190v189h84zM528 87h-462v81h462v-81z" />
    <glyph glyph-name="uni00B2" unicode="&#xb2;" horiz-adv-x="344" 
d="M243 679l-105 -110h163v-62h-261v55l131 133q57 59 57 95q0 26 -18.5 42.5t-45.5 16.5q-44 0 -94 -44l-36 50q60 57 134 57q41 1 73.5 -19.5t47 -53t4 -76t-49.5 -84.5z" />
    <glyph glyph-name="uni00B3" unicode="&#xb3;" horiz-adv-x="331" 
d="M147 501q-67 0 -129 39l29 53q56 -32 98 -32q35 0 55.5 16.5t20.5 43.5t-21.5 44t-55.5 17h-51v58h49q31 0 51 15t20 41t-18.5 40.5t-47.5 14.5q-41 0 -86 -33l-33 47q50 47 126 47q56 0 92 -30t36 -75q0 -32 -19.5 -56.5t-51.5 -34.5v-2q38 -8 59 -34t21 -63
q0 -51 -40 -83.5t-104 -32.5z" />
    <glyph glyph-name="acute" unicode="&#xb4;" horiz-adv-x="455" 
d="M117 620h-77l59 166h111z" />
    <glyph glyph-name="paragraph" unicode="&#xb6;" horiz-adv-x="645" 
d="M249 734h343v-82h-68v-855h-85v855h-76v-855h-85v512h-29q-92 0 -156 61q-63 62 -63 153q0 90 63 150q62 61 156 61z" />
    <glyph glyph-name="middot" unicode="&#xb7;" horiz-adv-x="254" 
d="M65 46q0 25 18 42.5t44 17.5t43.5 -17.5t17.5 -42.5q0 -27 -17.5 -44.5t-43.5 -17.5t-44 17.5t-18 44.5z" />
    <glyph glyph-name="cedilla" unicode="&#xb8;" horiz-adv-x="310" 
d="M169 -48h10q43 0 72 -24.5t29 -66.5q0 -46 -34 -77.5t-94 -31.5q-52 0 -112 28l24 60q48 -20 81 -20q27 0 43 12.5t16 31.5q0 37 -52 37h-56l-9 21l39 98l70 -2z" />
    <glyph glyph-name="uni00B9" unicode="&#xb9;" horiz-adv-x="263" 
d="M19 793l130 106h52v-392h-69v296l-76 -61z" />
    <glyph glyph-name="ordmasculine" unicode="&#xba;" horiz-adv-x="442" 
d="M43 557q0 76 51 127q51 52 127 52t127 -52q51 -51 51 -127q0 -75 -51 -126q-52 -50 -127 -50t-127 50q-51 51 -51 126zM220 437q51 0 85.5 34.5t34.5 86.5t-34.5 87.5t-85.5 35.5q-50 0 -84 -36q-34 -34 -34 -87q0 -52 34 -86.5t84 -34.5z" />
    <glyph glyph-name="guillemotright" unicode="&#xbb;" horiz-adv-x="506" 
d="M284 291l-141 -203h-88l142 203l-142 203h88zM464 291l-143 -203h-87l143 203l-143 203h87z" />
    <glyph glyph-name="onequarter" unicode="&#xbc;" horiz-adv-x="854" 
d="M217 346h-69v297l-76 -61l-37 51l130 106h52v-393zM106 0l578 739h79l-576 -739h-81zM768 154h44v-55h-44v-99h-59v99h-187l-14 39l215 258h45v-242zM709 294l-118 -140h118v140z" />
    <glyph glyph-name="onehalf" unicode="&#xbd;" horiz-adv-x="834" 
d="M218 346h-69v297l-76 -61l-37 51l130 106h52v-393zM83 0l578 739h79l-576 -739h-81zM735 172l-105 -110h163v-62h-261v55l131 133q57 58 57 95q0 26 -18.5 42.5t-45.5 16.5q-44 0 -94 -44l-36 50q60 57 134 57q41 1 73.5 -19.5t47 -53t4 -76t-49.5 -84.5z" />
    <glyph glyph-name="threequarters" unicode="&#xbe;" horiz-adv-x="839" 
d="M149 401q35 0 55.5 16.5t20.5 43.5t-21.5 44t-55.5 17h-51v58h49q31 0 51 15t20 41t-18.5 40.5t-47.5 14.5q-41 0 -86 -33l-33 47q50 47 126 47q56 0 92 -30t36 -75q0 -32 -19.5 -56.5t-51.5 -34.5v-2q38 -8 59 -34t21 -63q0 -51 -40 -83.5t-104 -32.5q-67 0 -129 39
l29 53q56 -32 98 -32zM137 0l578 739h79l-576 -739h-81zM692 396h45v-242h44v-55h-44v-99h-59v99h-187l-14 39zM678 294l-118 -140h118v140z" />
    <glyph glyph-name="questiondown" unicode="&#xbf;" horiz-adv-x="497" 
d="M285 527q27 0 45 -17.5t18 -44.5q0 -25 -18.5 -42.5t-44.5 -17.5q-25 0 -42.5 17.5t-17.5 42.5q0 27 17.5 44.5t42.5 17.5zM245 352h83v-74q0 -39 -21 -73t-50.5 -59.5l-59.5 -51t-51 -58.5t-21 -70q0 -56 40 -90q41 -35 99 -35q80 0 153 78l55 -62q-40 -46 -97 -73
t-116 -27q-91 0 -156 58q-66 58 -66 149q0 86 73 152q12 11 36.5 31t38 32.5t29.5 30t23.5 34.5t7.5 34v74z" />
    <glyph glyph-name="Agrave" unicode="&#xc0;" horiz-adv-x="671" 
d="M318 960l59 -166h-77l-93 166h111zM657 0h-102l-78 197h-284l-78 -197h-102l301 739h44zM445 285l-110 284l-110 -284h220z" />
    <glyph glyph-name="Aacute" unicode="&#xc1;" horiz-adv-x="671" 
d="M366 959h111l-93 -166h-77zM657 0h-102l-78 197h-284l-78 -197h-102l301 739h44zM445 285l-110 284l-110 -284h220z" />
    <glyph glyph-name="Acircumflex" unicode="&#xc2;" horiz-adv-x="671" 
d="M408 792l-73 90l-73 -90h-97l139 162h63l139 -162h-98zM657 0h-102l-78 197h-284l-78 -197h-102l301 739h44zM445 285l-110 284l-110 -284h220z" />
    <glyph glyph-name="Atilde" unicode="&#xc3;" horiz-adv-x="671" 
d="M264 848q-38 0 -59 -46l-58 27q12 44 42.5 68.5t72.5 24.5q32 0 75 -22q44 -22 64 -22q38 0 58 44l56 -26q-12 -44 -42.5 -68.5t-71.5 -24.5q-31 0 -74 22q-44 23 -63 23zM657 0h-102l-78 197h-284l-78 -197h-102l301 739h44zM445 285l-110 284l-110 -284h220z" />
    <glyph glyph-name="Adieresis" unicode="&#xc4;" horiz-adv-x="671" 
d="M291 825q-17 -17 -42 -17t-42 17t-17 42t17 41q17 17 42 17t42 -17q17 -16 17 -41t-17 -42zM466 825q-17 -17 -42 -17t-42 17t-17 42t17 41q17 17 42 17t42 -17q17 -16 17 -41t-17 -42zM657 0h-102l-78 197h-284l-78 -197h-102l301 739h44zM445 285l-110 284l-110 -284
h220z" />
    <glyph glyph-name="Aring" unicode="&#xc5;" horiz-adv-x="671" 
d="M225 890q0 47 33 79t81 32t81 -32t33 -79q0 -46 -33 -77.5t-81 -31.5t-81 31.5t-33 77.5zM339 945q-23 0 -39 -15.5t-16 -37.5q0 -24 16 -39.5t39 -15.5q22 0 38 15.5t16 39.5q0 22 -16 37.5t-38 15.5zM657 0h-102l-78 197h-284l-78 -197h-102l301 739h44zM445 285
l-110 284l-110 -284h220z" />
    <glyph glyph-name="AE" unicode="&#xc6;" horiz-adv-x="1010" 
d="M583 332v-244h371v-88h-464v225h-261l-138 -225h-106l466 739h502v-88h-370v-231h340v-88h-340zM490 651l-207 -338h207v338z" />
    <glyph glyph-name="Ccedilla" unicode="&#xc7;" horiz-adv-x="778" 
d="M683 206l68 -57q-49 -69 -128 -111.5t-172 -47.5l-15 -38h10q43 0 72 -24.5t29 -66.5q0 -46 -34 -77.5t-94 -31.5q-52 0 -112 28l24 60q48 -20 81 -20q27 0 43 12.5t16 31.5q0 37 -52 37h-56l-9 21l28 69q-145 17 -240 119q-95 104 -95 257q0 168 112 276
q112 109 271 109q100 0 186 -45q87 -46 133 -118l-70 -57q-45 61 -109.5 95.5t-138.5 34.5q-121 0 -205 -84t-84 -212q0 -126 82 -207t206 -81q155 0 253 128z" />
    <glyph glyph-name="Egrave" unicode="&#xc8;" horiz-adv-x="605" 
d="M314 960l59 -166h-77l-93 166h111zM549 0h-454v739h453v-88h-361v-231h334v-88h-334v-244h362v-88z" />
    <glyph glyph-name="Eacute" unicode="&#xc9;" horiz-adv-x="605" 
d="M353 793h-77l59 166h111zM549 0h-454v739h453v-88h-361v-231h334v-88h-334v-244h362v-88z" />
    <glyph glyph-name="Ecircumflex" unicode="&#xca;" horiz-adv-x="605" 
d="M250 792h-97l139 162h63l139 -162h-98l-73 90zM549 0h-454v739h453v-88h-361v-231h334v-88h-334v-244h362v-88z" />
    <glyph glyph-name="Edieresis" unicode="&#xcb;" horiz-adv-x="605" 
d="M279 825q-17 -17 -42 -17t-42 17t-17 42t17 41q17 17 42 17t42 -17q17 -16 17 -41t-17 -42zM454 825q-17 -17 -42 -17t-42 17t-17 42t17 41q17 17 42 17t42 -17q17 -16 17 -41t-17 -42zM549 0h-454v739h453v-88h-361v-231h334v-88h-334v-244h362v-88z" />
    <glyph glyph-name="Igrave" unicode="&#xcc;" horiz-adv-x="282" 
d="M124 960l59 -166h-77l-93 166h111zM98 0v739h92v-739h-92z" />
    <glyph glyph-name="Iacute" unicode="&#xcd;" horiz-adv-x="279" 
d="M177 794h-77l59 166h111zM95 0v739h92v-739h-92z" />
    <glyph glyph-name="Icircumflex" unicode="&#xce;" horiz-adv-x="282" 
d="M71 794h-97l139 162h63l139 -162h-98l-73 90zM98 0v739h92v-739h-92z" />
    <glyph glyph-name="Idieresis" unicode="&#xcf;" horiz-adv-x="282" 
d="M53 802q-27 0 -45 17.5t-18 45.5q0 25 18 42.5t45 17.5q25 0 43 -17.5t18 -42.5q0 -27 -18 -45t-43 -18zM174 865q0 25 18 42.5t44 17.5q25 0 43 -17.5t18 -42.5q0 -27 -17.5 -45t-43.5 -18t-44 18t-18 45zM98 0v739h92v-739h-92z" />
    <glyph glyph-name="Eth" unicode="&#xd0;" horiz-adv-x="776" 
d="M115 739h272q156 0 247 -100t91 -271q0 -170 -93 -269t-255 -99h-262v329h-103v82h103v328zM207 88h173q117 0 183 79t66 204q0 123 -66 201q-64 79 -182 79h-174v-240h216v-82h-216v-241z" />
    <glyph glyph-name="Ntilde" unicode="&#xd1;" horiz-adv-x="778" 
d="M266 802l-58 27q12 44 42.5 68.5t72.5 24.5q32 0 75 -22q44 -22 64 -22q38 0 58 44l56 -26q-12 -44 -42.5 -68.5t-71.5 -24.5q-31 0 -74 22q-44 23 -63 23q-38 0 -59 -46zM591 201v538h92v-739h-44l-452 535v-535h-92v739h37z" />
    <glyph glyph-name="Ograve" unicode="&#xd2;" 
d="M423 960l59 -166h-77l-93 166h111zM46 365q0 162 112 274q113 113 270 113t270 -113q112 -112 112 -270q0 -157 -113 -270q-113 -111 -273 -111q-161 0 -270 109q-108 110 -108 268zM428 78q120 0 203 83t83 207t-83 209q-82 84 -203 84t-203 -85q-83 -85 -83 -208
q0 -124 82 -207q83 -83 204 -83z" />
    <glyph glyph-name="Oacute" unicode="&#xd3;" 
d="M463 793h-77l59 166h111zM46 365q0 162 112 274q113 113 270 113t270 -113q112 -112 112 -270q0 -157 -113 -270q-113 -111 -273 -111q-161 0 -270 109q-108 110 -108 268zM428 78q120 0 203 83t83 207t-83 209q-82 84 -203 84t-203 -85q-83 -85 -83 -208q0 -124 82 -207
q83 -83 204 -83z" />
    <glyph glyph-name="Ocircumflex" unicode="&#xd4;" 
d="M354 792h-97l139 162h63l139 -162h-98l-73 90zM46 365q0 162 112 274q113 113 270 113t270 -113q112 -112 112 -270q0 -157 -113 -270q-113 -111 -273 -111q-161 0 -270 109q-108 110 -108 268zM428 78q120 0 203 83t83 207t-83 209q-82 84 -203 84t-203 -85
q-83 -85 -83 -208q0 -124 82 -207q83 -83 204 -83z" />
    <glyph glyph-name="Otilde" unicode="&#xd5;" 
d="M307 802l-58 27q12 44 42.5 68.5t72.5 24.5q32 0 75 -22q44 -22 64 -22q38 0 58 44l56 -26q-12 -44 -42.5 -68.5t-71.5 -24.5q-31 0 -74 22q-44 23 -63 23q-38 0 -59 -46zM46 365q0 162 112 274q113 113 270 113t270 -113q112 -112 112 -270q0 -157 -113 -270
q-113 -111 -273 -111q-161 0 -270 109q-108 110 -108 268zM428 78q120 0 203 83t83 207t-83 209q-82 84 -203 84t-203 -85q-83 -85 -83 -208q0 -124 82 -207q83 -83 204 -83z" />
    <glyph glyph-name="Odieresis" unicode="&#xd6;" 
d="M390 825q-17 -17 -42 -17t-42 17t-17 42t17 41q17 17 42 17t42 -17q17 -16 17 -41t-17 -42zM565 825q-17 -17 -42 -17t-42 17t-17 42t17 41q17 17 42 17t42 -17q17 -16 17 -41t-17 -42zM46 365q0 162 112 274q113 113 270 113t270 -113q112 -112 112 -270
q0 -157 -113 -270q-113 -111 -273 -111q-161 0 -270 109q-108 110 -108 268zM428 78q120 0 203 83t83 207t-83 209q-82 84 -203 84t-203 -85q-83 -85 -83 -208q0 -124 82 -207q83 -83 204 -83z" />
    <glyph glyph-name="multiply" unicode="&#xd7;" horiz-adv-x="513" 
d="M403 541l55 -53l-148 -149l148 -148l-53 -56l-149 150l-149 -150l-53 56l148 148l-147 147l52 55l148 -148z" />
    <glyph glyph-name="Oslash" unicode="&#xd8;" 
d="M741 743l-61 -87q61 -54 95.5 -129t34.5 -158q0 -157 -113 -270q-113 -111 -273 -111q-99 0 -183 45l-55 -78l-62 42l55 78q-64 54 -98.5 129t-34.5 161q0 162 112 274q113 113 270 113q103 0 192 -52l60 85zM142 368q0 -131 91 -216l334 473q-65 36 -139 36
q-121 0 -203 -85q-83 -85 -83 -208zM428 78q120 0 203 83t83 207q0 129 -87 213l-332 -472q59 -31 133 -31z" />
    <glyph glyph-name="Ugrave" unicode="&#xd9;" horiz-adv-x="703" 
d="M340 960l59 -166h-77l-93 166h111zM87 246v493h92v-474q0 -91 45 -139t128 -48q81 0 126 49.5t45 137.5v474h93v-493q0 -120 -72 -190q-72 -69 -192 -69t-193 69q-72 70 -72 190z" />
    <glyph glyph-name="Uacute" unicode="&#xda;" horiz-adv-x="703" 
d="M386 793h-77l59 166h111zM87 246v493h92v-474q0 -91 45 -139t128 -48q81 0 126 49.5t45 137.5v474h93v-493q0 -120 -72 -190q-72 -69 -192 -69t-193 69q-72 70 -72 190z" />
    <glyph glyph-name="Ucircumflex" unicode="&#xdb;" horiz-adv-x="703" 
d="M279 792h-97l139 162h63l139 -162h-98l-73 90zM87 246v493h92v-474q0 -91 45 -139t128 -48q81 0 126 49.5t45 137.5v474h93v-493q0 -120 -72 -190q-72 -69 -192 -69t-193 69q-72 70 -72 190z" />
    <glyph glyph-name="Udieresis" unicode="&#xdc;" horiz-adv-x="703" 
d="M307 825q-17 -17 -42 -17t-42 17t-17 42t17 41q17 17 42 17t42 -17q17 -16 17 -41t-17 -42zM482 825q-17 -17 -42 -17t-42 17t-17 42t17 41q17 17 42 17t42 -17q17 -16 17 -41t-17 -42zM87 246v493h92v-474q0 -91 45 -139t128 -48q81 0 126 49.5t45 137.5v474h93v-493
q0 -120 -72 -190q-72 -69 -192 -69t-193 69q-72 70 -72 190z" />
    <glyph glyph-name="Yacute" unicode="&#xdd;" horiz-adv-x="633" 
d="M348 793h-77l59 166h111zM513 739h102l-253 -471v-268h-92v268l-250 471h102l194 -382z" />
    <glyph glyph-name="Thorn" unicode="&#xde;" horiz-adv-x="617" 
d="M187 607h152q115 0 175 -67q61 -67 61 -159q0 -93 -64 -160q-63 -66 -181 -66h-143v-155h-92v739h92v-132zM187 242h144q72 0 111.5 40t39.5 101q0 59 -36.5 97.5t-100.5 38.5h-158v-277z" />
    <glyph glyph-name="germandbls" unicode="&#xdf;" horiz-adv-x="640" 
d="M470 395q58 -22 93 -73t35 -117q0 -98 -74 -161t-180 -63q-63 0 -120 23l23 80q37 -18 97 -18q74 0 118 44q45 44 45 102q0 63 -52 102q-53 39 -134 39v75q66 0 110 39q43 40 43 100q0 57 -39.5 92.5t-100.5 35.5q-77 0 -122 -60t-45 -169v-643h-91v668q0 137 74 211
t187 74q102 0 164 -58q63 -57 63 -148q0 -55 -25.5 -101.5t-68.5 -73.5z" />
    <glyph glyph-name="agrave" unicode="&#xe0;" horiz-adv-x="663" 
d="M310 788l59 -166h-77l-93 166h111zM501 456v79h86v-535h-86v77q-73 -90 -191 -90q-116 0 -192 81q-76 82 -76 203t76 198q76 79 192 79q117 0 191 -92zM508 268q0 82 -53 140q-52 58 -136 58t-136 -58q-51 -57 -51 -141q0 -83 51 -141q53 -57 136 -57t136 57
q53 59 53 142z" />
    <glyph glyph-name="aacute" unicode="&#xe1;" horiz-adv-x="663" 
d="M348 788h111l-93 -166h-77zM501 456v79h86v-535h-86v77q-73 -90 -191 -90q-116 0 -192 81q-76 82 -76 203t76 198q76 79 192 79q117 0 191 -92zM508 268q0 82 -53 140q-52 58 -136 58t-136 -58q-51 -57 -51 -141q0 -83 51 -141q53 -57 136 -57t136 57q53 59 53 142z" />
    <glyph glyph-name="acircumflex" unicode="&#xe2;" horiz-adv-x="663" 
d="M400 621l-73 90l-73 -90h-97l139 162h63l139 -162h-98zM501 456v79h86v-535h-86v77q-73 -90 -191 -90q-116 0 -192 81q-76 82 -76 203t76 198q76 79 192 79q117 0 191 -92zM508 268q0 82 -53 140q-52 58 -136 58t-136 -58q-51 -57 -51 -141q0 -83 51 -141q53 -57 136 -57
t136 57q53 59 53 142z" />
    <glyph glyph-name="atilde" unicode="&#xe3;" horiz-adv-x="663" 
d="M260 678q-38 0 -59 -46l-58 27q12 44 42.5 68.5t72.5 24.5q32 0 75 -22q44 -22 64 -22q38 0 58 44l56 -26q-12 -44 -42.5 -68.5t-71.5 -24.5q-31 0 -74 22q-44 23 -63 23zM501 456v79h86v-535h-86v77q-73 -90 -191 -90q-116 0 -192 81q-76 82 -76 203t76 198
q76 79 192 79q117 0 191 -92zM508 268q0 82 -53 140q-52 58 -136 58t-136 -58q-51 -57 -51 -141q0 -83 51 -141q53 -57 136 -57t136 57q53 59 53 142z" />
    <glyph glyph-name="adieresis" unicode="&#xe4;" horiz-adv-x="663" 
d="M231 618q-29 0 -48 19t-19 48q0 27 19.5 45.5t47.5 18.5q27 0 46 -18.5t19 -45.5q0 -29 -19 -48t-46 -19zM427 618q-29 0 -48 19t-19 48q0 27 19.5 45.5t47.5 18.5q27 0 46 -18.5t19 -45.5q0 -29 -19 -48t-46 -19zM501 456v79h86v-535h-86v77q-73 -90 -191 -90
q-116 0 -192 81q-76 82 -76 203t76 198q76 79 192 79q117 0 191 -92zM508 268q0 82 -53 140q-52 58 -136 58t-136 -58q-51 -57 -51 -141q0 -83 51 -141q53 -57 136 -57t136 57q53 59 53 142z" />
    <glyph glyph-name="aring" unicode="&#xe5;" horiz-adv-x="663" 
d="M214 710q0 47 33 79t81 32t81 -32t33 -79q0 -46 -33 -77.5t-81 -31.5t-81 31.5t-33 77.5zM328 765q-23 0 -39 -15.5t-16 -37.5q0 -24 16 -39.5t39 -15.5q22 0 38 15.5t16 39.5q0 22 -16 37.5t-38 15.5zM501 456v79h86v-535h-86v77q-73 -90 -191 -90q-116 0 -192 81
q-76 82 -76 203t76 198q76 79 192 79q117 0 191 -92zM508 268q0 82 -53 140q-52 58 -136 58t-136 -58q-51 -57 -51 -141q0 -83 51 -141q53 -57 136 -57t136 57q53 59 53 142z" />
    <glyph glyph-name="ae" unicode="&#xe6;" horiz-adv-x="997" 
d="M959 287q0 -11 -3 -47h-430q9 -75 58.5 -122t127.5 -47q46 0 97.5 17t87.5 44l40 -71q-40 -32 -102 -52.5t-126 -20.5q-163 0 -237 128q-36 -63 -97.5 -96t-136.5 -33q-93 0 -149.5 48.5t-56.5 124.5q0 48 24 81.5t65 48.5q69 26 140 26h168q-21 148 -163 148
q-109 0 -168 -50l-43 70q36 27 97 46q60 18 114 18q68 0 125.5 -29.5t89.5 -83.5q74 113 226 113q111 0 181 -69q71 -69 71 -192zM705 466q-68 0 -116 -41.5t-61 -108.5h339q-5 70 -50 110t-112 40zM242 71q78 0 129 48q52 49 59 121h-170q-140 0 -140 -84q0 -39 34 -62
t88 -23z" />
    <glyph glyph-name="ccedilla" unicode="&#xe7;" horiz-adv-x="598" 
d="M324 70q52 0 99 28q49 29 71 70l74 -43q-30 -57 -91.5 -94.5t-132.5 -41.5l-15 -37h10q43 0 72 -24.5t29 -66.5q0 -46 -34 -77.5t-94 -31.5q-52 0 -112 28l24 60q48 -20 81 -20q27 0 43 12.5t16 31.5q0 37 -52 37h-56l-9 21l28 70q-105 16 -169 91q-64 76 -64 184
q0 122 80 202q80 79 207 79q79 0 145 -38t97 -101l-74 -43q-28 46 -72.5 73t-95.5 27q-85 0 -141 -57q-56 -58 -56 -142t54 -141q56 -56 138 -56z" />
    <glyph glyph-name="egrave" unicode="&#xe8;" horiz-adv-x="609" 
d="M295 786l59 -166h-77l-93 166h111zM569 277q0 -11 -3 -47h-429q12 -73 60 -116t132 -43q47 0 98.5 17t90.5 44l38 -69q-41 -32 -103 -53.5t-126 -21.5q-96 0 -162 42t-94 103.5t-28 135.5q0 121 75 200t194 79q113 0 185 -73t72 -198zM312 467q-68 0 -116 -43.5
t-59 -113.5h338q-4 71 -49.5 114t-113.5 43z" />
    <glyph glyph-name="eacute" unicode="&#xe9;" horiz-adv-x="609" 
d="M333 788h111l-93 -166h-77zM569 277q0 -11 -3 -47h-429q12 -73 60 -116t132 -43q47 0 98.5 17t90.5 44l38 -69q-41 -32 -103 -53.5t-126 -21.5q-96 0 -162 42t-94 103.5t-28 135.5q0 121 75 200t194 79q113 0 185 -73t72 -198zM312 467q-68 0 -116 -43.5t-59 -113.5h338
q-4 71 -49.5 114t-113.5 43z" />
    <glyph glyph-name="ecircumflex" unicode="&#xea;" horiz-adv-x="609" 
d="M388 623l-73 90l-73 -90h-97l139 162h63l139 -162h-98zM569 277q0 -11 -3 -47h-429q12 -73 60 -116t132 -43q47 0 98.5 17t90.5 44l38 -69q-41 -32 -103 -53.5t-126 -21.5q-96 0 -162 42t-94 103.5t-28 135.5q0 121 75 200t194 79q113 0 185 -73t72 -198zM312 467
q-68 0 -116 -43.5t-59 -113.5h338q-4 71 -49.5 114t-113.5 43z" />
    <glyph glyph-name="edieresis" unicode="&#xeb;" horiz-adv-x="609" 
d="M227 614q-29 0 -48 19t-19 48q0 27 19.5 45.5t47.5 18.5q27 0 46 -18.5t19 -45.5q0 -29 -19 -48t-46 -19zM423 614q-29 0 -48 19t-19 48q0 27 19.5 45.5t47.5 18.5q27 0 46 -18.5t19 -45.5q0 -29 -19 -48t-46 -19zM569 277q0 -11 -3 -47h-429q12 -73 60 -116t132 -43
q47 0 98.5 17t90.5 44l38 -69q-41 -32 -103 -53.5t-126 -21.5q-96 0 -162 42t-94 103.5t-28 135.5q0 121 75 200t194 79q113 0 185 -73t72 -198zM312 467q-68 0 -116 -43.5t-59 -113.5h338q-4 71 -49.5 114t-113.5 43z" />
    <glyph glyph-name="igrave" unicode="&#xec;" horiz-adv-x="241" 
d="M103 786l59 -166h-77l-93 166h111zM165 535v-535h-89v535h89z" />
    <glyph glyph-name="iacute" unicode="&#xed;" horiz-adv-x="241" 
d="M159 622h-77l59 166h111zM165 535v-535h-89v535h89z" />
    <glyph glyph-name="icircumflex" unicode="&#xee;" horiz-adv-x="241" 
d="M46 619h-97l139 162h63l139 -162h-98l-73 90zM165 535v-535h-89v535h89z" />
    <glyph glyph-name="idieresis" unicode="&#xef;" horiz-adv-x="241" 
d="M23 616q-29 0 -48 19t-19 48q0 27 19.5 45.5t47.5 18.5q27 0 46 -18.5t19 -45.5q0 -29 -19 -48t-46 -19zM219 616q-29 0 -48 19t-19 48q0 27 19.5 45.5t47.5 18.5q27 0 46 -18.5t19 -45.5q0 -29 -19 -48t-46 -19zM165 535v-535h-89v535h89z" />
    <glyph glyph-name="eth" unicode="&#xf0;" horiz-adv-x="656" 
d="M577 750l-93 -62q124 -160 124 -340q0 -155 -85 -258q-84 -103 -215 -103q-113 0 -190 74q-75 75 -75 187q0 111 74 187q74 75 185 75q73 0 132.5 -36.5t86.5 -96.5q-3 115 -82 230q-12 20 -25 34l-104 -69l-40 55l98 66q-49 51 -108 94l62 60q71 -57 118 -107l99 66z
M309 67q75 0 128 53q53 55 53 132q0 76 -53 127q-52 52 -126 52q-77 0 -128 -53q-51 -52 -51 -130q0 -76 50 -129q49 -52 127 -52z" />
    <glyph glyph-name="ntilde" unicode="&#xf1;" horiz-adv-x="614" 
d="M186 627l-58 27q12 44 42.5 68.5t72.5 24.5q32 0 75 -22q44 -22 64 -22q38 0 58 44l56 -26q-12 -44 -42.5 -68.5t-71.5 -24.5q-31 0 -74 22q-44 23 -63 23q-38 0 -59 -46zM165 0h-89v535h87v-76q51 90 170 90q90 0 151 -58t61 -167v-324h-89v298q0 80 -38 124t-102 44
q-67 0 -109 -47t-42 -121v-298z" />
    <glyph glyph-name="ograve" unicode="&#xf2;" horiz-adv-x="644" 
d="M306 786l59 -166h-77l-93 166h111zM42 268q0 118 79 198q79 82 201 82q121 0 200 -82q80 -82 80 -198q0 -120 -79 -200q-79 -81 -201 -81t-201 81q-79 80 -79 200zM512 268q0 81 -55 139q-56 59 -135 59t-135 -59q-55 -58 -55 -139q0 -83 55 -141t135 -58t135 58t55 141z
" />
    <glyph glyph-name="oacute" unicode="&#xf3;" horiz-adv-x="644" 
d="M352 622h-77l59 166h111zM42 268q0 118 79 198q79 82 201 82q121 0 200 -82q80 -82 80 -198q0 -120 -79 -200q-79 -81 -201 -81t-201 81q-79 80 -79 200zM512 268q0 81 -55 139q-56 59 -135 59t-135 -59q-55 -58 -55 -139q0 -83 55 -141t135 -58t135 58t55 141z" />
    <glyph glyph-name="ocircumflex" unicode="&#xf4;" horiz-adv-x="644" 
d="M250 625h-97l139 162h63l139 -162h-98l-73 90zM42 268q0 118 79 198q79 82 201 82q121 0 200 -82q80 -82 80 -198q0 -120 -79 -200q-79 -81 -201 -81t-201 81q-79 80 -79 200zM512 268q0 81 -55 139q-56 59 -135 59t-135 -59q-55 -58 -55 -139q0 -83 55 -141t135 -58
t135 58t55 141z" />
    <glyph glyph-name="otilde" unicode="&#xf5;" horiz-adv-x="644" 
d="M197 630l-58 27q12 44 42.5 68.5t72.5 24.5q32 0 75 -22q44 -22 64 -22q38 0 58 44l56 -26q-12 -44 -42.5 -68.5t-71.5 -24.5q-31 0 -74 22q-44 23 -63 23q-38 0 -59 -46zM42 268q0 118 79 198q79 82 201 82q121 0 200 -82q80 -82 80 -198q0 -120 -79 -200
q-79 -81 -201 -81t-201 81q-79 80 -79 200zM512 268q0 81 -55 139q-56 59 -135 59t-135 -59q-55 -58 -55 -139q0 -83 55 -141t135 -58t135 58t55 141z" />
    <glyph glyph-name="odieresis" unicode="&#xf6;" horiz-adv-x="644" 
d="M227 616q-29 0 -48 19t-19 48q0 27 19.5 45.5t47.5 18.5q27 0 46 -18.5t19 -45.5q0 -29 -19 -48t-46 -19zM423 616q-29 0 -48 19t-19 48q0 27 19.5 45.5t47.5 18.5q27 0 46 -18.5t19 -45.5q0 -29 -19 -48t-46 -19zM42 268q0 118 79 198q79 82 201 82q121 0 200 -82
q80 -82 80 -198q0 -120 -79 -200q-79 -81 -201 -81t-201 81q-79 80 -79 200zM512 268q0 81 -55 139q-56 59 -135 59t-135 -59q-55 -58 -55 -139q0 -83 55 -141t135 -58t135 58t55 141z" />
    <glyph glyph-name="divide" unicode="&#xf7;" horiz-adv-x="550" 
d="M212 499q0 25 18 42.5t44 17.5t43.5 -17.5t17.5 -42.5q0 -27 -17.5 -44.5t-43.5 -17.5t-44 17.5t-18 44.5zM497 286h-444v81h444v-81zM212 156q0 25 18 42.5t44 17.5t43.5 -17.5t17.5 -42.5q0 -27 -17.5 -44.5t-43.5 -17.5t-44 17.5t-18 44.5z" />
    <glyph glyph-name="oslash" unicode="&#xf8;" horiz-adv-x="644" 
d="M560 555l-52 -75q94 -81 94 -212q0 -120 -79 -200q-79 -81 -201 -81q-74 0 -133 31l-54 -78l-52 36l54 78q-95 81 -95 214q0 118 79 198q79 82 201 82q74 0 133 -31l50 73zM187 127l219 319q-38 20 -84 20q-79 0 -135 -59q-55 -58 -55 -139q0 -82 55 -141zM322 69
q80 0 135 58t55 141q0 80 -54 139l-220 -318q38 -20 84 -20z" />
    <glyph glyph-name="ugrave" unicode="&#xf9;" horiz-adv-x="592" 
d="M287 788l59 -166h-77l-93 166h111zM296 -13q-105 0 -166 61t-61 166v321h89v-318q0 -69 36.5 -108t101.5 -39t101.5 39t36.5 108v318h89v-321q0 -105 -60.5 -166t-166.5 -61z" />
    <glyph glyph-name="uacute" unicode="&#xfa;" horiz-adv-x="592" 
d="M331 622h-77l59 166h111zM296 -13q-105 0 -166 61t-61 166v321h89v-318q0 -69 36.5 -108t101.5 -39t101.5 39t36.5 108v318h89v-321q0 -105 -60.5 -166t-166.5 -61z" />
    <glyph glyph-name="ucircumflex" unicode="&#xfb;" horiz-adv-x="592" 
d="M223 619h-97l139 162h63l139 -162h-98l-73 90zM296 -13q-105 0 -166 61t-61 166v321h89v-318q0 -69 36.5 -108t101.5 -39t101.5 39t36.5 108v318h89v-321q0 -105 -60.5 -166t-166.5 -61z" />
    <glyph glyph-name="udieresis" unicode="&#xfc;" horiz-adv-x="592" 
d="M199 616q-29 0 -48 19t-19 48q0 27 19.5 45.5t47.5 18.5q27 0 46 -18.5t19 -45.5q0 -29 -19 -48t-46 -19zM395 616q-29 0 -48 19t-19 48q0 27 19.5 45.5t47.5 18.5q27 0 46 -18.5t19 -45.5q0 -29 -19 -48t-46 -19zM296 -13q-105 0 -166 61t-61 166v321h89v-318
q0 -69 36.5 -108t101.5 -39t101.5 39t36.5 108v318h89v-321q0 -105 -60.5 -166t-166.5 -61z" />
    <glyph glyph-name="yacute" unicode="&#xfd;" horiz-adv-x="548" 
d="M291 786h111l-93 -166h-77zM287 125l147 410h99l-226 -600q-32 -86 -75.5 -124t-104.5 -38q-51 0 -83 20l10 79q36 -16 65 -16q67 0 106 95l21 52l-232 532h103z" />
    <glyph glyph-name="thorn" unicode="&#xfe;" horiz-adv-x="666" 
d="M352 548q119 0 195 -82q77 -82 77 -198q0 -118 -77 -200q-77 -81 -195 -81q-115 0 -187 89v-296h-89v977h89v-299q77 90 187 90zM347 69q83 0 136 57q52 58 52 142t-52 140q-52 58 -136 58q-85 0 -137 -58q-51 -57 -51 -140t51 -142q52 -57 137 -57z" />
    </font>
</defs>
</svg>
