<?xml version="1.0" standalone="no"?>
<!DOCTYPE svg PUBLIC "-//W3C//DTD SVG 1.1//EN" "http://www.w3.org/Graphics/SVG/1.1/DTD/svg11.dtd" >
<svg>
<metadata>
Created by FontForge 20090622 at Mon Aug 19 05:12:41 2019
 By deploy user
Copyright &#194;&#169; 2017 by Kastelov. All rights reserved.
</metadata>
<defs>
<font id="Axiforma-ExtraBold" horiz-adv-x="846" >
  <font-face 
    font-family="Axiforma ExtraBold"
    font-weight="800"
    font-stretch="normal"
    units-per-em="1000"
    panose-1="0 0 9 0 0 0 0 0 0 0"
    ascent="771"
    descent="-229"
    x-height="547"
    cap-height="739"
    bbox="-472 -363 1296 1058"
    underline-thickness="50"
    underline-position="-50"
    unicode-range="U+000D-U+25CA"
  />
<missing-glyph horiz-adv-x="130" 
 />
    <glyph glyph-name="f_b" unicode="fb" horiz-adv-x="1127" 
d="M110 548v4q0 116 54.5 176t154.5 60q81 0 152 -39l-35 -121q-50 24 -84 24q-40 0 -63 -23.5t-23 -65.5v-15h170v-130h-170v-418h-156v418h-81v130h81zM822 562q116 0 194 -83q79 -82 79 -205q0 -124 -78 -206t-195 -82q-100 0 -164 75v-61h-152v761h157v-267
q65 68 159 68zM935 275q0 61 -39 101q-39 42 -100 42q-60 0 -101 -42q-39 -40 -39 -101t39 -103q41 -42 101 -42q61 0 100 42t39 103z" />
    <glyph glyph-name="f_f" unicode="ff" horiz-adv-x="864" 
d="M779 651q-45 0 -70 -23t-25 -66v-14h170v-130h-170v-418h-155v418h-263v-418h-155v418h-82v130h82v16q0 109 66 167t177 57q88 -1 170 -43l-49 -121q-60 28 -99 28q-50 0 -80 -24t-30 -65v-15h263v16q0 109 63 166q62 58 164 58q78 0 161 -44l-52 -118q-53 25 -86 25z
" />
    <glyph glyph-name="f_f_i" unicode="ffi" horiz-adv-x="1156" 
d="M1019 605q-41 0 -68 26.5t-27 66.5t27.5 66.5t67.5 26.5q39 0 66 -26.5t27 -66.5t-27 -66.5t-66 -26.5zM771 652q-40 0 -63 -23.5t-23 -65.5v-15h188v-130h-188v-418h-156v418h-263v-418h-156v418h-81v130h81v16q0 112 67 167q67 57 174 57q83 0 175 -43l-49 -121
q-65 27 -105 27q-48 0 -77 -23.5t-29 -65.5v-14h263v4q0 115 57 175.5t158 60.5q82 0 152 -39l-42 -121q-48 24 -83 24zM1096 0h-157v548h157v-548z" />
    <glyph glyph-name="f_f_j" unicode="ffj" horiz-adv-x="1156" 
d="M1018 605q-40 0 -67 26.5t-27 66.5t27 66.5t67 26.5q39 0 66 -26.5t27 -66.5t-27 -66.5t-66 -26.5zM864 548v-130h-180v-418h-156v418h-262v-418h-156v418h-81v130h81v16q0 112 67 167q67 57 174 57q91 0 170 -43l-44 -121q-61 27 -105 27q-48 0 -77 -24t-29 -65v-14h262
v4q0 115 57 175.5t159 60.5q80 0 152 -39l-42 -121q-50 24 -84 24q-40 0 -63 -23.5t-23 -65.5v-15h180zM939 10v538h157v-550q0 -113 -59.5 -172.5t-160.5 -59.5q-89 0 -135 31l29 123q42 -16 78 -16q91 0 91 106z" />
    <glyph glyph-name="f_h" unicode="fh" horiz-adv-x="1097" 
d="M110 548v4q0 116 55 176t155 60q82 0 152 -39l-36 -121q-50 24 -84 24q-40 0 -63 -23.5t-23 -65.5v-15h170v-130h-170v-418h-156v418h-81v130h81zM832 563q88 0 150 -59t62 -169v-335h-157v294q0 59 -28.5 92t-77.5 33q-53 0 -85.5 -35.5t-32.5 -93.5v-290h-157v761h153
v-286q23 38 69 63t104 25z" />
    <glyph glyph-name="f_i" unicode="fi" horiz-adv-x="738" 
d="M600 605q-40 0 -67 26.5t-27 66.5t27 66.5t67 26.5q39 0 66 -26.5t27 -66.5t-27 -66.5t-66 -26.5zM110 548v4q0 115 57 175.5t158 60.5q81 0 152 -39l-41 -121q-50 24 -84 24q-40 0 -63 -23.5t-23 -65.5v-15h170v-130h-170v-418h-156v418h-81v130h81zM677 0h-157v548h157
v-548z" />
    <glyph glyph-name="f_j" unicode="fj" horiz-adv-x="738" 
d="M600 605q-40 0 -67 26.5t-27 66.5t27 66.5t67 26.5q39 0 66 -26.5t27 -66.5t-27 -66.5t-66 -26.5zM444 548v-130h-178v-418h-156v418h-81v130h81v4q0 115 57 175.5t158 60.5q81 0 152 -39l-41 -121q-50 24 -84 24q-40 0 -63 -23.5t-23 -65.5v-15h178zM520 10v538h157
v-550q0 -113 -59.5 -172.5t-159.5 -59.5q-90 0 -136 31l30 123q41 -16 78 -16q90 0 90 106z" />
    <glyph glyph-name="f_k" unicode="fk" horiz-adv-x="1043" 
d="M110 548v4q0 116 54 176t154 60q81 0 153 -39l-35 -121q-50 24 -84 24q-40 0 -63 -23.5t-23 -65.5v-15h170v-130h-170v-418h-156v418h-81v130h81zM1057 0h-190l-173 227l-31 -29v-198h-157v761h157v-388l184 175h194l-240 -223z" />
    <glyph glyph-name="f_l" unicode="fl" horiz-adv-x="723" 
d="M110 548v4q0 236 211 236q77 0 149 -39l-34 -121q-50 24 -84 24q-40 0 -63 -23.5t-23 -65.5v-15h170v-130h-170v-418h-156v418h-81v130h81zM506 0v761h157v-761h-157z" />
    <glyph glyph-name=".notdef" horiz-adv-x="130" 
 />
    <glyph glyph-name=".null" horiz-adv-x="0" 
 />
    <glyph glyph-name="nonmarkingreturn" horiz-adv-x="333" 
 />
    <glyph glyph-name="CR.001" horiz-adv-x="130" 
 />
    <glyph glyph-name="CR.001" horiz-adv-x="130" 
 />
    <glyph glyph-name="CR" unicode="&#xd;" horiz-adv-x="333" 
 />
    <glyph glyph-name="space" unicode=" " horiz-adv-x="247" 
 />
    <glyph glyph-name="exclam" unicode="!" horiz-adv-x="320" 
d="M234 214h-143l-9 544h163zM165 -13q-38 0 -64 25.5t-26 63.5q0 36 26 61t64 25q35 0 60.5 -25t25.5 -61q0 -38 -25 -63.5t-61 -25.5z" />
    <glyph glyph-name="quotedbl" unicode="&#x22;" horiz-adv-x="583" 
d="M184 421h-152l90 315h180zM455 421h-152l90 315h180z" />
    <glyph glyph-name="numbersign" unicode="#" horiz-adv-x="760" 
d="M729 576l-25 -132h-99l-28 -144h99l-24 -132h-100l-32 -168h-157l34 168h-114l-34 -168h-157l35 168h-95l26 132h97l30 144h-100l26 132h102l34 163h151l-33 -163h113l33 163h150l-31 -163h99zM309 300h114l29 144h-113z" />
    <glyph glyph-name="dollar" unicode="$" horiz-adv-x="600" 
d="M562 218q0 -83 -49 -141.5t-132 -79.5v-109h-145v105q-133 25 -208 144l107 107q27 -45 71.5 -73t91.5 -28q36 0 59 18t23 46q0 41 -60 69q-10 6 -32 15l-41 20q-58 30 -80 46q-102 69 -102 178q0 79 47 135t127 75v98h145v-97q88 -19 163 -91l-86 -120q-76 64 -148 64
q-35 0 -55.5 -16t-20.5 -43q-1 -22 24 -43l25 -17l14 -7t14 -8l65 -33q49 -22 83 -44q100 -63 100 -170z" />
    <glyph glyph-name="percent" unicode="%" horiz-adv-x="911" 
d="M221 384q-79 0 -135 53q-56 54 -56 129q0 77 56 131t135 54q81 0 136 -54q56 -54 56 -131q0 -75 -56 -129q-56 -53 -136 -53zM259 0h-150l537 739h150zM167 512q23 -21 54 -21t54 21q23 22 23 55t-23 55t-54 22t-54 -22q-22 -22 -22 -55t22 -55zM689 -12q-79 0 -135 53
q-56 54 -56 130t56 130t135 54q81 0 136 -54q56 -54 56 -130t-56 -130q-56 -53 -136 -53zM689 95q33 0 55.5 22t22.5 55q0 32 -23.5 54.5t-54.5 22.5t-53.5 -22t-22.5 -55t22.5 -55t53.5 -22z" />
    <glyph glyph-name="ampersand" unicode="&#x26;" horiz-adv-x="705" 
d="M600 164l101 -90l-88 -93l-100 92q-99 -84 -225 -84q-114 0 -185 62q-70 63 -70 156q0 129 129 210q-43 68 -43 141q0 75 59 134q61 59 157 59q81 0 136 -49q57 -48 57 -118q0 -76 -56 -123q-51 -42 -118 -76l32 -29l120 -108l1 1q31 35 78 99l95 -79q-44 -64 -80 -105z
M326 634q-32 0 -52.5 -23t-20.5 -57q0 -37 23 -78l57 30q54 32 54 70q0 24 -17 41t-44 17zM298 123q62 0 117 40l-133 122l-38 35q-55 -43 -55 -100q0 -42 30.5 -69.5t78.5 -27.5z" />
    <glyph glyph-name="quotesingle" unicode="'" horiz-adv-x="311" 
d="M184 421h-152l90 315h180z" />
    <glyph glyph-name="parenleft" unicode="(" horiz-adv-x="427" 
d="M423 -97l-73 -124q-155 81 -236 213t-81 302q0 171 82.5 303t240.5 212l68 -126q-220 -139 -220 -388q0 -243 219 -392z" />
    <glyph glyph-name="parenright" unicode=")" horiz-adv-x="427" 
d="M77 -221l-73 124q219 149 219 392q0 249 -219 388l67 126q159 -80 241.5 -212t82.5 -303q0 -169 -81.5 -301.5t-236.5 -213.5z" />
    <glyph glyph-name="asterisk" unicode="*" horiz-adv-x="506" 
d="M254 474l-96 -115l-85 76l91 102l-131 56l45 104l121 -58l-5 140h119l-5 -140l121 58l44 -103l-129 -57l89 -102l-85 -76z" />
    <glyph glyph-name="plus" unicode="+" horiz-adv-x="589" 
d="M369 421h188v-147h-188v-189l-147 -2v191h-190v147h190v189h147v-189z" />
    <glyph glyph-name="comma" unicode="," horiz-adv-x="269" 
d="M132 158q42 0 69 -29.5t27 -73.5q0 -119 -165 -226l-45 60q12 9 27 21.5t17 13.5q14 11 32.5 30t26.5 34h-3q-31 0 -54 24t-23 57q0 38 27 63.5t64 25.5z" />
    <glyph glyph-name="hyphen" unicode="-" horiz-adv-x="535" 
d="M477 204h-419v146h419v-146z" />
    <glyph glyph-name="period" unicode="." horiz-adv-x="253" 
d="M128 -16q-38 0 -63.5 25t-25.5 63q0 37 25.5 62t63.5 25q36 0 61 -25.5t25 -61.5q0 -38 -25 -63t-61 -25z" />
    <glyph glyph-name="slash" unicode="/" horiz-adv-x="693" 
d="M192 -123h-175l483 948h176z" />
    <glyph glyph-name="zero" unicode="0" horiz-adv-x="691" 
d="M345 -12q-144 0 -224 107q-78 107 -78 275t78 275q80 107 224 107q147 0 225 -107q79 -106 79 -275t-79 -275q-78 -107 -225 -107zM485 370q0 100 -36 163q-34 64 -103 64q-70 0 -104 -64q-35 -64 -35 -163q0 -105 35.5 -166t103.5 -61t103.5 61t35.5 166z" />
    <glyph glyph-name="one" unicode="1" horiz-adv-x="429" 
d="M-5 555l236 184h120v-739h-161v522l-112 -85z" />
    <glyph glyph-name="two" unicode="2" horiz-adv-x="587" 
d="M384 259l-103 -108h259v-152h-489v138l227 236q58 59 71 86q15 27 15 53q0 38 -25.5 61t-65.5 23q-73 0 -162 -81l-89 119q121 118 267 118q105 0 175 -65q70 -64 70 -162q0 -59 -36 -122t-114 -144z" />
    <glyph glyph-name="three" unicode="3" horiz-adv-x="569" 
d="M256 -12q-128 0 -246 73l68 132q91 -53 167 -53q51 0 80.5 22t29.5 59q0 35 -27.5 56.5t-72.5 21.5h-95v148h77q47 0 74.5 21t27.5 55q0 33 -26 53.5t-66 20.5q-62 0 -142 -55l-78 119q45 42 109 66.5t132 24.5q102 0 169 -55q69 -55 69 -137q0 -56 -34.5 -101t-89.5 -64
v-4q68 -15 106.5 -64.5t38.5 -117.5q0 -99 -76 -160q-74 -61 -195 -61z" />
    <glyph glyph-name="four" unicode="4" horiz-adv-x="623" 
d="M507 303h79v-136h-79v-167h-153v167h-319l-32 107l381 465h123v-436zM354 514l-170 -211h170v211z" />
    <glyph glyph-name="five" unicode="5" horiz-adv-x="594" 
d="M309 474q106 0 177 -65q72 -65 72 -170q0 -108 -76 -180q-77 -71 -204 -71q-134 0 -252 79l63 132q95 -59 181 -59q58 0 90.5 28t32.5 71q0 41 -32 68.5t-81 27.5q-65 0 -118 -47l-92 81l38 370h400v-152h-278l-13 -128q45 15 92 15z" />
    <glyph glyph-name="six" unicode="6" horiz-adv-x="640" 
d="M359 477q107 0 174 -67q69 -68 69 -169q0 -109 -76 -179q-76 -71 -194 -71q-140 1 -216 101.5t-73 254.5q0 163 78 279q40 59 104.5 92.5t143.5 33.5q116 0 209 -66l-72 -124q-60 42 -129 42q-79 0 -125 -57q-45 -54 -53 -141q53 71 160 71zM439 238q0 44 -30.5 73.5
t-75.5 29.5q-46 0 -77.5 -29t-31.5 -74q0 -46 31 -76.5t77 -30.5t76.5 31t30.5 76z" />
    <glyph glyph-name="seven" unicode="7" horiz-adv-x="532" 
d="M22 586v153h487v-117l-256 -622h-172l244 586h-303z" />
    <glyph glyph-name="eight" unicode="8" horiz-adv-x="639" 
d="M320 -12q-126 0 -203 60q-77 62 -77 157q0 63 36.5 114t99.5 73v2q-105 52 -105 160q0 86 68 142q70 56 181 56q110 0 180 -56q69 -55 69 -142q0 -54 -28.5 -95t-78.5 -65v-3q63 -22 100.5 -72.5t37.5 -113.5q0 -95 -78 -157q-76 -60 -202 -60zM320 618
q-45 0 -72.5 -23.5t-27.5 -59.5q0 -35 27 -59q28 -23 72 -23q45 0 71 23q27 22 27 59q0 36 -26.5 59.5t-70.5 23.5zM205 225q0 -41 32 -66.5t83 -25.5t82.5 25.5t31.5 65.5t-31.5 65.5t-82.5 25.5t-83 -25.5t-32 -64.5z" />
    <glyph glyph-name="nine" unicode="9" horiz-adv-x="633" 
d="M306 752q136 0 210 -99q74 -100 74 -257q0 -82 -19.5 -154.5t-58 -129.5t-101 -90.5t-142.5 -33.5q-124 0 -208 66l60 122q64 -43 137 -43q74 0 117.5 49.5t55.5 138.5q-56 -56 -156 -56q-103 0 -170 66q-67 67 -67 170q0 109 74 180q76 71 194 71zM303 402q46 0 76 29.5
t30 74.5q0 46 -30.5 76t-75.5 30q-46 0 -76 -29.5t-30 -76.5q0 -45 30.5 -74.5t75.5 -29.5z" />
    <glyph glyph-name="colon" unicode=":" horiz-adv-x="284" 
d="M143 340q-38 0 -63.5 25t-25.5 63q0 37 25.5 62t63.5 25q35 0 60.5 -25.5t25.5 -61.5q0 -38 -25 -63t-61 -25zM143 -16q-38 0 -63.5 25t-25.5 63q0 37 25.5 62t63.5 25q35 0 60.5 -25.5t25.5 -61.5q0 -38 -25 -63t-61 -25z" />
    <glyph glyph-name="semicolon" unicode=";" horiz-adv-x="303" 
d="M156 338q-39 0 -65.5 26t-26.5 65q0 38 26.5 64t65.5 26q37 0 63 -26t26 -64q0 -39 -26 -65t-63 -26zM149 158q42 0 69 -29.5t27 -73.5q0 -119 -165 -226l-45 60q12 9 27 21.5t17 13.5q14 11 32.5 30t26.5 34h-3q-31 0 -54 24t-23 57q0 38 27 63.5t64 25.5z" />
    <glyph glyph-name="less" unicode="&#x3c;" horiz-adv-x="552" 
d="M490 199v-158l-460 217v131l460 216v-155l-292 -125z" />
    <glyph glyph-name="equal" unicode="=" horiz-adv-x="585" 
d="M524 364h-462v128h462v-128zM524 163h-462v128h462v-128z" />
    <glyph glyph-name="greater" unicode="&#x3e;" horiz-adv-x="542" 
d="M513 258l-455 -222v158l280 126l-280 125v154l455 -220v-121z" />
    <glyph glyph-name="question" unicode="?" horiz-adv-x="564" 
d="M331 205h-152v63q0 84 62 141l31 26.5t33 29.5t24.5 26.5t20.5 32t6 32.5q0 35 -25 57t-63 22q-71 0 -148 -89l-97 108q102 129 257 129q109 0 177 -62q67 -61 67 -155q0 -85 -68 -151l-41 -36t-44 -40t-26.5 -36t-13.5 -45v-53zM318 12q-25 -25 -61 -25t-63 25
q-26 26 -26 63t26 62t63 25t62 -25t25 -62t-26 -63z" />
    <glyph glyph-name="at" unicode="@" horiz-adv-x="964" 
d="M577 450v39h117v-252q0 -28 11.5 -43.5t28.5 -15.5q33 0 58 43q27 44 27 109q0 130 -96 219q-95 88 -232 86q-141 -1 -241 -103q-98 -101 -98 -244q0 -146 103 -249t251 -103q69 0 138.5 24t123.5 66l52 -89q-50 -44 -136 -75q-88 -32 -182 -32q-128 0 -235 63
q-106 61 -168 167q-60 105 -60 229q0 189 132 319q132 132 323 132q189 0 313 -118q125 -119 125 -285q0 -117 -63 -193q-61 -76 -154 -76q-86 0 -119 72q-52 -72 -149 -72q-86 0 -145 62q-58 61 -58 155t58 156q58 63 146 63q81 0 129 -54zM471 179q43 0 73.5 30.5
t30.5 75.5q0 47 -30 78q-29 32 -73 32t-75 -31q-30 -32 -30 -77q0 -46 30 -77t74 -31z" />
    <glyph glyph-name="A" unicode="A" horiz-adv-x="704" 
d="M697 0h-172l-49 149h-248l-51 -149h-172l277 739h144zM432 294l-79 234l-80 -234h159z" />
    <glyph glyph-name="B" unicode="B" horiz-adv-x="699" 
d="M522 405q68 -17 104.5 -67.5t36.5 -121.5q0 -92 -65 -154t-171 -62h-349v739h332q103 0 158 -55q56 -54 56 -128q0 -50 -28 -92t-74 -59zM381 597h-140v-145h133q40 0 63 21t23 53q0 30 -21.5 50.5t-57.5 20.5zM241 143h151q47 0 73.5 25t26.5 62q0 38 -25.5 62.5
t-71.5 24.5h-154v-174z" />
    <glyph glyph-name="C" unicode="C" horiz-adv-x="761" 
d="M418 -11q-162 0 -271 105q-109 106 -109 273q0 168 111 276q112 109 271 109q98 0 182 -40.5t135 -109.5l-108 -110q-84 101 -200 101q-92 0 -156 -64t-64 -161q0 -95 63 -158t156 -63q120 0 205 102l111 -104q-52 -71 -139 -113.5t-187 -42.5z" />
    <glyph glyph-name="D" unicode="D" horiz-adv-x="774" 
d="M368 0h-290v739h295q170 0 264 -100q96 -99 96 -270q0 -172 -97 -270q-98 -99 -268 -99zM243 580v-421h132q90 0 138 60q49 61 49 151q0 91 -49 150q-48 60 -138 60h-132z" />
    <glyph glyph-name="E" unicode="E" horiz-adv-x="647" 
d="M593 0h-515v739h516v-154h-350v-137h324v-153h-324v-141h349v-154z" />
    <glyph glyph-name="F" unicode="F" horiz-adv-x="614" 
d="M243 0h-165v739h507v-156h-342v-146h301v-155h-301v-282z" />
    <glyph glyph-name="G" unicode="G" horiz-adv-x="809" 
d="M426 -11q-169 0 -279 107q-109 108 -109 273q0 167 113 275t280 108q87 0 165 -31.5t130 -83.5l-106 -120q-80 76 -190 76q-97 0 -160 -64q-63 -63 -63 -158q0 -94 62 -159t160 -65q53 0 102.5 19.5t81.5 50.5v85h-188v142h338v-311q-144 -144 -337 -144z" />
    <glyph glyph-name="H" unicode="H" horiz-adv-x="775" 
d="M243 0h-165v739h165v-289h288v289h166v-739h-166v291h-288v-291z" />
    <glyph glyph-name="I" unicode="I" horiz-adv-x="322" 
d="M78 0v739h166v-739h-166z" />
    <glyph glyph-name="J" unicode="J" horiz-adv-x="594" 
d="M235 -12q-141 0 -234 90l76 131q65 -62 144 -62q64 0 101 40t37 109v443h165v-449q0 -152 -82 -227q-81 -75 -207 -75z" />
    <glyph glyph-name="K" unicode="K" horiz-adv-x="706" 
d="M719 0h-203l-186 281l-87 -105v-176h-165v739h165v-330l259 330h200l-264 -332z" />
    <glyph glyph-name="L" unicode="L" horiz-adv-x="626" 
d="M612 0h-534v739h166v-581h368v-158z" />
    <glyph glyph-name="M" unicode="M" horiz-adv-x="946" 
d="M241 0h-163v739h116l279 -402l277 402h118v-739h-165v391l-201 -287h-60l-201 287v-391z" />
    <glyph glyph-name="N" unicode="N" horiz-adv-x="799" 
d="M559 307v432h162v-739h-119l-361 428v-428h-163v739h112z" />
    <glyph glyph-name="O" unicode="O" 
d="M37 368q0 161 111 272q112 112 275 112t274 -112q112 -111 112 -271t-111 -271q-112 -110 -276 -110q-165 0 -275 110t-110 270zM423 151q91 0 153 62q62 64 61 156q-2 96 -63 157q-62 63 -151 63q-91 0 -152 -63q-62 -64 -62 -157q0 -92 62 -156q62 -62 152 -62z" />
    <glyph glyph-name="P" unicode="P" horiz-adv-x="650" 
d="M78 739h283q135 0 201 -72q67 -71 67 -178q0 -106 -69 -175t-211 -69h-106v-245h-165v739zM243 394h112q49 0 77 27.5t28 69.5q0 41 -27 68.5t-71 27.5h-119v-193z" />
    <glyph glyph-name="Q" unicode="Q" 
d="M805 -5l23 -135q-69 -25 -143 -25q-184 0 -294 155q-153 14 -253 121q-101 109 -101 259q0 160 111 271q112 111 275 111t274 -111q112 -111 112 -272q0 -119 -64 -214q-63 -95 -168 -138q44 -41 119 -41q49 0 109 19zM423 592q-91 0 -155 -64q-63 -64 -63 -159t63 -158
t155 -63t155 63t63 158t-63 159t-155 64z" />
    <glyph glyph-name="R" unicode="R" horiz-adv-x="686" 
d="M661 0h-192l-145 258h-81v-258h-165v739h294q126 0 194 -69q67 -67 67 -170q0 -74 -36.5 -132t-106.5 -87zM371 587h-128v-183h117q50 0 76.5 26t26.5 67q0 39 -24.5 64.5t-67.5 25.5z" />
    <glyph glyph-name="S" unicode="S" horiz-adv-x="621" 
d="M306 -13q-88 0 -163.5 34.5t-126.5 99.5l90 118q83 -98 201 -98q43 0 70 18.5t27 48.5q0 41 -64 69l-66 24q-61 23 -95 41q-119 65 -119 187q0 96 73 159t190 63q147 0 251 -98l-82 -123q-32 30 -78.5 48t-88.5 18q-41 0 -64.5 -16.5t-23.5 -44.5q0 -38 60 -65l72 -29
q67 -26 85 -35q133 -60 133 -188q0 -101 -78 -166q-77 -65 -203 -65z" />
    <glyph glyph-name="T" unicode="T" horiz-adv-x="611" 
d="M223 0v580h-209v159h583v-159h-208v-580h-166z" />
    <glyph glyph-name="U" unicode="U" horiz-adv-x="731" 
d="M366 -13q-126 0 -211 73t-85 218v461h166v-454q0 -68 34.5 -103t95.5 -35q59 0 94 35.5t35 102.5v454h166v-461q0 -144 -84 -218q-83 -73 -211 -73z" />
    <glyph glyph-name="V" unicode="V" horiz-adv-x="748" 
d="M375 248l180 491h189l-299 -739h-140l-303 739h191z" />
    <glyph glyph-name="W" unicode="W" horiz-adv-x="1078" 
d="M395 0h-149l-242 739h182l138 -481l159 481h111l161 -481l136 481h182l-241 -739h-149l-144 460z" />
    <glyph glyph-name="X" unicode="X" horiz-adv-x="684" 
d="M196 0h-193l233 373l-216 366h191l132 -241l140 241h193l-229 -366l227 -373h-191l-142 248z" />
    <glyph glyph-name="Y" unicode="Y" horiz-adv-x="693" 
d="M493 739h193l-257 -486v-253h-165v253l-255 486h193l144 -306z" />
    <glyph glyph-name="Z" unicode="Z" horiz-adv-x="662" 
d="M624 0h-588v121l353 466h-339v152h563v-127l-345 -460h356v-152z" />
    <glyph glyph-name="bracketleft" unicode="[" horiz-adv-x="420" 
d="M399 -227h-327v1038h327v-141h-167v-756h167v-141z" />
    <glyph glyph-name="backslash" unicode="\" horiz-adv-x="681" 
d="M193 825l471 -948h-173l-473 948h175z" />
    <glyph glyph-name="bracketright" unicode="]" horiz-adv-x="420" 
d="M348 -227h-327v141h167v756h-167v141h327v-1038z" />
    <glyph glyph-name="asciicircum" unicode="^" horiz-adv-x="550" 
d="M186 431h-154l189 340h108l189 -340h-154l-89 179z" />
    <glyph glyph-name="underscore" unicode="_" horiz-adv-x="594" 
d="M594 -199h-594v145h594v-145z" />
    <glyph glyph-name="grave" unicode="`" horiz-adv-x="379" 
d="M211 799l63 -179h-140l-94 179h171z" />
    <glyph glyph-name="a" unicode="a" horiz-adv-x="681" 
d="M472 490v58h148v-548h-148v56q-70 -70 -169 -70q-117 0 -194 83q-76 83 -76 208q0 122 77 204q76 81 193 81q99 0 169 -72zM190 275q0 -61 39 -104q41 -42 101 -42q61 0 101 43q41 44 41 103t-41 102q-41 42 -101 42t-101 -42q-39 -42 -39 -102z" />
    <glyph glyph-name="b" unicode="b" horiz-adv-x="682" 
d="M376 562q116 0 194 -83q79 -82 79 -205q0 -124 -78 -206t-195 -82q-100 0 -164 75v-61h-152v761h157v-267q65 68 159 68zM489 275q0 61 -39 101q-39 42 -100 42q-60 0 -101 -42q-39 -40 -39 -101t39 -103q41 -42 101 -42q61 0 100 42t39 103z" />
    <glyph glyph-name="c" unicode="c" horiz-adv-x="605" 
d="M324 -12q-128 0 -210 80q-81 81 -81 207q0 127 82 206q83 81 212 81q86 0 155.5 -41t102.5 -115l-125 -67q-48 78 -130 78q-60 0 -101 -41q-40 -40 -40 -101q0 -63 39 -103q40 -40 100 -40q41 0 76.5 21.5t52.5 55.5l127 -75q-36 -67 -105.5 -106.5t-154.5 -39.5z" />
    <glyph glyph-name="d" unicode="d" horiz-adv-x="679" 
d="M461 495v266h157v-761h-152v59q-64 -73 -163 -73q-115 0 -193 82q-77 83 -77 206q0 122 77 205q78 83 193 83q94 0 158 -67zM469 275q0 61 -40 102q-39 42 -100 42q-60 0 -101 -42q-39 -42 -39 -102q0 -62 39 -104q41 -42 101 -42q61 0 100 42q40 41 40 104z" />
    <glyph glyph-name="e" unicode="e" horiz-adv-x="632" 
d="M600 287q0 -24 -5 -66h-403q28 -103 149 -103q92 0 171 53l62 -107q-100 -76 -240 -76q-145 0 -223 83q-77 83 -77 204q0 123 80 205q79 82 209 82q120 0 199 -74q78 -74 78 -201zM323 435q-48 0 -83.5 -27t-48.5 -75h258q-11 48 -44.5 75t-81.5 27z" />
    <glyph glyph-name="f" unicode="f" horiz-adv-x="446" 
d="M362 651q-46 0 -71 -23t-25 -66v-14h169v-130h-169v-418h-156v418h-81v130h81v18q0 109 63 166q65 57 165 57q84 0 167 -44l-51 -119q-54 25 -92 25z" />
    <glyph glyph-name="g" unicode="g" horiz-adv-x="678" 
d="M475 494v54h143v-494q0 -133 -87 -209q-86 -78 -220 -78q-144 0 -256 82l60 116q94 -64 190 -64q76 0 119.5 39.5t43.5 101.5v21q-61 -64 -162 -64q-121 0 -197 79t-76 201q0 124 80 204q79 79 199 79q98 0 163 -68zM470 278q0 61 -39.5 100.5t-99.5 39.5t-100 -40
q-40 -39 -40 -100q0 -62 40 -102q41 -41 100 -41q60 0 99 40q40 40 40 103z" />
    <glyph glyph-name="h" unicode="h" horiz-adv-x="652" 
d="M217 0h-157v761h153v-286q23 38 69 63t104 25q88 0 150 -59t62 -169v-335h-157v294q0 59 -28.5 92t-77.5 33q-53 0 -85.5 -35.5t-32.5 -93.5v-290z" />
    <glyph glyph-name="i" unicode="i" horiz-adv-x="278" 
d="M143 604q-40 0 -67 26.5t-27 66.5t27 66.5t67 26.5q39 0 66 -26.5t27 -66.5t-27 -66.5t-66 -26.5zM220 548v-548h-157v548h157z" />
    <glyph glyph-name="j" unicode="j" horiz-adv-x="302" 
d="M163 604q-40 0 -67 26.5t-27 66.5t27 66.5t67 26.5q39 0 66 -26.5t27 -66.5t-27 -66.5t-66 -26.5zM21 -234q-89 0 -135 31l30 123q41 -16 78 -16q90 0 90 106v538h157v-550q0 -113 -59.5 -172.5t-160.5 -59.5z" />
    <glyph glyph-name="k" unicode="k" horiz-adv-x="597" 
d="M611 0h-190l-173 227l-31 -29v-198h-157v761h157v-388l184 175h194l-240 -223z" />
    <glyph glyph-name="l" unicode="l" horiz-adv-x="277" 
d="M217 761v-761h-157v761h157z" />
    <glyph glyph-name="m" unicode="m" horiz-adv-x="1012" 
d="M733 563q97 0 161 -60t64 -170v-333h-157v303q0 56 -27.5 86t-73.5 30q-50 0 -81 -33t-31 -88v-298h-157v302q0 54 -28.5 85.5t-74.5 31.5q-49 0 -80 -33t-31 -89v-297h-157v548h153v-78q23 44 69 69t100 24q52 0 94 -23.5t63 -69.5q30 44 82 68.5t112 24.5z" />
    <glyph glyph-name="n" unicode="n" horiz-adv-x="652" 
d="M217 0h-157v548h153v-76q22 40 68.5 65.5t104.5 25.5q89 0 151 -59t62 -169v-335h-157v294q0 59 -29 92t-78 33q-53 0 -85.5 -35.5t-32.5 -93.5v-290z" />
    <glyph glyph-name="o" unicode="o" horiz-adv-x="657" 
d="M328 -15q-130 0 -213 83q-82 83 -82 206t82 205q83 84 213 84q132 0 214 -84q83 -83 83 -205q0 -121 -83 -206q-83 -83 -214 -83zM468 275q0 59 -41 100q-41 42 -99 42t-99 -42q-40 -40 -40 -100q0 -62 40 -103q41 -41 99 -41t99 41q41 43 41 103z" />
    <glyph glyph-name="p" unicode="p" horiz-adv-x="684" 
d="M382 562q116 0 193 -84q76 -82 76 -203q0 -120 -77 -205q-76 -84 -192 -84q-98 0 -165 70v-282h-157v774h155v-61q67 75 167 75zM492 274q0 60 -39 101q-39 42 -100 42q-60 0 -99 -42q-39 -41 -39 -101q0 -61 39 -102.5t99 -41.5t99.5 41.5t39.5 102.5z" />
    <glyph glyph-name="q" unicode="q" horiz-adv-x="684" 
d="M469 488v60h155v-774h-157v282q-67 -70 -165 -70q-116 0 -193 84q-76 83 -76 205q0 121 76 203q77 84 193 84q98 0 167 -74zM470 274q0 60 -39 101q-39 42 -100 42t-100 -42q-39 -41 -39 -101q0 -61 39.5 -102.5t99.5 -41.5t99.5 41.5t39.5 102.5z" />
    <glyph glyph-name="r" unicode="r" horiz-adv-x="432" 
d="M217 0h-157v548h150v-71q53 86 149 86q32 0 68 -13l-13 -150q-34 12 -69 12q-60 0 -94 -40.5t-34 -121.5v-250z" />
    <glyph glyph-name="s" unicode="s" horiz-adv-x="511" 
d="M254 -15q-145 0 -234 101l77 102q71 -72 157 -72q30 0 48.5 12t18.5 32q0 24 -34 40q-11 5 -65 24q-58 22 -71 28q-98 47 -98 145q0 76 58 122q59 47 156 47q119 0 198 -76l-73 -102q-62 51 -128 51q-26 0 -41.5 -11t-15.5 -28q0 -30 49 -46q92 -30 130 -50
q93 -50 93 -140q0 -77 -62 -128q-61 -51 -163 -51z" />
    <glyph glyph-name="t" unicode="t" horiz-adv-x="473" 
d="M426 156l44 -125q-70 -45 -168 -45q-196 0 -196 221v211h-87v130h88v194h156v-194h176v-130h-176v-196q0 -93 73 -93q38 0 90 27z" />
    <glyph glyph-name="u" unicode="u" horiz-adv-x="620" 
d="M310 -14q-120 0 -188.5 66t-68.5 183v313h157v-314q0 -48 26.5 -76t73.5 -28t73.5 28t26.5 76v314h157v-313q0 -119 -68 -184t-189 -65z" />
    <glyph glyph-name="v" unicode="v" horiz-adv-x="608" 
d="M306 212l125 336h171l-237 -547h-123l-236 547h173z" />
    <glyph glyph-name="w" unicode="w" horiz-adv-x="890" 
d="M332 1h-139l-187 547h165l103 -341l115 341h111l117 -341l101 341h165l-185 -547h-139l-114 320z" />
    <glyph glyph-name="x" unicode="x" horiz-adv-x="568" 
d="M387 275l172 -275h-181l-95 171l-101 -171h-179l177 278l-157 270h179l84 -160l92 160h176z" />
    <glyph glyph-name="y" unicode="y" horiz-adv-x="614" 
d="M319 209l118 339h170l-217 -563q-43 -111 -102 -164.5t-145 -53.5q-67 0 -111 29l29 130q35 -19 71 -19q66 0 106 84l7 16l-239 541h181z" />
    <glyph glyph-name="z" unicode="z" horiz-adv-x="549" 
d="M504 438l-255 -308h266v-130h-482v109l261 308h-249v130h459v-109z" />
    <glyph glyph-name="braceleft" unicode="{" horiz-adv-x="420" 
d="M201 291v-4q41 -12 69 -44t28 -75q0 -24 -6 -86t-6 -86q0 -74 75 -74h26v-153h-77q-185 0 -185 192q0 33 4 85q5 65 5 85q0 49 -27 69t-88 26v128q62 6 88.5 26t26.5 69q0 18 -5 86q-4 55 -4 92q0 184 194 184h68v-153h-26q-75 0 -75 -73q0 -25 6 -88t6 -86
q0 -43 -28 -75t-69 -45z" />
    <glyph glyph-name="bar" unicode="|" horiz-adv-x="303" 
d="M231 -179h-159v1026h159v-1026z" />
    <glyph glyph-name="braceright" unicode="}" horiz-adv-x="420" 
d="M219 287v4q-41 13 -69 45t-28 75q0 23 6 86t6 88q0 73 -75 73h-26v153h68q194 0 194 -184q0 -24 -5 -92q-4 -55 -4 -86q0 -49 26.5 -69t88.5 -26v-128q-61 -6 -88 -26t-27 -69q0 -33 4 -85q5 -65 5 -85q0 -192 -185 -192h-77v153h26q75 0 75 74q0 24 -6 86t-6 86
q0 43 28 75t69 44z" />
    <glyph glyph-name="asciitilde" unicode="~" horiz-adv-x="710" 
d="M463 225q-60 0 -129 31q-70 32 -95 32q-24 0 -45 -13.5t-51 -51.5l-100 80q30 60 83 92t118 32q56 0 128 -32q69 -31 99 -31q24 0 44.5 15t50.5 56l104 -83q-75 -127 -207 -127z" />
    <glyph glyph-name="exclamdown" unicode="&#xa1;" horiz-adv-x="284" 
d="M160 527q36 0 61 -25.5t25 -63.5q0 -36 -25.5 -61t-60.5 -25q-38 0 -64 25t-26 61q0 38 26 63.5t64 25.5zM77 -244l9 544h143l11 -544h-163z" />
    <glyph glyph-name="cent" unicode="&#xa2;" horiz-adv-x="623" 
d="M370 413v-276q65 17 92 72l127 -75q-31 -59 -88.5 -97t-130.5 -47v-76h-83v76q-111 13 -181 92q-68 79 -68 193q0 113 68 192q70 79 181 92v75h83v-74q74 -8 132 -48t88 -106l-125 -67q-38 59 -95 74zM194 275q0 -48 25.5 -85t67.5 -51v270q-42 -14 -67.5 -50.5
t-25.5 -83.5z" />
    <glyph glyph-name="sterling" unicode="&#xa3;" horiz-adv-x="594" 
d="M293 307v-9q-1 -81 -60 -147h317v-151h-497v128q80 83 80 174v5h-86v122h57q-18 58 -18 101q0 94 72 158q71 64 172 64q73 0 134 -32t94 -85l-104 -100q-19 28 -47.5 44.5t-59.5 16.5q-42 0 -69 -27t-27 -67q0 -24 15 -73h223v-122h-196z" />
    <glyph glyph-name="currency" unicode="&#xa4;" horiz-adv-x="647" 
d="M559 367q0 -64 -35 -120l77 -76l-71 -71l-79 77q-58 -36 -130 -36t-127 34l-77 -75l-70 71l74 73q-37 55 -37 123q0 73 42 132l-79 79l70 72l85 -84q56 30 119 30q69 0 122 -31l87 85l71 -72l-83 -81q41 -59 41 -130zM241 287q31 -33 80 -33t80 33q33 35 33 82
q0 48 -33 81q-31 33 -80 33t-80 -33q-32 -34 -32 -81t32 -82z" />
    <glyph glyph-name="yen" unicode="&#xa5;" horiz-adv-x="710" 
d="M499 739h185l-167 -322h85v-119h-147l-18 -35v-7h165v-119h-165v-137h-165v137h-166v119h166v8l-18 34h-148v119h87l-165 322h185l142 -309z" />
    <glyph glyph-name="brokenbar" unicode="&#xa6;" horiz-adv-x="303" 
d="M231 434h-159v413h159v-413zM72 234h159v-413h-159v413z" />
    <glyph glyph-name="section" unicode="&#xa7;" horiz-adv-x="636" 
d="M600 215q0 -88 -70 -140q30 -44 30 -100q0 -89 -71 -151q-70 -61 -185 -61q-80 0 -150.5 33.5t-118.5 97.5l104 109q30 -40 74 -64t88 -24q36 0 58.5 17t22.5 44q0 39 -74 77l-67 32q-75 34 -128 76q-63 54 -63 130q0 86 70 140q-31 46 -31 102q0 98 72 158q71 61 183 61
q141 0 231 -105l-112 -105q-51 57 -114 57q-38 0 -62.5 -18.5t-24.5 -45.5q0 -25 34 -54q6 -5 28 -16.5l24 -12.5l32 -15l32 -14q74 -33 126 -75q62 -50 62 -133zM308 221q83 -39 108 -52q15 16 15 34q0 22 -21.5 39.5t-74.5 42.5q-81 38 -107 54q-15 -18 -15 -35
q0 -22 21.5 -39.5t73.5 -43.5z" />
    <glyph glyph-name="dieresis" unicode="&#xa8;" horiz-adv-x="514" 
d="M133 620q-39 0 -64.5 25t-25.5 64q0 37 26 62.5t64 25.5t63.5 -25.5t25.5 -62.5q0 -39 -25.5 -64t-63.5 -25zM357 620q-39 0 -64.5 25t-25.5 64q0 37 26 62.5t64 25.5t63.5 -25.5t25.5 -62.5q0 -39 -25.5 -64t-63.5 -25z" />
    <glyph glyph-name="copyright" unicode="&#xa9;" 
d="M38 369q0 157 113 270t272 113t272 -113t113 -270q0 -156 -113 -269q-112 -112 -272 -112t-272 112q-113 113 -113 269zM423 77q123 2 207 86q87 86 87 206q0 121 -87 207q-86 86 -207 86q-120 0 -208 -86q-86 -86 -86 -207q0 -120 86 -206q84 -84 208 -86zM426 163
q-91 0 -149 58t-58 148t58 148q59 59 149 59q56 0 102 -26.5t73 -75.5l-80 -48q-39 51 -93 51q-46 0 -76 -30.5t-30 -77.5t29.5 -77.5t75.5 -30.5q60 0 94 49l79 -54q-57 -93 -174 -93z" />
    <glyph glyph-name="ordfeminine" unicode="&#xaa;" horiz-adv-x="407" 
d="M196 736q70 0 113.5 -40.5t43.5 -119.5v-186h-89v34q-38 -41 -106 -41q-56 0 -88 30.5t-32 78.5q0 52 39.5 78.5t109.5 26.5q5 0 14.5 -0.5t27 -1t31.5 -0.5q-8 56 -76 56q-53 0 -101 -24l-29 72q61 37 142 37zM177 461q36 0 59 20t24 53q-59 2 -66 1q-64 -1 -64 -38
q0 -36 47 -36z" />
    <glyph glyph-name="guillemotleft" unicode="&#xab;" horiz-adv-x="611" 
d="M329 88h-165l-134 203l134 203h165l-139 -203zM568 88h-167l-132 203l133 203h166l-139 -203z" />
    <glyph glyph-name="logicalnot" unicode="&#xac;" horiz-adv-x="602" 
d="M395 243h-335v144h476v-251h-141v107z" />
    <glyph glyph-name="uni00AD" unicode="&#xad;" horiz-adv-x="496" 
d="M439 255h-382v146h382v-146z" />
    <glyph glyph-name="registered" unicode="&#xae;" horiz-adv-x="602" 
d="M302 783q108 0 184 -76q77 -77 77 -184t-77 -184q-76 -76 -184 -76q-110 0 -186 76t-76 184t76 184t186 76zM302 329q80 0 135 57q56 58 56 137t-56 137q-55 57 -135 57t-136 -57q-55 -56 -55 -137t55 -137q55 -57 136 -57zM404 565q0 -53 -45 -72l50 -88h-69l-43 79h-28
v-79h-64v241h115q36 0 60 -23t24 -58zM304 594h-35v-59h35q35 0 35 31q0 28 -35 28z" />
    <glyph glyph-name="overscore" unicode="&#xaf;" horiz-adv-x="448" 
d="M374 635l-334 -2v137h334v-135z" />
    <glyph glyph-name="degree" unicode="&#xb0;" horiz-adv-x="367" 
d="M28 679q0 65 45 108q47 45 111 45q65 0 110 -45q45 -43 45 -108q0 -63 -45 -107q-46 -44 -110 -44t-111 44q-45 44 -45 107zM140 635q18 -18 44 -18t44 18t18 44t-18 44t-44 18t-44 -18t-18 -44t18 -44z" />
    <glyph glyph-name="plusminus" unicode="&#xb1;" horiz-adv-x="628" 
d="M575 496v-145h-188v-170h188v-141h-522v141h190v170h-190v145h190v189h144v-189h188z" />
    <glyph glyph-name="uni00B2" unicode="&#xb2;" horiz-adv-x="347" 
d="M254 672l-75 -76h133v-89h-276v81l129 130q42 44 42 68q0 16 -11.5 26t-30.5 10q-38 0 -96 -55l-48 74q65 71 151 71q60 0 99 -35t39 -90q0 -56 -56 -115z" />
    <glyph glyph-name="uni00B3" unicode="&#xb3;" horiz-adv-x="334" 
d="M147 501q-72 0 -139 40l40 78q57 -27 94 -27q57 0 57 38q0 16 -15.5 26t-40.5 10h-54v85h47q22 0 38 9t16 27q0 32 -47 32q-33 0 -77 -26l-48 71q58 48 138 48q58 0 97 -30q40 -30 40 -74q0 -32 -19.5 -55.5t-52.5 -33.5v-2q39 -9 61 -34.5t22 -61.5q0 -53 -43.5 -86.5
t-113.5 -33.5z" />
    <glyph glyph-name="acute" unicode="&#xb4;" horiz-adv-x="390" 
d="M180 620h-140l62 179h172z" />
    <glyph glyph-name="paragraph" unicode="&#xb6;" horiz-adv-x="797" 
d="M269 734h482v-156h-79v-781h-160v781h-71v-781h-160v474h-29q-98 0 -162 63q-63 63 -63 167q0 105 66 169q67 64 176 64z" />
    <glyph glyph-name="middot" unicode="&#xb7;" horiz-adv-x="268" 
d="M136 -16q-38 0 -63.5 25t-25.5 63q0 37 25.5 62t63.5 25q36 0 61 -25.5t25 -61.5q0 -38 -25 -63t-61 -25z" />
    <glyph glyph-name="cedilla" unicode="&#xb8;" horiz-adv-x="355" 
d="M239 18l-27 -66q46 -3 76.5 -31.5t30.5 -71.5q0 -52 -41 -87.5t-111 -35.5q-61 0 -127 31l32 88q44 -21 81 -21q24 0 37.5 10t13.5 26q0 33 -57 33h-53l-8 29l39 98z" />
    <glyph glyph-name="uni00B9" unicode="&#xb9;" horiz-adv-x="281" 
d="M8 792l147 110h76v-395h-102v254l-69 -50z" />
    <glyph glyph-name="ordmasculine" unicode="&#xba;" horiz-adv-x="424" 
d="M32 556q0 76 51 126q53 51 129 51q77 0 128 -51q52 -49 52 -126q0 -76 -52 -125q-52 -50 -128 -50t-129 50q-51 50 -51 125zM212 474q37 0 60.5 23.5t23.5 59.5q0 35 -24 59.5t-61 24.5q-35 0 -59 -24.5t-24 -59.5q0 -36 24 -59.5t60 -23.5z" />
    <glyph glyph-name="guillemotright" unicode="&#xbb;" horiz-adv-x="611" 
d="M342 291l-132 -203h-167l139 203l-139 203h166zM581 291l-134 -203h-165l139 203l-139 203h165z" />
    <glyph glyph-name="onequarter" unicode="&#xbc;" horiz-adv-x="893" 
d="M252 347h-101v255l-70 -51l-52 81l148 110h75v-395zM105 0l578 739h124l-577 -739h-125zM807 167h42v-81h-42v-86h-93v86h-175l-21 61l209 249h80v-229zM714 271l-89 -104h89v104z" />
    <glyph glyph-name="onehalf" unicode="&#xbd;" horiz-adv-x="874" 
d="M253 347h-101v255l-70 -51l-52 81l148 110h75v-395zM84 0l578 739h124l-577 -739h-125zM775 165l-75 -76h133v-89h-276v81l129 130q42 43 42 68q0 16 -11.5 26t-30.5 10q-38 0 -96 -55l-48 74q65 71 151 71q60 0 99 -35t39 -90q0 -56 -56 -115z" />
    <glyph glyph-name="threequarters" unicode="&#xbe;" horiz-adv-x="852" 
d="M154 432q57 0 57 38q0 16 -15.5 26t-40.5 10h-54v85h47q22 0 38 9t16 27q0 32 -47 32q-33 0 -77 -26l-48 71q58 48 138 48q58 0 97 -30q40 -30 40 -74q0 -32 -19.5 -55.5t-52.5 -33.5v-2q39 -9 61 -34.5t22 -61.5q0 -53 -43.5 -86.5t-113.5 -33.5q-72 0 -139 40l40 78
q57 -27 94 -27zM104 0l578 739h124l-577 -739h-125zM676 396h80v-229h42v-81h-42v-86h-93v86h-175l-21 61zM663 271l-89 -104h89v104z" />
    <glyph glyph-name="questiondown" unicode="&#xbf;" horiz-adv-x="557" 
d="M240 502q26 26 62 26t62 -26q27 -25 27 -62t-26 -62t-63 -25t-62 25t-25 62t25 62zM228 310h152v-63q0 -84 -62 -141q-9 -9 -30.5 -27t-32.5 -29t-25 -27t-20.5 -31.5t-6.5 -32.5q0 -35 25 -57t63 -22q71 0 148 89l97 -108q-102 -129 -257 -129q-109 0 -177 62
q-67 61 -67 155q0 86 68 150l41 36t44.5 41t26 36t13.5 45v53z" />
    <glyph glyph-name="Agrave" unicode="&#xc0;" horiz-adv-x="704" 
d="M362 984l66 -189h-149l-99 189h182zM697 0h-172l-49 149h-248l-51 -149h-172l277 739h144zM432 294l-79 234l-80 -234h159z" />
    <glyph glyph-name="Aacute" unicode="&#xc1;" horiz-adv-x="704" 
d="M351 982h180l-98 -188h-147zM697 0h-172l-49 149h-248l-51 -149h-172l277 739h144zM432 294l-79 234l-80 -234h159z" />
    <glyph glyph-name="Acircumflex" unicode="&#xc2;" horiz-adv-x="704" 
d="M418 794l-65 90l-66 -90h-153l159 190h124l159 -190h-158zM697 0h-172l-49 149h-248l-51 -149h-172l277 739h144zM432 294l-79 234l-80 -234h159z" />
    <glyph glyph-name="Atilde" unicode="&#xc3;" horiz-adv-x="704" 
d="M287 839q-38 0 -68 -53l-102 51q31 64 68 94.5t90 30.5q34 0 78 -23q43 -22 59 -22q17 0 30 11t31 40l102 -49q-50 -125 -147 -125q-33 0 -77 22q-46 23 -64 23zM697 0h-172l-49 149h-248l-51 -149h-172l277 739h144zM432 294l-79 234l-80 -234h159z" />
    <glyph glyph-name="Adieresis" unicode="&#xc4;" horiz-adv-x="704" 
d="M143 884q0 37 26.5 63t64.5 26t64 -25.5t26 -63.5q0 -39 -25.5 -64.5t-64.5 -25.5t-65 25.5t-26 64.5zM461 794q-39 0 -65 25.5t-26 64.5q0 37 26.5 63t64.5 26t64 -26t26 -63q0 -39 -26 -64.5t-64 -25.5zM697 0h-172l-49 149h-248l-51 -149h-172l277 739h144zM432 294
l-79 234l-80 -234h159z" />
    <glyph glyph-name="Aring" unicode="&#xc5;" horiz-adv-x="704" 
d="M355 778q-62 0 -103 40q-42 40 -42 99t42 100q43 41 103 41q59 0 103 -42q43 -40 43 -99t-43 -99t-103 -40zM355 972q-23 0 -39 -15.5t-16 -37.5q0 -23 16 -38.5t39 -15.5q22 0 37.5 15.5t15.5 38.5q0 22 -15.5 37.5t-37.5 15.5zM697 0h-172l-49 149h-248l-51 -149h-172
l277 739h144zM432 294l-79 234l-80 -234h159z" />
    <glyph glyph-name="AE" unicode="&#xc6;" horiz-adv-x="1062" 
d="M1009 739v-154h-353v-137h326v-153h-326v-141h352v-154h-519v158h-239l-89 -158h-180l441 739h587zM489 582l-157 -278h157v278z" />
    <glyph glyph-name="Ccedilla" unicode="&#xc7;" horiz-adv-x="760" 
d="M632 249l111 -104q-45 -60 -116.5 -101t-156.5 -52l-16 -40q46 -3 76.5 -31.5t30.5 -71.5q0 -52 -41 -87.5t-111 -35.5q-61 0 -127 31l32 88q44 -21 81 -21q24 0 37.5 10t13.5 26q0 33 -57 33h-53l-8 29l28 71q-138 19 -229 122q-90 102 -90 252q0 168 111 276
q112 109 271 109q98 0 182 -40.5t135 -109.5l-108 -110q-84 101 -200 101q-92 0 -156 -64t-64 -161q0 -95 63 -158t156 -63q119 0 205 102z" />
    <glyph glyph-name="Egrave" unicode="&#xc8;" horiz-adv-x="647" 
d="M354 984l66 -189h-149l-99 189h182zM593 0h-515v739h516v-154h-350v-137h324v-153h-324v-141h349v-154z" />
    <glyph glyph-name="Eacute" unicode="&#xc9;" horiz-adv-x="647" 
d="M403 794h-147l65 188h180zM593 0h-515v739h516v-154h-350v-137h324v-153h-324v-141h349v-154z" />
    <glyph glyph-name="Ecircumflex" unicode="&#xca;" horiz-adv-x="647" 
d="M269 794h-153l159 190h124l159 -190h-158l-65 90zM593 0h-515v739h516v-154h-350v-137h324v-153h-324v-141h349v-154z" />
    <glyph glyph-name="Edieresis" unicode="&#xcb;" horiz-adv-x="647" 
d="M132 884q0 37 26.5 63t64.5 26t64 -25.5t26 -63.5q0 -39 -25.5 -64.5t-64.5 -25.5t-65 25.5t-26 64.5zM450 794q-39 0 -65 25.5t-26 64.5q0 37 26.5 63t64.5 26t64 -26t26 -63q0 -39 -26 -64.5t-64 -25.5zM593 0h-515v739h516v-154h-350v-137h324v-153h-324v-141h349
v-154z" />
    <glyph glyph-name="Igrave" unicode="&#xcc;" horiz-adv-x="322" 
d="M175 984l66 -189h-149l-99 189h182zM79 0v739h166v-739h-166z" />
    <glyph glyph-name="Iacute" unicode="&#xcd;" horiz-adv-x="321" 
d="M231 795h-147l65 188h180zM78 0v739h166v-739h-166z" />
    <glyph glyph-name="Icircumflex" unicode="&#xce;" horiz-adv-x="322" 
d="M95 796h-153l159 190h124l159 -190h-158l-65 90zM79 0v739h166v-739h-166z" />
    <glyph glyph-name="Idieresis" unicode="&#xcf;" horiz-adv-x="322" 
d="M48 794q-40 0 -66.5 26t-26.5 66q0 38 27 64.5t66 26.5q38 0 64.5 -26.5t26.5 -64.5q0 -40 -26 -66t-65 -26zM186 886q0 38 27 64.5t65 26.5q39 0 65.5 -26.5t26.5 -64.5q0 -40 -26.5 -66t-65.5 -26t-65.5 26t-26.5 66zM79 0v739h166v-739h-166z" />
    <glyph glyph-name="Eth" unicode="&#xd0;" horiz-adv-x="789" 
d="M92 739h295q170 0 264 -100q96 -99 96 -270q0 -172 -97 -270q-98 -99 -268 -99h-290v304h-75v132h75v303zM257 159h132q90 0 138 60q49 61 49 151q0 91 -49 150q-48 60 -138 60h-132v-144h184v-132h-184v-145z" />
    <glyph glyph-name="Ntilde" unicode="&#xd1;" horiz-adv-x="799" 
d="M273 791l-102 51q31 64 68 94.5t90 30.5q34 0 78 -23q43 -22 59 -22q17 0 30 11t31 40l102 -49q-50 -125 -147 -125q-33 0 -77 22q-46 23 -64 23q-38 0 -68 -53zM559 307v432h162v-739h-119l-361 428v-428h-163v739h112z" />
    <glyph glyph-name="Ograve" unicode="&#xd2;" 
d="M442 984l66 -189h-149l-99 189h182zM37 368q0 161 111 272q112 112 275 112t274 -112q112 -111 112 -271t-111 -271q-112 -110 -276 -110q-165 0 -275 110t-110 270zM423 151q91 0 153 62q62 64 61 156q-2 96 -63 157q-62 63 -151 63q-91 0 -152 -63q-62 -64 -62 -157
q0 -92 62 -156q62 -62 152 -62z" />
    <glyph glyph-name="Oacute" unicode="&#xd3;" 
d="M497 794h-147l65 188h180zM37 368q0 161 111 272q112 112 275 112t274 -112q112 -111 112 -271t-111 -271q-112 -110 -276 -110q-165 0 -275 110t-110 270zM423 151q91 0 153 62q62 64 61 156q-2 96 -63 157q-62 63 -151 63q-91 0 -152 -63q-62 -64 -62 -157
q0 -92 62 -156q62 -62 152 -62z" />
    <glyph glyph-name="Ocircumflex" unicode="&#xd4;" 
d="M356 794h-153l159 190h124l159 -190h-158l-65 90zM37 368q0 161 111 272q112 112 275 112t274 -112q112 -111 112 -271t-111 -271q-112 -110 -276 -110q-165 0 -275 110t-110 270zM423 151q91 0 153 62q62 64 61 156q-2 96 -63 157q-62 63 -151 63q-91 0 -152 -63
q-62 -64 -62 -157q0 -92 62 -156q62 -62 152 -62z" />
    <glyph glyph-name="Otilde" unicode="&#xd5;" 
d="M298 786l-102 51q31 64 68 94.5t90 30.5q33 0 77 -23q43 -22 60 -22t30 11t31 40l102 -49q-50 -125 -147 -125q-32 0 -76 22q-46 23 -65 23q-38 0 -68 -53zM37 368q0 161 111 272q112 112 275 112t274 -112q112 -111 112 -271t-111 -271q-112 -110 -276 -110
q-165 0 -275 110t-110 270zM423 151q91 0 153 62q62 64 61 156q-2 96 -63 157q-62 63 -151 63q-91 0 -152 -63q-62 -64 -62 -157q0 -92 62 -156q62 -62 152 -62z" />
    <glyph glyph-name="Odieresis" unicode="&#xd6;" 
d="M221 884q0 37 26.5 63t64.5 26t64 -25.5t26 -63.5q0 -39 -25.5 -64.5t-64.5 -25.5t-65 25.5t-26 64.5zM539 794q-39 0 -65 25.5t-26 64.5q0 37 26.5 63t64.5 26t64 -26t26 -63q0 -39 -26 -64.5t-64 -25.5zM37 368q0 161 111 272q112 112 275 112t274 -112
q112 -111 112 -271t-111 -271q-112 -110 -276 -110q-165 0 -275 110t-110 270zM423 151q91 0 153 62q62 64 61 156q-2 96 -63 157q-62 63 -151 63q-91 0 -152 -63q-62 -64 -62 -157q0 -92 62 -156q62 -62 152 -62z" />
    <glyph glyph-name="multiply" unicode="&#xd7;" horiz-adv-x="569" 
d="M430 583l98 -94l-149 -150l148 -147l-94 -100l-150 150l-149 -150l-94 100l147 147l-146 146l93 98l149 -148z" />
    <glyph glyph-name="Oslash" unicode="&#xd8;" 
d="M760 735l-65 -92q114 -111 114 -274q0 -160 -111 -271q-112 -110 -276 -110q-89 0 -164 34l-61 -86l-93 63l59 84q-60 54 -93 128t-33 157q0 161 111 272q112 112 275 112q96 0 182 -44l63 90zM209 369q0 -84 53 -146l246 349q-42 17 -85 17q-91 0 -152 -63
q-62 -64 -62 -157zM423 151q91 0 153 62q62 64 61 156q0 75 -42 132l-239 -340q33 -10 67 -10z" />
    <glyph glyph-name="Ugrave" unicode="&#xd9;" horiz-adv-x="731" 
d="M383 984l66 -189h-149l-99 189h182zM366 -13q-126 0 -211 73t-85 218v461h166v-454q0 -68 34.5 -103t95.5 -35q59 0 94 35.5t35 102.5v454h166v-461q0 -144 -84 -218q-83 -73 -211 -73z" />
    <glyph glyph-name="Uacute" unicode="&#xda;" horiz-adv-x="731" 
d="M435 794h-147l65 188h180zM366 -13q-126 0 -211 73t-85 218v461h166v-454q0 -68 34.5 -103t95.5 -35q59 0 94 35.5t35 102.5v454h166v-461q0 -144 -84 -218q-83 -73 -211 -73z" />
    <glyph glyph-name="Ucircumflex" unicode="&#xdb;" horiz-adv-x="731" 
d="M299 794h-153l159 190h124l159 -190h-158l-65 90zM366 -13q-126 0 -211 73t-85 218v461h166v-454q0 -68 34.5 -103t95.5 -35q59 0 94 35.5t35 102.5v454h166v-461q0 -144 -84 -218q-83 -73 -211 -73z" />
    <glyph glyph-name="Udieresis" unicode="&#xdc;" horiz-adv-x="731" 
d="M161 884q0 37 26.5 63t64.5 26t64 -25.5t26 -63.5q0 -39 -25.5 -64.5t-64.5 -25.5t-65 25.5t-26 64.5zM479 794q-39 0 -65 25.5t-26 64.5q0 37 26.5 63t64.5 26t64 -26t26 -63q0 -39 -26 -64.5t-64 -25.5zM366 -13q-126 0 -211 73t-85 218v461h166v-454q0 -68 34.5 -103
t95.5 -35q59 0 94 35.5t35 102.5v454h166v-461q0 -144 -84 -218q-83 -73 -211 -73z" />
    <glyph glyph-name="Yacute" unicode="&#xdd;" horiz-adv-x="693" 
d="M415 794h-147l65 188h180zM493 739h193l-257 -486v-253h-165v253l-255 486h193l144 -306z" />
    <glyph glyph-name="Thorn" unicode="&#xde;" horiz-adv-x="662" 
d="M243 623h123q68 0 120 -21t82.5 -56.5t45.5 -78t15 -90.5q0 -103 -69 -174q-68 -69 -206 -69h-111v-134h-165v739h165v-116zM243 285h115q49 0 75 26.5t26 67.5q0 39 -25.5 64.5t-68.5 25.5h-122v-184z" />
    <glyph glyph-name="germandbls" unicode="&#xdf;" horiz-adv-x="675" 
d="M510 397q60 -20 96 -73t36 -120q0 -96 -71 -159q-70 -63 -181 -63q-71 0 -128 23l31 131q36 -14 77 -14q51 0 82.5 26.5t31.5 68.5q0 48 -43 73.5t-119 25.5v123q55 0 88.5 29.5t33.5 73.5q0 39 -27.5 64.5t-72.5 25.5q-59 0 -92.5 -45.5t-33.5 -124.5v-639h-158v657
q0 81 27 143.5t73 95.5q86 63 191 63q110 0 182 -63t72 -157q0 -111 -95 -165z" />
    <glyph glyph-name="agrave" unicode="&#xe0;" horiz-adv-x="683" 
d="M350 807l63 -179h-140l-94 179h171zM472 490v58h148v-548h-148v56q-70 -70 -169 -70q-117 0 -194 83q-76 83 -76 208q0 122 77 204q76 81 193 81q99 0 169 -72zM190 275q0 -61 39 -104q41 -42 101 -42q61 0 101 43q41 44 41 103t-41 102q-41 42 -101 42t-101 -42
q-39 -42 -39 -102z" />
    <glyph glyph-name="aacute" unicode="&#xe1;" horiz-adv-x="683" 
d="M331 807h172l-94 -179h-140zM472 490v58h148v-548h-148v56q-70 -70 -169 -70q-117 0 -194 83q-76 83 -76 208q0 122 77 204q76 81 193 81q99 0 169 -72zM190 275q0 -61 39 -104q41 -42 101 -42q61 0 101 43q41 44 41 103t-41 102q-41 42 -101 42t-101 -42
q-39 -42 -39 -102z" />
    <glyph glyph-name="acircumflex" unicode="&#xe2;" horiz-adv-x="683" 
d="M402 627l-62 86l-63 -86h-145l151 181h118l151 -181h-150zM472 490v58h148v-548h-148v56q-70 -70 -169 -70q-117 0 -194 83q-76 83 -76 208q0 122 77 204q76 81 193 81q99 0 169 -72zM190 275q0 -61 39 -104q41 -42 101 -42q61 0 101 43q41 44 41 103t-41 102
q-41 42 -101 42t-101 -42q-39 -42 -39 -102z" />
    <glyph glyph-name="atilde" unicode="&#xe3;" horiz-adv-x="683" 
d="M287 670q-37 0 -66 -51l-99 49q30 62 66 91.5t87 29.5q34 0 75 -22q42 -21 58 -21q17 0 30 11t29 38l99 -47q-48 -122 -142 -122q-32 0 -75 22t-62 22zM472 490v58h148v-548h-148v56q-70 -70 -169 -70q-117 0 -194 83q-76 83 -76 208q0 122 77 204q76 81 193 81
q99 0 169 -72zM190 275q0 -61 39 -104q41 -42 101 -42q61 0 101 43q41 44 41 103t-41 102q-41 42 -101 42t-101 -42q-39 -42 -39 -102z" />
    <glyph glyph-name="adieresis" unicode="&#xe4;" horiz-adv-x="683" 
d="M234 617q-39 0 -64.5 25t-25.5 64q0 37 26 62.5t64 25.5t63.5 -25.5t25.5 -62.5q0 -39 -25.5 -64t-63.5 -25zM458 617q-39 0 -64.5 25t-25.5 64q0 37 26 62.5t64 25.5t63.5 -25.5t25.5 -62.5q0 -39 -25.5 -64t-63.5 -25zM472 490v58h148v-548h-148v56q-70 -70 -169 -70
q-117 0 -194 83q-76 83 -76 208q0 122 77 204q76 81 193 81q99 0 169 -72zM190 275q0 -61 39 -104q41 -42 101 -42q61 0 101 43q41 44 41 103t-41 102q-41 42 -101 42t-101 -42q-39 -42 -39 -102z" />
    <glyph glyph-name="aring" unicode="&#xe5;" horiz-adv-x="683" 
d="M481 741q0 -55 -41 -94q-40 -39 -98 -39q-57 0 -98 38q-40 39 -40 95t40 95t98 39t98 -39q41 -39 41 -95zM342 793q-22 0 -37 -14.5t-15 -35.5q0 -22 15 -37t37 -15q21 0 36 15t15 37q0 21 -15 35.5t-36 14.5zM472 490v58h148v-548h-148v56q-70 -70 -169 -70
q-117 0 -194 83q-76 83 -76 208q0 122 77 204q76 81 193 81q99 0 169 -72zM190 275q0 -61 39 -104q41 -42 101 -42q61 0 101 43q41 44 41 103t-41 102q-41 42 -101 42t-101 -42q-39 -42 -39 -102z" />
    <glyph glyph-name="ae" unicode="&#xe6;" horiz-adv-x="976" 
d="M944 296q0 -41 -6 -68l-391 1q12 -52 49.5 -82.5t93.5 -30.5q84 0 161 54l66 -105q-103 -77 -236 -77q-151 0 -227 103q-76 -103 -219 -103q-97 0 -152.5 49t-55.5 128q0 97 82 136q73 35 175 35h109q-23 99 -132 99q-88 0 -161 -47l-51 109q46 29 107.5 47t118.5 18
q132 0 196 -88q79 88 209 88q113 0 188 -69q76 -69 76 -197zM549 336h256q-9 47 -42.5 73.5t-82.5 26.5q-48 0 -83 -26.5t-48 -73.5zM254 116q50 0 89 29.5t51 84.5h-106q-114 0 -114 -58q0 -26 22 -41t58 -15z" />
    <glyph glyph-name="ccedilla" unicode="&#xe7;" horiz-adv-x="605" 
d="M328 132q41 0 76.5 21.5t52.5 55.5l127 -75q-31 -58 -87 -95.5t-128 -47.5l-16 -39q46 -3 76.5 -31.5t30.5 -71.5q0 -52 -41 -87.5t-111 -35.5q-61 0 -127 31l32 88q43 -21 81 -21q24 0 37.5 10t13.5 26q0 33 -57 33h-53l-8 29l29 73q-101 19 -163 96q-60 77 -60 184
q0 127 82 206q83 81 212 81q86 0 155.5 -41t102.5 -115l-125 -67q-48 78 -130 78q-60 0 -101 -41q-40 -40 -40 -101q0 -63 39 -103q40 -40 100 -40z" />
    <glyph glyph-name="egrave" unicode="&#xe8;" horiz-adv-x="632" 
d="M337 806l63 -179h-140l-94 179h171zM600 287q0 -24 -5 -66h-403q28 -103 149 -103q92 0 171 53l62 -107q-100 -76 -240 -76q-145 0 -223 83q-77 83 -77 204q0 123 80 205q79 82 209 82q120 0 199 -74q78 -74 78 -201zM323 435q-48 0 -83.5 -27t-48.5 -75h258
q-11 48 -44.5 75t-81.5 27z" />
    <glyph glyph-name="eacute" unicode="&#xe9;" horiz-adv-x="632" 
d="M306 807h172l-94 -179h-140zM600 287q0 -24 -5 -66h-403q28 -103 149 -103q92 0 171 53l62 -107q-100 -76 -240 -76q-145 0 -223 83q-77 83 -77 204q0 123 80 205q79 82 209 82q120 0 199 -74q78 -74 78 -201zM323 435q-48 0 -83.5 -27t-48.5 -75h258q-11 48 -44.5 75
t-81.5 27z" />
    <glyph glyph-name="ecircumflex" unicode="&#xea;" horiz-adv-x="632" 
d="M384 630l-62 86l-63 -86h-145l151 181h118l151 -181h-150zM600 287q0 -24 -5 -66h-403q28 -103 149 -103q92 0 171 53l62 -107q-100 -76 -240 -76q-145 0 -223 83q-77 83 -77 204q0 123 80 205q79 82 209 82q120 0 199 -74q78 -74 78 -201zM323 435q-48 0 -83.5 -27
t-48.5 -75h258q-11 48 -44.5 75t-81.5 27z" />
    <glyph glyph-name="edieresis" unicode="&#xeb;" horiz-adv-x="632" 
d="M221 611q-39 0 -64.5 25t-25.5 64q0 37 26 62.5t64 25.5t63.5 -25.5t25.5 -62.5q0 -39 -25.5 -64t-63.5 -25zM445 611q-39 0 -64.5 25t-25.5 64q0 37 26 62.5t64 25.5t63.5 -25.5t25.5 -62.5q0 -39 -25.5 -64t-63.5 -25zM600 287q0 -24 -5 -66h-403q28 -103 149 -103
q92 0 171 53l62 -107q-100 -76 -240 -76q-145 0 -223 83q-77 83 -77 204q0 123 80 205q79 82 209 82q120 0 199 -74q78 -74 78 -201zM323 435q-48 0 -83.5 -27t-48.5 -75h258q-11 48 -44.5 75t-81.5 27z" />
    <glyph glyph-name="igrave" unicode="&#xec;" horiz-adv-x="281" 
d="M152 806l63 -179h-140l-94 179h171zM220 548v-548h-157v548h157z" />
    <glyph glyph-name="iacute" unicode="&#xed;" horiz-adv-x="274" 
d="M206 628h-140l62 179h172zM217 548v-548h-157v548h157z" />
    <glyph glyph-name="icircumflex" unicode="&#xee;" horiz-adv-x="278" 
d="M78 627h-145l151 181h118l151 -181h-150l-62 86zM220 548v-548h-157v548h157z" />
    <glyph glyph-name="idieresis" unicode="&#xef;" horiz-adv-x="278" 
d="M30 616q-39 0 -64.5 25t-25.5 64q0 37 26 62.5t64 25.5t63.5 -25.5t25.5 -62.5q0 -39 -25.5 -64t-63.5 -25zM254 616q-39 0 -64.5 25t-25.5 64q0 37 26 62.5t64 25.5t63.5 -25.5t25.5 -62.5q0 -39 -25.5 -64t-63.5 -25zM220 548v-548h-157v548h157z" />
    <glyph glyph-name="eth" unicode="&#xf0;" horiz-adv-x="655" 
d="M561 749l-75 -55q131 -170 131 -349q0 -154 -88 -255q-89 -102 -225 -102q-120 0 -196 76t-76 188q0 111 76 183t177 72q109 0 170 -90q-25 103 -92 188l-79 -58l-57 71l75 54q-39 39 -96 84l111 105q62 -46 110 -99l80 58zM441 257q0 53 -37 89q-36 36 -88 36
q-54 0 -90 -37t-36 -91q0 -52 35 -90q36 -37 89 -37t90 37t37 93z" />
    <glyph glyph-name="ntilde" unicode="&#xf1;" horiz-adv-x="652" 
d="M209 620l-99 49q30 62 66 91.5t87 29.5q34 0 75 -22q42 -21 58 -21q17 0 30 11t29 38l99 -47q-48 -122 -142 -122q-32 0 -75 22t-62 22q-37 0 -66 -51zM217 0h-157v548h153v-76q22 40 68.5 65.5t104.5 25.5q89 0 151 -59t62 -169v-335h-157v294q0 59 -29 92t-78 33
q-53 0 -85.5 -35.5t-32.5 -93.5v-290z" />
    <glyph glyph-name="ograve" unicode="&#xf2;" horiz-adv-x="657" 
d="M342 806l63 -179h-140l-94 179h171zM328 -15q-130 0 -213 83q-82 83 -82 206t82 205q83 84 213 84q132 0 214 -84q83 -83 83 -205q0 -121 -83 -206q-83 -83 -214 -83zM468 275q0 59 -41 100q-41 42 -99 42t-99 -42q-40 -40 -40 -100q0 -62 40 -103q41 -41 99 -41t99 41
q41 43 41 103z" />
    <glyph glyph-name="oacute" unicode="&#xf3;" horiz-adv-x="657" 
d="M391 628h-140l62 179h172zM328 -15q-130 0 -213 83q-82 83 -82 206t82 205q83 84 213 84q132 0 214 -84q83 -83 83 -205q0 -121 -83 -206q-83 -83 -214 -83zM468 275q0 59 -41 100q-41 42 -99 42t-99 -42q-40 -40 -40 -100q0 -62 40 -103q41 -41 99 -41t99 41
q41 43 41 103z" />
    <glyph glyph-name="ocircumflex" unicode="&#xf4;" horiz-adv-x="657" 
d="M263 628h-145l151 181h118l151 -181h-150l-62 86zM328 -15q-130 0 -213 83q-82 83 -82 206t82 205q83 84 213 84q132 0 214 -84q83 -83 83 -205q0 -121 -83 -206q-83 -83 -214 -83zM468 275q0 59 -41 100q-41 42 -99 42t-99 -42q-40 -40 -40 -100q0 -62 40 -103
q41 -41 99 -41t99 41q41 43 41 103z" />
    <glyph glyph-name="otilde" unicode="&#xf5;" horiz-adv-x="657" 
d="M208 620l-99 49q30 62 66 91.5t87 29.5q34 0 75 -22q42 -21 58 -21q17 0 30 11t29 38l99 -47q-48 -122 -142 -122q-32 0 -75 22t-62 22q-38 0 -66 -51zM328 -15q-130 0 -213 83q-82 83 -82 206t82 205q83 84 213 84q132 0 214 -84q83 -83 83 -205q0 -121 -83 -206
q-83 -83 -214 -83zM468 275q0 59 -41 100q-41 42 -99 42t-99 -42q-40 -40 -40 -100q0 -62 40 -103q41 -41 99 -41t99 41q41 43 41 103z" />
    <glyph glyph-name="odieresis" unicode="&#xf6;" horiz-adv-x="657" 
d="M217 616q-39 0 -64.5 25t-25.5 64q0 37 26 62.5t64 25.5t63.5 -25.5t25.5 -62.5q0 -39 -25.5 -64t-63.5 -25zM441 616q-39 0 -64.5 25t-25.5 64q0 37 26 62.5t64 25.5t63.5 -25.5t25.5 -62.5q0 -39 -25.5 -64t-63.5 -25zM328 -15q-130 0 -213 83q-82 83 -82 206t82 205
q83 84 213 84q132 0 214 -84q83 -83 83 -205q0 -121 -83 -206q-83 -83 -214 -83zM468 275q0 59 -41 100q-41 42 -99 42t-99 -42q-40 -40 -40 -100q0 -62 40 -103q41 -41 99 -41t99 41q41 43 41 103z" />
    <glyph glyph-name="divide" unicode="&#xf7;" horiz-adv-x="554" 
d="M277 456q-35 0 -59 23.5t-24 58.5t24 58.5t59 23.5q33 0 57 -24t24 -58q0 -35 -24 -58.5t-57 -23.5zM515 282h-476v130h476v-130zM278 76q-35 0 -59 23.5t-24 58.5t24 58.5t59 23.5q33 0 57 -24t24 -58q0 -35 -24 -58.5t-57 -23.5z" />
    <glyph glyph-name="oslash" unicode="&#xf8;" horiz-adv-x="657" 
d="M577 565l-50 -72q98 -84 98 -219q0 -121 -83 -206q-83 -83 -214 -83q-72 0 -132 28l-54 -79l-68 46l53 77q-94 84 -94 217q0 123 82 205q83 84 213 84q69 0 129 -26l50 73zM189 275q0 -50 28 -87l153 223q-20 6 -42 6q-58 0 -99 -42q-40 -40 -40 -100zM328 131
q58 0 99 41q41 43 41 103q0 50 -30 89l-155 -226q22 -7 45 -7z" />
    <glyph glyph-name="ugrave" unicode="&#xf9;" horiz-adv-x="620" 
d="M324 807l63 -179h-140l-94 179h171zM310 -14q-120 0 -188.5 66t-68.5 183v313h157v-314q0 -48 26.5 -76t73.5 -28t73.5 28t26.5 76v314h157v-313q0 -119 -68 -184t-189 -65z" />
    <glyph glyph-name="uacute" unicode="&#xfa;" horiz-adv-x="620" 
d="M376 628h-140l62 179h172zM310 -14q-120 0 -188.5 66t-68.5 183v313h157v-314q0 -48 26.5 -76t73.5 -28t73.5 28t26.5 76v314h157v-313q0 -119 -68 -184t-189 -65z" />
    <glyph glyph-name="ucircumflex" unicode="&#xfb;" horiz-adv-x="620" 
d="M247 629h-145l151 181h118l151 -181h-150l-62 86zM310 -14q-120 0 -188.5 66t-68.5 183v313h157v-314q0 -48 26.5 -76t73.5 -28t73.5 28t26.5 76v314h157v-313q0 -119 -68 -184t-189 -65z" />
    <glyph glyph-name="udieresis" unicode="&#xfc;" horiz-adv-x="620" 
d="M199 615q-39 0 -64.5 25t-25.5 64q0 37 26 62.5t64 25.5t63.5 -25.5t25.5 -62.5q0 -39 -25.5 -64t-63.5 -25zM423 615q-39 0 -64.5 25t-25.5 64q0 37 26 62.5t64 25.5t63.5 -25.5t25.5 -62.5q0 -39 -25.5 -64t-63.5 -25zM310 -14q-120 0 -188.5 66t-68.5 183v313h157
v-314q0 -48 26.5 -76t73.5 -28t73.5 28t26.5 76v314h157v-313q0 -119 -68 -184t-189 -65z" />
    <glyph glyph-name="yacute" unicode="&#xfd;" horiz-adv-x="614" 
d="M295 806h172l-94 -179h-140zM319 209l118 339h170l-217 -563q-43 -111 -102 -164.5t-145 -53.5q-67 0 -111 29l29 130q35 -19 71 -19q66 0 106 84l7 16l-239 541h181z" />
    <glyph glyph-name="thorn" unicode="&#xfe;" horiz-adv-x="686" 
d="M379 562q117 0 196 -84q79 -82 79 -203q0 -120 -79 -205q-79 -84 -194 -84q-94 0 -164 73v-285h-157v987h155v-272q67 73 164 73zM492 274q0 61 -40 101q-39 42 -100 42t-100 -42q-39 -41 -39 -101q0 -61 39.5 -102.5t99.5 -41.5q61 0 100 41q40 41 40 103z" />
    <glyph glyph-name="ydieresis" unicode="&#xff;" horiz-adv-x="614" 
d="M203 616q-39 0 -64.5 25t-25.5 64q0 37 26 62.5t64 25.5t63.5 -25.5t25.5 -62.5q0 -39 -25.5 -64t-63.5 -25zM427 616q-39 0 -64.5 25t-25.5 64q0 37 26 62.5t64 25.5t63.5 -25.5t25.5 -62.5q0 -39 -25.5 -64t-63.5 -25zM319 209l118 339h170l-217 -563
q-43 -111 -102 -164.5t-145 -53.5q-67 0 -111 29l29 130q35 -19 71 -19q66 0 106 84l7 16l-239 541h181z" />
    <glyph glyph-name="Amacron" unicode="&#x100;" horiz-adv-x="704" 
d="M165 944h378v-135l-378 -2v137zM697 0h-172l-49 149h-248l-51 -149h-172l277 739h144zM432 294l-79 234l-80 -234h159z" />
    <glyph glyph-name="amacron" unicode="&#x101;" horiz-adv-x="683" 
d="M175 771h334v-135l-334 -2v137zM472 490v58h148v-548h-148v56q-70 -70 -169 -70q-117 0 -194 83q-76 83 -76 208q0 122 77 204q76 81 193 81q99 0 169 -72zM190 275q0 -61 39 -104q41 -42 101 -42q61 0 101 43q41 44 41 103t-41 102q-41 42 -101 42t-101 -42
q-39 -42 -39 -102z" />
    <glyph glyph-name="Abreve" unicode="&#x102;" horiz-adv-x="704" 
d="M353 785q-88 0 -142 52t-60 143h127q2 -40 21.5 -63.5t53.5 -23.5q35 0 54.5 24t20.5 63h129q-6 -91 -60.5 -143t-143.5 -52zM697 0h-172l-49 149h-248l-51 -149h-172l277 739h144zM432 294l-79 234l-80 -234h159z" />
    <glyph glyph-name="abreve" unicode="&#x103;" horiz-adv-x="683" 
d="M147 807h121q2 -37 20.5 -59.5t51.5 -22.5t51.5 22.5t19.5 59.5h123q-6 -87 -58 -136t-136 -49t-135.5 49t-57.5 136zM472 490v58h148v-548h-148v56q-70 -70 -169 -70q-117 0 -194 83q-76 83 -76 208q0 122 77 204q76 81 193 81q99 0 169 -72zM190 275q0 -61 39 -104
q41 -42 101 -42q61 0 101 43q41 44 41 103t-41 102q-41 42 -101 42t-101 -42q-39 -42 -39 -102z" />
    <glyph glyph-name="Aogonek" unicode="&#x104;" horiz-adv-x="701" 
d="M683 -137l30 -98q-54 -30 -112 -30t-91 32t-33 84q0 85 96 149h-48l-49 149h-248l-51 -149h-172l277 739h144l271 -739h1q-40 -18 -67 -49.5t-27 -60.5q0 -18 10.5 -28t26.5 -10q15 0 42 11zM432 294l-79 234l-80 -234h159z" />
    <glyph glyph-name="aogonek" unicode="&#x105;" horiz-adv-x="676" 
d="M606 -137l30 -98q-54 -30 -112 -30t-91 32t-33 84q0 85 96 149h-24v56q-70 -70 -169 -70q-117 0 -194 83q-76 83 -76 208q0 122 77 204q76 81 193 81q99 0 169 -72v58h148v-548h1q-40 -18 -67 -49.5t-27 -60.5q0 -18 10.5 -28t26.5 -10q15 0 42 11zM190 275
q0 -61 39 -104q41 -42 101 -42q61 0 101 43q41 44 41 103t-41 102q-41 42 -101 42t-101 -42q-39 -42 -39 -102z" />
    <glyph glyph-name="Cacute" unicode="&#x106;" horiz-adv-x="761" 
d="M497 794h-147l65 188h180zM418 -11q-162 0 -271 105q-109 106 -109 273q0 168 111 276q112 109 271 109q98 0 182 -40.5t135 -109.5l-108 -110q-84 101 -200 101q-92 0 -156 -64t-64 -161q0 -95 63 -158t156 -63q120 0 205 102l111 -104q-52 -71 -139 -113.5t-187 -42.5z
" />
    <glyph glyph-name="cacute" unicode="&#x107;" horiz-adv-x="605" 
d="M391 628h-140l62 179h172zM324 -12q-128 0 -210 80q-81 81 -81 207q0 127 82 206q83 81 212 81q86 0 155.5 -41t102.5 -115l-125 -67q-48 78 -130 78q-60 0 -101 -41q-40 -40 -40 -101q0 -63 39 -103q40 -40 100 -40q41 0 76.5 21.5t52.5 55.5l127 -75
q-36 -67 -105.5 -106.5t-154.5 -39.5z" />
    <glyph glyph-name="Ccircumflex" unicode="&#x108;" horiz-adv-x="761" 
d="M348 794h-153l159 190h124l159 -190h-158l-65 90zM418 -11q-162 0 -271 105q-109 106 -109 273q0 168 111 276q112 109 271 109q98 0 182 -40.5t135 -109.5l-108 -110q-84 101 -200 101q-92 0 -156 -64t-64 -161q0 -95 63 -158t156 -63q120 0 205 102l111 -104
q-52 -71 -139 -113.5t-187 -42.5z" />
    <glyph glyph-name="ccircumflex" unicode="&#x109;" horiz-adv-x="605" 
d="M259 627h-145l151 181h118l151 -181h-150l-62 86zM324 -12q-128 0 -210 80q-81 81 -81 207q0 127 82 206q83 81 212 81q86 0 155.5 -41t102.5 -115l-125 -67q-48 78 -130 78q-60 0 -101 -41q-40 -40 -40 -101q0 -63 39 -103q40 -40 100 -40q41 0 76.5 21.5t52.5 55.5
l127 -75q-36 -67 -105.5 -106.5t-154.5 -39.5z" />
    <glyph glyph-name="Cdotaccent" unicode="&#x10a;" horiz-adv-x="761" 
d="M418 793q-40 0 -67 26.5t-27 66.5t27 66.5t67 26.5q39 0 66 -26.5t27 -66.5t-27 -66.5t-66 -26.5zM418 -11q-162 0 -271 105q-109 106 -109 273q0 168 111 276q112 109 271 109q98 0 182 -40.5t135 -109.5l-108 -110q-84 101 -200 101q-92 0 -156 -64t-64 -161
q0 -95 63 -158t156 -63q120 0 205 102l111 -104q-52 -71 -139 -113.5t-187 -42.5z" />
    <glyph glyph-name="cdotaccent" unicode="&#x10b;" horiz-adv-x="605" 
d="M324 606q-40 0 -67 26.5t-27 66.5t27 66.5t67 26.5q39 0 66 -26.5t27 -66.5t-27 -66.5t-66 -26.5zM324 -12q-128 0 -210 80q-81 81 -81 207q0 127 82 206q83 81 212 81q86 0 155.5 -41t102.5 -115l-125 -67q-48 78 -130 78q-60 0 -101 -41q-40 -40 -40 -101
q0 -63 39 -103q40 -40 100 -40q41 0 76.5 21.5t52.5 55.5l127 -75q-36 -67 -105.5 -106.5t-154.5 -39.5z" />
    <glyph glyph-name="Ccaron" unicode="&#x10c;" horiz-adv-x="761" 
d="M364 795l-151 181h145l63 -86l62 86h150l-151 -181h-118zM418 -11q-162 0 -271 105q-109 106 -109 273q0 168 111 276q112 109 271 109q98 0 182 -40.5t135 -109.5l-108 -110q-84 101 -200 101q-92 0 -156 -64t-64 -161q0 -95 63 -158t156 -63q120 0 205 102l111 -104
q-52 -71 -139 -113.5t-187 -42.5z" />
    <glyph glyph-name="ccaron" unicode="&#x10d;" horiz-adv-x="605" 
d="M268 627l-151 181h145l63 -86l62 86h150l-151 -181h-118zM324 -12q-128 0 -210 80q-81 81 -81 207q0 127 82 206q83 81 212 81q86 0 155.5 -41t102.5 -115l-125 -67q-48 78 -130 78q-60 0 -101 -41q-40 -40 -40 -101q0 -63 39 -103q40 -40 100 -40q41 0 76.5 21.5
t52.5 55.5l127 -75q-36 -67 -105.5 -106.5t-154.5 -39.5z" />
    <glyph glyph-name="Dcaron" unicode="&#x10e;" horiz-adv-x="774" 
d="M295 795l-151 181h145l63 -86l62 86h150l-151 -181h-118zM368 0h-290v739h295q170 0 264 -100q96 -99 96 -270q0 -172 -97 -270q-98 -99 -268 -99zM243 580v-421h132q90 0 138 60q49 61 49 151q0 91 -49 150q-48 60 -138 60h-132z" />
    <glyph glyph-name="dcaron" unicode="&#x10f;" horiz-adv-x="708" 
d="M653 626l67 184h162l-96 -184h-133zM461 495v266h157v-761h-152v59q-64 -73 -163 -73q-115 0 -193 82q-77 83 -77 206q0 122 77 205q78 83 193 83q94 0 158 -67zM469 275q0 61 -40 102q-39 42 -100 42q-60 0 -101 -42q-39 -42 -39 -102q0 -62 39 -104q41 -42 101 -42
q61 0 100 42q40 41 40 104z" />
    <glyph glyph-name="Dcroat" unicode="&#x110;" horiz-adv-x="789" 
d="M92 739h295q170 0 264 -100q96 -99 96 -270q0 -172 -97 -270q-98 -99 -268 -99h-290v304h-75v132h75v303zM257 159h132q90 0 138 60q49 61 49 151q0 91 -49 150q-48 60 -138 60h-132v-144h184v-132h-184v-145z" />
    <glyph glyph-name="dslash" unicode="&#x111;" horiz-adv-x="678" 
d="M618 688h75v-95h-75v-593h-152v59q-64 -73 -163 -73q-115 0 -193 82q-77 83 -77 206q0 122 77 205q78 83 193 83q94 0 158 -67v98h-132v95h132v73h157v-73zM469 275q0 61 -40 102q-39 42 -100 42q-60 0 -101 -42q-39 -42 -39 -102q0 -62 39 -104q41 -42 101 -42
q61 0 100 42q40 41 40 104z" />
    <glyph glyph-name="Emacron" unicode="&#x112;" horiz-adv-x="647" 
d="M528 807l-378 -2v137h378v-135zM593 0h-515v739h516v-154h-350v-137h324v-153h-324v-141h349v-154z" />
    <glyph glyph-name="emacron" unicode="&#x113;" horiz-adv-x="632" 
d="M153 773h334v-135l-334 -2v137zM600 287q0 -24 -5 -66h-403q28 -103 149 -103q92 0 171 53l62 -107q-100 -76 -240 -76q-145 0 -223 83q-77 83 -77 204q0 123 80 205q79 82 209 82q120 0 199 -74q78 -74 78 -201zM323 435q-48 0 -83.5 -27t-48.5 -75h258q-11 48 -44.5 75
t-81.5 27z" />
    <glyph glyph-name="Ebreve" unicode="&#x114;" horiz-adv-x="647" 
d="M343 785q-88 0 -142 52t-60 143h127q2 -40 21.5 -63.5t53.5 -23.5q35 0 54.5 24t20.5 63h129q-6 -91 -60.5 -143t-143.5 -52zM593 0h-515v739h516v-154h-350v-137h324v-153h-324v-141h349v-154z" />
    <glyph glyph-name="ebreve" unicode="&#x115;" horiz-adv-x="632" 
d="M133 805h121q2 -37 20.5 -59.5t51.5 -22.5t51.5 22.5t19.5 59.5h123q-6 -87 -58 -136t-136 -49t-135.5 49t-57.5 136zM600 287q0 -24 -5 -66h-403q28 -103 149 -103q92 0 171 53l62 -107q-100 -76 -240 -76q-145 0 -223 83q-77 83 -77 204q0 123 80 205q79 82 209 82
q120 0 199 -74q78 -74 78 -201zM323 435q-48 0 -83.5 -27t-48.5 -75h258q-11 48 -44.5 75t-81.5 27z" />
    <glyph glyph-name="Edotaccent" unicode="&#x116;" horiz-adv-x="647" 
d="M339 793q-40 0 -67 26.5t-27 66.5t27 66.5t67 26.5q39 0 66 -26.5t27 -66.5t-27 -66.5t-66 -26.5zM593 0h-515v739h516v-154h-350v-137h324v-153h-324v-141h349v-154z" />
    <glyph glyph-name="edotaccent" unicode="&#x117;" horiz-adv-x="632" 
d="M329 609q-40 0 -67 26.5t-27 66.5t27 66.5t67 26.5q39 0 66 -26.5t27 -66.5t-27 -66.5t-66 -26.5zM600 287q0 -24 -5 -66h-403q28 -103 149 -103q92 0 171 53l62 -107q-100 -76 -240 -76q-145 0 -223 83q-77 83 -77 204q0 123 80 205q79 82 209 82q120 0 199 -74
q78 -74 78 -201zM323 435q-48 0 -83.5 -27t-48.5 -75h258q-11 48 -44.5 75t-81.5 27z" />
    <glyph glyph-name="Eogonek" unicode="&#x118;" horiz-adv-x="641" 
d="M578 -137l30 -98q-54 -30 -112 -30t-91 32t-33 84q0 85 96 149h-390v739h516v-154h-350v-137h324v-153h-324v-141h349v-154q-40 -18 -67 -49.5t-27 -60.5q0 -18 10.5 -28t26.5 -10q15 0 42 11z" />
    <glyph glyph-name="eogonek" unicode="&#x119;" horiz-adv-x="631" 
d="M599 287q0 -24 -5 -66h-403q28 -103 149 -103q92 0 171 53l62 -107q-51 -41 -124 -60q-38 -19 -64 -49.5t-26 -58.5q0 -18 10.5 -28t26.5 -10q15 0 42 11l30 -98q-54 -30 -112 -30t-91 32t-33 84q0 74 73 132q-131 9 -202 90q-70 82 -70 196q0 123 80 205q79 82 209 82
q120 0 199 -74q78 -74 78 -201zM322 435q-48 0 -83.5 -27t-48.5 -75h258q-11 48 -44.5 75t-81.5 27z" />
    <glyph glyph-name="Ecaron" unicode="&#x11a;" horiz-adv-x="647" 
d="M284 795l-151 181h145l63 -86l62 86h150l-151 -181h-118zM593 0h-515v739h516v-154h-350v-137h324v-153h-324v-141h349v-154z" />
    <glyph glyph-name="ecaron" unicode="&#x11b;" horiz-adv-x="632" 
d="M535 807l-151 -181h-118l-151 181h145l63 -86l62 86h150zM600 287q0 -24 -5 -66h-403q28 -103 149 -103q92 0 171 53l62 -107q-100 -76 -240 -76q-145 0 -223 83q-77 83 -77 204q0 123 80 205q79 82 209 82q120 0 199 -74q78 -74 78 -201zM323 435q-48 0 -83.5 -27
t-48.5 -75h258q-11 48 -44.5 75t-81.5 27z" />
    <glyph glyph-name="Gcircumflex" unicode="&#x11c;" horiz-adv-x="809" 
d="M366 796h-153l159 190h124l159 -190h-158l-65 90zM426 -11q-169 0 -279 107q-109 108 -109 273q0 167 113 275t280 108q87 0 165 -31.5t130 -83.5l-106 -120q-80 76 -190 76q-97 0 -160 -64q-63 -63 -63 -158q0 -94 62 -159t160 -65q53 0 102.5 19.5t81.5 50.5v85h-188
v142h338v-311q-144 -144 -337 -144z" />
    <glyph glyph-name="gcircumflex" unicode="&#x11d;" horiz-adv-x="678" 
d="M389 626l-62 86l-63 -86h-145l151 181h118l151 -181h-150zM475 494v54h143v-494q0 -133 -87 -209q-86 -78 -220 -78q-144 0 -256 82l60 116q94 -64 190 -64q76 0 119.5 39.5t43.5 101.5v21q-61 -64 -162 -64q-121 0 -197 79t-76 201q0 124 80 204q79 79 199 79
q98 0 163 -68zM470 278q0 61 -39.5 100.5t-99.5 39.5t-100 -40q-40 -39 -40 -100q0 -62 40 -102q41 -41 100 -41q60 0 99 40q40 40 40 103z" />
    <glyph glyph-name="Gbreve" unicode="&#x11e;" horiz-adv-x="809" 
d="M426 788q-88 0 -142 52t-60 143h127q2 -40 21.5 -63.5t53.5 -23.5q35 0 54.5 24t20.5 63h129q-6 -91 -60.5 -143t-143.5 -52zM426 -11q-169 0 -279 107q-109 108 -109 273q0 167 113 275t280 108q87 0 165 -31.5t130 -83.5l-106 -120q-80 76 -190 76q-97 0 -160 -64
q-63 -63 -63 -158q0 -94 62 -159t160 -65q53 0 102.5 19.5t81.5 50.5v85h-188v142h338v-311q-144 -144 -337 -144z" />
    <glyph glyph-name="gbreve" unicode="&#x11f;" horiz-adv-x="678" 
d="M131 806h121q2 -37 20.5 -59.5t51.5 -22.5t51.5 22.5t19.5 59.5h123q-6 -87 -58 -136t-136 -49t-135.5 49t-57.5 136zM475 494v54h143v-494q0 -133 -87 -209q-86 -78 -220 -78q-144 0 -256 82l60 116q94 -64 190 -64q76 0 119.5 39.5t43.5 101.5v21q-61 -64 -162 -64
q-121 0 -197 79t-76 201q0 124 80 204q79 79 199 79q98 0 163 -68zM470 278q0 61 -39.5 100.5t-99.5 39.5t-100 -40q-40 -39 -40 -100q0 -62 40 -102q41 -41 100 -41q60 0 99 40q40 40 40 103z" />
    <glyph glyph-name="Gdotaccent" unicode="&#x120;" horiz-adv-x="809" 
d="M430 791q-40 0 -67 26.5t-27 66.5t27 66.5t67 26.5q39 0 66 -26.5t27 -66.5t-27 -66.5t-66 -26.5zM426 -11q-169 0 -279 107q-109 108 -109 273q0 167 113 275t280 108q87 0 165 -31.5t130 -83.5l-106 -120q-80 76 -190 76q-97 0 -160 -64q-63 -63 -63 -158
q0 -94 62 -159t160 -65q53 0 102.5 19.5t81.5 50.5v85h-188v142h338v-311q-144 -144 -337 -144z" />
    <glyph glyph-name="gdotaccent" unicode="&#x121;" horiz-adv-x="678" 
d="M328 608q-40 0 -67 26.5t-27 66.5t27 66.5t67 26.5q39 0 66 -26.5t27 -66.5t-27 -66.5t-66 -26.5zM475 494v54h143v-494q0 -133 -87 -209q-86 -78 -220 -78q-144 0 -256 82l60 116q94 -64 190 -64q76 0 119.5 39.5t43.5 101.5v21q-61 -64 -162 -64q-121 0 -197 79
t-76 201q0 124 80 204q79 79 199 79q98 0 163 -68zM470 278q0 61 -39.5 100.5t-99.5 39.5t-100 -40q-40 -39 -40 -100q0 -62 40 -102q41 -41 100 -41q60 0 99 40q40 40 40 103z" />
    <glyph glyph-name="Gcommaaccent" unicode="&#x122;" horiz-adv-x="809" 
d="M425 302v142h338v-311q-144 -144 -337 -144q-169 0 -279 107q-109 108 -109 273q0 167 113 275t280 108q87 0 165 -31.5t130 -83.5l-106 -120q-80 76 -190 76q-97 0 -160 -64q-63 -63 -63 -158q0 -94 62 -159t160 -65q53 0 102.5 19.5t81.5 50.5v85h-188zM426 -40
q41 0 68.5 -27.5t27.5 -70.5q0 -49 -37 -95.5t-119 -105.5l-55 69q53 39 81 66q-24 8 -39.5 29.5t-15.5 48.5q0 36 25.5 61t63.5 25z" />
    <glyph glyph-name="gcommaaccent" unicode="&#x123;" horiz-adv-x="678" 
d="M326 601q-39 0 -66 26.5t-27 68.5q0 47 35.5 91.5t116.5 103.5l53 -67q-55 -41 -78 -64q24 -8 38.5 -29t14.5 -47q0 -34 -25.5 -58.5t-61.5 -24.5zM475 494v54h143v-494q0 -133 -87 -209q-86 -78 -220 -78q-144 0 -256 82l60 116q94 -64 190 -64q76 0 119.5 39.5
t43.5 101.5v21q-61 -64 -162 -64q-121 0 -197 79t-76 201q0 124 80 204q79 79 199 79q98 0 163 -68zM470 278q0 61 -39.5 100.5t-99.5 39.5t-100 -40q-40 -39 -40 -100q0 -62 40 -102q41 -41 100 -41q60 0 99 40q40 40 40 103z" />
    <glyph glyph-name="Hcircumflex" unicode="&#x124;" horiz-adv-x="775" 
d="M321 794h-153l159 190h124l159 -190h-158l-65 90zM243 0h-165v739h165v-289h288v289h166v-739h-166v291h-288v-291z" />
    <glyph glyph-name="hcircumflex" unicode="&#x125;" horiz-adv-x="653" 
d="M71 799h-153l159 190h124l159 -190h-158l-65 90zM219 0h-157v761h153v-286q23 38 69 63t104 25q88 0 150 -59t62 -169v-335h-157v294q0 59 -28.5 92t-77.5 33q-53 0 -85.5 -35.5t-32.5 -93.5v-290z" />
    <glyph glyph-name="Hbar" unicode="&#x126;" horiz-adv-x="804" 
d="M708 645h77v-108h-77v-537h-166v291h-288v-291h-165v537h-75v108h75v94h165v-94h288v94h166v-94zM254 450h288v87h-288v-87z" />
    <glyph glyph-name="hbar" unicode="&#x127;" horiz-adv-x="653" 
d="M388 563q88 0 150 -59t62 -169v-335h-157v294q0 59 -28.5 92t-77.5 33q-53 0 -85.5 -35.5t-32.5 -93.5v-290h-157v593h-66v95h66v73h153v-73h145v-95h-145v-118q23 38 69 63t104 25z" />
    <glyph glyph-name="Itilde" unicode="&#x128;" horiz-adv-x="322" 
d="M34 794l-102 51q31 64 68 94.5t90 30.5q34 0 77 -23q43 -22 60 -22t30 11t31 40l102 -49q-50 -125 -147 -125q-32 0 -76 22q-46 23 -65 23q-38 0 -68 -53zM79 0v739h166v-739h-166z" />
    <glyph glyph-name="itilde" unicode="&#x129;" horiz-adv-x="278" 
d="M19 620l-99 49q30 62 66 91.5t87 29.5q34 0 75 -22q42 -21 58 -21q17 0 30 11t29 38l99 -47q-48 -122 -142 -122q-32 0 -75 22t-62 22q-37 0 -66 -51zM220 548v-548h-157v548h157z" />
    <glyph glyph-name="Imacron" unicode="&#x12a;" horiz-adv-x="322" 
d="M352 816l-378 -2v137h378v-135zM79 0v739h166v-739h-166z" />
    <glyph glyph-name="imacron" unicode="&#x12b;" horiz-adv-x="278" 
d="M310 639l-334 -2v137h334v-135zM220 548v-548h-157v548h157z" />
    <glyph glyph-name="Ibreve" unicode="&#x12c;" horiz-adv-x="322" 
d="M161 788q-88 0 -142 52t-60 143h127q2 -40 21.5 -63.5t53.5 -23.5q35 0 54.5 24t20.5 63h129q-6 -91 -60.5 -143t-143.5 -52zM79 0v739h166v-739h-166z" />
    <glyph glyph-name="ibreve" unicode="&#x12d;" horiz-adv-x="278" 
d="M-52 808h121q2 -37 20.5 -59.5t51.5 -22.5t51.5 22.5t19.5 59.5h123q-6 -87 -58 -136t-136 -49t-135.5 49t-57.5 136zM220 548v-548h-157v548h157z" />
    <glyph glyph-name="Iogonek" unicode="&#x12e;" horiz-adv-x="322" 
d="M230 -137l30 -98q-54 -30 -112 -30t-91 32t-33 84q0 85 96 149h-41v739h166v-739q-40 -18 -67 -49.5t-27 -60.5q0 -18 10.5 -28t26.5 -10q15 0 42 11z" />
    <glyph glyph-name="iogonek" unicode="&#x12f;" horiz-adv-x="278" 
d="M143 604q-40 0 -67 26.5t-27 66.5t27 66.5t67 26.5q39 0 66 -26.5t27 -66.5t-27 -66.5t-66 -26.5zM164 -148q15 0 42 11l30 -98q-54 -30 -112 -30t-91 32t-33 84q0 85 96 149h-33v548h157v-548h1q-40 -18 -67 -49.5t-27 -60.5q0 -18 10.5 -28t26.5 -10z" />
    <glyph glyph-name="Idot" unicode="&#x130;" horiz-adv-x="322" 
d="M159 790q-40 0 -67 26.5t-27 66.5t27 66.5t67 26.5q39 0 66 -26.5t27 -66.5t-27 -66.5t-66 -26.5zM76 0v739h166v-739h-166z" />
    <glyph glyph-name="dotlessi" unicode="&#x131;" horiz-adv-x="278" 
d="M217 548v-548h-157v548h157z" />
    <glyph glyph-name="IJ" unicode="&#x132;" horiz-adv-x="910" 
d="M78 0v739h166v-739h-166zM556 -12q-141 0 -234 90l76 131q65 -62 144 -62q64 0 101 40t37 109v443h165v-449q0 -152 -82 -227q-81 -75 -207 -75z" />
    <glyph glyph-name="ij" unicode="&#x133;" horiz-adv-x="597" 
d="M143 604q-40 0 -67 26.5t-27 66.5t27 66.5t67 26.5q39 0 66 -26.5t27 -66.5t-27 -66.5t-66 -26.5zM427 604q-40 0 -67 26.5t-27 66.5t27 66.5t67 26.5q39 0 66 -26.5t27 -66.5t-27 -66.5t-66 -26.5zM220 548v-548h-157v548h157zM285 -234q-89 0 -135 31l30 123
q41 -16 78 -16q90 0 90 106v538h157v-550q0 -113 -59.5 -172.5t-160.5 -59.5z" />
    <glyph glyph-name="Jcircumflex" unicode="&#x134;" horiz-adv-x="589" 
d="M373 794h-153l159 190h124l159 -190h-158l-65 90zM235 -12q-141 0 -234 90l76 131q65 -62 144 -62q64 0 101 40t37 109v443h165v-449q0 -152 -82 -227q-81 -75 -207 -75z" />
    <glyph glyph-name="jcircumflex" unicode="&#x135;" horiz-adv-x="302" 
d="M97 627h-145l151 181h118l151 -181h-150l-62 86zM21 -234q-89 0 -135 31l30 123q41 -16 78 -16q90 0 90 106v538h157v-550q0 -113 -59.5 -172.5t-160.5 -59.5z" />
    <glyph glyph-name="Kcommaaccent" unicode="&#x136;" horiz-adv-x="706" 
d="M702 739l-264 -332l281 -407h-203l-186 281l-87 -105v-176h-165v739h165v-330l259 330h200zM371 -31q41 0 68.5 -27.5t27.5 -70.5q0 -49 -37 -95.5t-119 -105.5l-55 69q52 39 81 66q-24 8 -39.5 29.5t-15.5 48.5q0 36 25.5 61t63.5 25z" />
    <glyph glyph-name="kcommaaccent" unicode="&#x137;" horiz-adv-x="597" 
d="M595 548l-240 -223l256 -325h-190l-173 227l-31 -29v-198h-157v761h157v-388l184 175h194zM312 -15q39 0 66 -26.5t27 -68.5q0 -47 -35.5 -91.5t-116.5 -103.5l-53 67q55 41 78 64q-24 8 -38.5 29t-14.5 47q0 34 25.5 58.5t61.5 24.5z" />
    <glyph glyph-name="kgreenlandic" unicode="&#x138;" horiz-adv-x="584" 
d="M594 0h-183l-160 214l-39 -39v-175h-152v548h152v-193l191 193h185l-235 -233z" />
    <glyph glyph-name="Lacute" unicode="&#x139;" horiz-adv-x="626" 
d="M237 794h-147l65 188h180zM612 0h-534v739h166v-581h368v-158z" />
    <glyph glyph-name="lacute" unicode="&#x13a;" horiz-adv-x="274" 
d="M211 796h-147l65 188h180zM217 761v-761h-157v761h157z" />
    <glyph glyph-name="Lcommaaccent" unicode="&#x13b;" horiz-adv-x="626" 
d="M244 739v-581h368v-158h-534v739h166zM352 -32q41 0 68.5 -27.5t27.5 -70.5q0 -49 -37 -95.5t-119 -105.5l-55 69q53 39 81 66q-24 8 -39.5 29.5t-15.5 48.5q0 36 25.5 61t63.5 25z" />
    <glyph glyph-name="lcommaaccent" unicode="&#x13c;" horiz-adv-x="277" 
d="M63 761h157v-761h-157v761zM136 -41q39 0 66 -26.5t27 -68.5q0 -47 -35.5 -91.5t-116.5 -103.5l-53 67q55 41 78 64q-24 8 -38.5 29t-14.5 47q0 34 25.5 58.5t61.5 24.5z" />
    <glyph glyph-name="Lcaron" unicode="&#x13d;" horiz-adv-x="631" 
d="M517 626h-133l67 184h162zM612 0h-534v739h166v-581h368v-158z" />
    <glyph glyph-name="lcaron" unicode="&#x13e;" horiz-adv-x="304" 
d="M375 625h-133l67 184h162zM217 761v-761h-157v761h157z" />
    <glyph glyph-name="Ldot" unicode="&#x13f;" horiz-adv-x="628" 
d="M612 0h-534v739h166v-581h368v-158zM476 328q-38 0 -63.5 25t-25.5 63q0 37 25.5 62t63.5 25q36 0 61 -25.5t25 -61.5q0 -38 -25 -63t-61 -25z" />
    <glyph glyph-name="ldot" unicode="&#x140;" horiz-adv-x="432" 
d="M217 761v-761h-157v761h157zM356 279q-38 0 -63.5 25t-25.5 63q0 37 25.5 62t63.5 25q36 0 61 -25t25 -62q0 -38 -25 -63t-61 -25z" />
    <glyph glyph-name="Lslash" unicode="&#x141;" horiz-adv-x="641" 
d="M259 349v-191h368v-158h-534v247l-68 -42v145l68 42v347h166v-243l103 64v-147z" />
    <glyph glyph-name="lslash" unicode="&#x142;" horiz-adv-x="359" 
d="M258 519l70 51v-150l-70 -51v-369h-157v255l-63 -46v150l63 46v356h157v-242z" />
    <glyph glyph-name="Nacute" unicode="&#x143;" horiz-adv-x="799" 
d="M464 794h-147l65 188h180zM559 307v432h162v-739h-119l-361 428v-428h-163v739h112z" />
    <glyph glyph-name="nacute" unicode="&#x144;" horiz-adv-x="652" 
d="M395 628h-140l62 179h172zM217 0h-157v548h153v-76q22 40 68.5 65.5t104.5 25.5q89 0 151 -59t62 -169v-335h-157v294q0 59 -29 92t-78 33q-53 0 -85.5 -35.5t-32.5 -93.5v-290z" />
    <glyph glyph-name="Ncommaaccent" unicode="&#x145;" horiz-adv-x="799" 
d="M559 307v432h162v-739h-119l-361 428v-428h-163v739h112zM410 -21q41 0 68.5 -27.5t27.5 -70.5q0 -49 -37 -95.5t-119 -105.5l-55 69q53 39 81 66q-24 8 -39.5 29.5t-15.5 48.5q0 36 25.5 61t63.5 25z" />
    <glyph glyph-name="ncommaaccent" unicode="&#x146;" horiz-adv-x="652" 
d="M386 563q89 0 151 -59t62 -169v-335h-157v294q0 59 -29 92t-78 33q-53 0 -85.5 -35.5t-32.5 -93.5v-290h-157v548h153v-76q22 40 68.5 65.5t104.5 25.5zM331 -25q39 0 66 -26.5t27 -68.5q0 -47 -35.5 -91.5t-116.5 -103.5l-53 67q55 41 78 64q-24 8 -38.5 29t-14.5 47
q0 34 25.5 58.5t61.5 24.5z" />
    <glyph glyph-name="Ncaron" unicode="&#x147;" horiz-adv-x="799" 
d="M347 795l-151 181h145l63 -86l62 86h150l-151 -181h-118zM559 307v432h162v-739h-119l-361 428v-428h-163v739h112z" />
    <glyph glyph-name="ncaron" unicode="&#x148;" horiz-adv-x="652" 
d="M274 625l-151 181h145l63 -86l62 86h150l-151 -181h-118zM217 0h-157v548h153v-76q22 40 68.5 65.5t104.5 25.5q89 0 151 -59t62 -169v-335h-157v294q0 59 -29 92t-78 33q-53 0 -85.5 -35.5t-32.5 -93.5v-290z" />
    <glyph glyph-name="napostrophe" unicode="&#x149;" horiz-adv-x="718" 
d="M89 626h-133l67 184h162zM282 0h-157v548h153v-76q22 40 68.5 65.5t104.5 25.5q89 0 151 -59t62 -169v-335h-157v294q0 59 -29 92t-78 33q-53 0 -85.5 -35.5t-32.5 -93.5v-290z" />
    <glyph glyph-name="Eng" unicode="&#x14a;" horiz-adv-x="799" 
d="M559 301v438h162v-688q0 -152 -79 -227q-80 -75 -201 -75q-75 0 -150 32l39 148q45 -24 101 -24q58 0 93.5 35.5t35.5 98.5v7l-319 382v-428h-163v739h112z" />
    <glyph glyph-name="eng" unicode="&#x14b;" horiz-adv-x="652" 
d="M319 -229l2 138q62 -5 91 17t29 81v290q0 57 -28 89.5t-77 32.5q-53 0 -86 -35.5t-33 -93.5v-290h-157v548h153v-73q23 38 69 63t104 25q88 0 150 -59t62 -169v-332q0 -71 -22.5 -121.5t-62.5 -75.5t-88.5 -33.5t-105.5 -1.5z" />
    <glyph glyph-name="Omacron" unicode="&#x14c;" 
d="M612 809l-378 -2v137h378v-135zM37 368q0 161 111 272q112 112 275 112t274 -112q112 -111 112 -271t-111 -271q-112 -110 -276 -110q-165 0 -275 110t-110 270zM423 151q91 0 153 62q62 64 61 156q-2 96 -63 157q-62 63 -151 63q-91 0 -152 -63q-62 -64 -62 -157
q0 -92 62 -156q62 -62 152 -62z" />
    <glyph glyph-name="omacron" unicode="&#x14d;" horiz-adv-x="657" 
d="M497 637l-334 -2v137h334v-135zM328 -15q-130 0 -213 83q-82 83 -82 206t82 205q83 84 213 84q132 0 214 -84q83 -83 83 -205q0 -121 -83 -206q-83 -83 -214 -83zM468 275q0 59 -41 100q-41 42 -99 42t-99 -42q-40 -40 -40 -100q0 -62 40 -103q41 -41 99 -41t99 41
q41 43 41 103z" />
    <glyph glyph-name="Obreve" unicode="&#x14e;" 
d="M427 785q-88 0 -142 52t-60 143h127q2 -40 21.5 -63.5t53.5 -23.5q35 0 54.5 24t20.5 63h129q-6 -91 -60.5 -143t-143.5 -52zM37 368q0 161 111 272q112 112 275 112t274 -112q112 -111 112 -271t-111 -271q-112 -110 -276 -110q-165 0 -275 110t-110 270zM423 151
q91 0 153 62q62 64 61 156q-2 96 -63 157q-62 63 -151 63q-91 0 -152 -63q-62 -64 -62 -157q0 -92 62 -156q62 -62 152 -62z" />
    <glyph glyph-name="obreve" unicode="&#x14f;" horiz-adv-x="657" 
d="M134 808h121q2 -37 20.5 -59.5t51.5 -22.5t51.5 22.5t19.5 59.5h123q-6 -87 -58 -136t-136 -49t-135.5 49t-57.5 136zM328 -15q-130 0 -213 83q-82 83 -82 206t82 205q83 84 213 84q132 0 214 -84q83 -83 83 -205q0 -121 -83 -206q-83 -83 -214 -83zM468 275
q0 59 -41 100q-41 42 -99 42t-99 -42q-40 -40 -40 -100q0 -62 40 -103q41 -41 99 -41t99 41q41 43 41 103z" />
    <glyph glyph-name="Ohungarumlaut" unicode="&#x150;" 
d="M382 795h-135l45 188h171zM603 795h-141l65 188h177zM37 368q0 161 111 272q112 112 275 112t274 -112q112 -111 112 -271t-111 -271q-112 -110 -276 -110q-165 0 -275 110t-110 270zM423 151q91 0 153 62q62 64 61 156q-2 96 -63 157q-62 63 -151 63q-91 0 -152 -63
q-62 -64 -62 -157q0 -92 62 -156q62 -62 152 -62z" />
    <glyph glyph-name="ohungarumlaut" unicode="&#x151;" horiz-adv-x="657" 
d="M291 627h-129l43 179h163zM501 627h-134l62 179h168zM328 -15q-130 0 -213 83q-82 83 -82 206t82 205q83 84 213 84q132 0 214 -84q83 -83 83 -205q0 -121 -83 -206q-83 -83 -214 -83zM468 275q0 59 -41 100q-41 42 -99 42t-99 -42q-40 -40 -40 -100q0 -62 40 -103
q41 -41 99 -41t99 41q41 43 41 103z" />
    <glyph glyph-name="OE" unicode="&#x152;" horiz-adv-x="1042" 
d="M990 739v-154h-350v-137h324v-153h-324v-141h349v-154h-508q-31 -3 -60 -3q-187 0 -285 102q-96 103 -96 270q0 166 95 270q96 103 281 103q30 0 60 -3h514zM473 159v421q-20 4 -49 4q-109 0 -160.5 -62.5t-51.5 -151.5t51 -152t161 -63q29 0 49 4z" />
    <glyph glyph-name="oe" unicode="&#x153;" horiz-adv-x="1064" 
d="M1032 287q0 -24 -5 -66h-403q28 -103 149 -103q92 0 171 53l62 -107q-100 -76 -240 -76q-146 0 -226 87q-84 -87 -215 -87q-128 0 -211 83q-81 83 -81 204t81 203q83 83 211 83q130 0 214 -87q82 88 216 88q120 0 199 -74q78 -74 78 -201zM755 435q-48 0 -83.5 -27
t-48.5 -75h258q-11 48 -44.5 75t-81.5 27zM464 276q0 59 -41 100t-98 41q-58 0 -99 -41q-40 -40 -40 -100q0 -62 40 -103q41 -41 99 -41t99 41q40 41 40 103z" />
    <glyph glyph-name="Racute" unicode="&#x154;" horiz-adv-x="686" 
d="M296 982h180l-98 -188h-147zM661 0h-192l-145 258h-81v-258h-165v739h294q126 0 194 -69q67 -67 67 -170q0 -74 -36.5 -132t-106.5 -87zM371 587h-128v-183h117q50 0 76.5 26t26.5 67q0 39 -24.5 64.5t-67.5 25.5z" />
    <glyph glyph-name="racute" unicode="&#x155;" horiz-adv-x="444" 
d="M306 628h-140l62 179h172zM217 0h-157v548h150v-71q53 86 149 86q32 0 68 -13l-13 -150q-34 12 -69 12q-60 0 -94 -40.5t-34 -121.5v-250z" />
    <glyph glyph-name="Rcommaaccent" unicode="&#x156;" horiz-adv-x="686" 
d="M490 281l171 -281h-192l-145 258h-81v-258h-165v739h294q126 0 194 -69q67 -67 67 -170q0 -74 -36.5 -132t-106.5 -87zM371 587h-128v-183h117q50 0 76.5 26t26.5 67q0 39 -24.5 64.5t-67.5 25.5zM349 -24q41 0 68.5 -27.5t27.5 -70.5q0 -49 -37 -95.5t-119 -105.5
l-55 69q52 39 81 66q-24 8 -39.5 29.5t-15.5 48.5q0 36 25.5 61t63.5 25z" />
    <glyph glyph-name="rcommaaccent" unicode="&#x157;" horiz-adv-x="446" 
d="M361 563q32 0 68 -13l-13 -150q-34 12 -69 12q-60 0 -94 -40.5t-34 -121.5v-250h-157v548h150v-71q53 86 149 86zM137 -33q39 0 66 -26.5t27 -68.5q0 -47 -35.5 -91.5t-116.5 -103.5l-53 67q55 41 78 64q-24 8 -38.5 29t-14.5 47q0 34 25.5 58.5t61.5 24.5z" />
    <glyph glyph-name="Rcaron" unicode="&#x158;" horiz-adv-x="686" 
d="M536 976l-151 -181h-118l-151 181h145l63 -86l62 86h150zM661 0h-192l-145 258h-81v-258h-165v739h294q126 0 194 -69q67 -67 67 -170q0 -74 -36.5 -132t-106.5 -87zM371 587h-128v-183h117q50 0 76.5 26t26.5 67q0 39 -24.5 64.5t-67.5 25.5z" />
    <glyph glyph-name="rcaron" unicode="&#x159;" horiz-adv-x="444" 
d="M190 627l-151 181h145l63 -86l62 86h150l-151 -181h-118zM219 0h-157v548h150v-71q53 86 149 86q32 0 68 -13l-13 -150q-34 12 -69 12q-60 0 -94 -40.5t-34 -121.5v-250z" />
    <glyph glyph-name="Sacute" unicode="&#x15a;" horiz-adv-x="610" 
d="M379 792h-147l65 188h180zM306 -13q-88 0 -163.5 34.5t-126.5 99.5l90 118q83 -98 201 -98q43 0 70 18.5t27 48.5q0 41 -64 69l-66 24q-61 23 -95 41q-119 65 -119 187q0 96 73 159t190 63q147 0 251 -98l-82 -123q-32 30 -78.5 48t-88.5 18q-41 0 -64.5 -16.5
t-23.5 -44.5q0 -38 60 -65l72 -29q67 -26 85 -35q133 -60 133 -188q0 -101 -78 -166q-77 -65 -203 -65z" />
    <glyph glyph-name="sacute" unicode="&#x15b;" horiz-adv-x="503" 
d="M326 628h-140l62 179h172zM254 -15q-145 0 -234 101l77 102q71 -72 157 -72q30 0 48.5 12t18.5 32q0 24 -34 40q-11 5 -65 24q-58 22 -71 28q-98 47 -98 145q0 76 58 122q59 47 156 47q119 0 198 -76l-73 -102q-62 51 -128 51q-26 0 -41.5 -11t-15.5 -28q0 -30 49 -46
q92 -30 130 -50q93 -50 93 -140q0 -77 -62 -128q-61 -51 -163 -51z" />
    <glyph glyph-name="Scircumflex" unicode="&#x15c;" horiz-adv-x="610" 
d="M257 792h-153l159 190h124l159 -190h-158l-65 90zM306 -13q-88 0 -163.5 34.5t-126.5 99.5l90 118q83 -98 201 -98q43 0 70 18.5t27 48.5q0 41 -64 69l-66 24q-61 23 -95 41q-119 65 -119 187q0 96 73 159t190 63q147 0 251 -98l-82 -123q-32 30 -78.5 48t-88.5 18
q-41 0 -64.5 -16.5t-23.5 -44.5q0 -38 60 -65l72 -29q67 -26 85 -35q133 -60 133 -188q0 -101 -78 -166q-77 -65 -203 -65z" />
    <glyph glyph-name="scircumflex" unicode="&#x15d;" horiz-adv-x="500" 
d="M195 627h-145l151 181h118l151 -181h-150l-62 86zM254 -15q-145 0 -234 101l77 102q71 -72 157 -72q30 0 48.5 12t18.5 32q0 24 -34 40q-11 5 -65 24q-58 22 -71 28q-98 47 -98 145q0 76 58 122q59 47 156 47q119 0 198 -76l-73 -102q-62 51 -128 51q-26 0 -41.5 -11
t-15.5 -28q0 -30 49 -46q92 -30 130 -50q93 -50 93 -140q0 -77 -62 -128q-61 -51 -163 -51z" />
    <glyph glyph-name="Scedilla" unicode="&#x15e;" horiz-adv-x="610" 
d="M587 218q0 -91 -64 -154q-64 -62 -170 -74l-15 -38q46 -3 76.5 -31.5t30.5 -71.5q0 -52 -41 -87.5t-111 -35.5q-61 0 -127 31l32 88q44 -21 81 -21q24 0 37.5 10t13.5 26q0 33 -57 33h-53l-8 29l28 70q-142 24 -224 129l90 118q83 -98 201 -98q43 0 70 18.5t27 48.5
q0 41 -64 69l-66 24q-61 23 -95 41q-119 65 -119 187q0 96 73 159t190 63q147 0 251 -98l-82 -123q-32 30 -78.5 48t-88.5 18q-41 0 -64.5 -16.5t-23.5 -44.5q0 -38 60 -65l72 -29q67 -26 85 -35q133 -60 133 -188z" />
    <glyph glyph-name="scedilla" unicode="&#x15f;" horiz-adv-x="503" 
d="M479 164q0 -72 -52 -120.5t-141 -57.5l-13 -32q46 -3 76.5 -31.5t30.5 -71.5q0 -52 -41 -87.5t-111 -35.5q-61 0 -127 31l32 88q43 -21 81 -21q24 0 37.5 10t13.5 26q0 33 -57 33h-53l-8 29l28 70q-93 23 -155 92l77 102q71 -72 157 -72q30 0 48.5 12t18.5 32
q0 24 -34 40q-11 5 -65 24q-58 22 -71 28q-98 47 -98 145q0 76 58 122q59 47 156 47q119 0 198 -76l-73 -102q-62 51 -128 51q-26 0 -41.5 -11t-15.5 -28q0 -30 49 -46q92 -30 130 -50q93 -50 93 -140z" />
    <glyph glyph-name="Scaron" unicode="&#x160;" horiz-adv-x="610" 
d="M268 794l-151 181h145l63 -86l62 86h150l-151 -181h-118zM306 -13q-88 0 -163.5 34.5t-126.5 99.5l90 118q83 -98 201 -98q43 0 70 18.5t27 48.5q0 41 -64 69l-66 24q-61 23 -95 41q-119 65 -119 187q0 96 73 159t190 63q147 0 251 -98l-82 -123q-32 30 -78.5 48
t-88.5 18q-41 0 -64.5 -16.5t-23.5 -44.5q0 -38 60 -65l72 -29q67 -26 85 -35q133 -60 133 -188q0 -101 -78 -166q-77 -65 -203 -65z" />
    <glyph glyph-name="scaron" unicode="&#x161;" horiz-adv-x="500" 
d="M202 626l-151 181h145l63 -86l62 86h150l-151 -181h-118zM254 -15q-145 0 -234 101l77 102q71 -72 157 -72q30 0 48.5 12t18.5 32q0 24 -34 40q-11 5 -65 24q-58 22 -71 28q-98 47 -98 145q0 76 58 122q59 47 156 47q119 0 198 -76l-73 -102q-62 51 -128 51
q-26 0 -41.5 -11t-15.5 -28q0 -30 49 -46q92 -30 130 -50q93 -50 93 -140q0 -77 -62 -128q-61 -51 -163 -51z" />
    <glyph glyph-name="Tcaron" unicode="&#x164;" horiz-adv-x="611" 
d="M250 795l-151 181h145l63 -86l62 86h150l-151 -181h-118zM223 0v580h-209v159h583v-159h-208v-580h-166z" />
    <glyph glyph-name="tcaron" unicode="&#x165;" horiz-adv-x="467" 
d="M347 624l67 184h162l-96 -184h-133zM336 129q38 0 90 27l44 -125q-70 -45 -168 -45q-196 0 -196 221v211h-87v130h88v194h156v-194h176v-130h-176v-196q0 -93 73 -93z" />
    <glyph glyph-name="Tbar" unicode="&#x166;" horiz-adv-x="628" 
d="M605 739v-159h-208v-142h129v-132h-129v-306h-166v306h-129v132h129v142h-209v159h583z" />
    <glyph glyph-name="tbar" unicode="&#x167;" horiz-adv-x="479" 
d="M430 156l44 -125q-70 -45 -168 -45q-196 0 -196 221v37h-86v102h86v72h-87v130h88v194h156v-194h176v-130h-176v-72h170v-102h-170v-22q0 -93 73 -93q38 0 90 27z" />
    <glyph glyph-name="Utilde" unicode="&#x168;" horiz-adv-x="731" 
d="M241 789l-102 51q31 64 68 94.5t90 30.5q34 0 78 -23q43 -22 59 -22q17 0 30 11t31 40l102 -49q-50 -125 -147 -125q-33 0 -77 22q-46 23 -64 23q-38 0 -68 -53zM366 -13q-126 0 -211 73t-85 218v461h166v-454q0 -68 34.5 -103t95.5 -35q59 0 94 35.5t35 102.5v454h166
v-461q0 -144 -84 -218q-83 -73 -211 -73z" />
    <glyph glyph-name="utilde" unicode="&#x169;" horiz-adv-x="620" 
d="M186 620l-99 49q30 62 66 91.5t87 29.5q34 0 75 -22q42 -21 58 -21q17 0 30 11t29 38l99 -47q-48 -122 -142 -122q-32 0 -75 22t-62 22q-38 0 -66 -51zM310 -14q-120 0 -188.5 66t-68.5 183v313h157v-314q0 -48 26.5 -76t73.5 -28t73.5 28t26.5 76v314h157v-313
q0 -119 -68 -184t-189 -65z" />
    <glyph glyph-name="Umacron" unicode="&#x16a;" horiz-adv-x="731" 
d="M556 812l-378 -2v137h378v-135zM366 -13q-126 0 -211 73t-85 218v461h166v-454q0 -68 34.5 -103t95.5 -35q59 0 94 35.5t35 102.5v454h166v-461q0 -144 -84 -218q-83 -73 -211 -73z" />
    <glyph glyph-name="umacron" unicode="&#x16b;" horiz-adv-x="620" 
d="M477 639l-334 -2v137h334v-135zM310 -14q-120 0 -188.5 66t-68.5 183v313h157v-314q0 -48 26.5 -76t73.5 -28t73.5 28t26.5 76v314h157v-313q0 -119 -68 -184t-189 -65z" />
    <glyph glyph-name="Ubreve" unicode="&#x16c;" horiz-adv-x="731" 
d="M366 785q-88 0 -142 52t-60 143h127q2 -40 21.5 -63.5t53.5 -23.5q35 0 54.5 24t20.5 63h129q-6 -91 -60.5 -143t-143.5 -52zM366 -13q-126 0 -211 73t-85 218v461h166v-454q0 -68 34.5 -103t95.5 -35q59 0 94 35.5t35 102.5v454h166v-461q0 -144 -84 -218
q-83 -73 -211 -73z" />
    <glyph glyph-name="ubreve" unicode="&#x16d;" horiz-adv-x="620" 
d="M117 806h121q2 -37 20.5 -59.5t51.5 -22.5t51.5 22.5t19.5 59.5h123q-6 -87 -58 -136t-136 -49t-135.5 49t-57.5 136zM310 -14q-120 0 -188.5 66t-68.5 183v313h157v-314q0 -48 26.5 -76t73.5 -28t73.5 28t26.5 76v314h157v-313q0 -119 -68 -184t-189 -65z" />
    <glyph glyph-name="Uring" unicode="&#x16e;" horiz-adv-x="731" 
d="M366 778q-62 0 -103 40q-42 40 -42 99t42 100q43 41 103 41t103 -42q43 -40 43 -99t-43 -99t-103 -40zM366 865q22 0 37.5 15.5t15.5 38.5q0 22 -15.5 37.5t-37.5 15.5q-23 0 -39 -15.5t-16 -37.5q0 -23 16 -38.5t39 -15.5zM366 -13q-126 0 -211 73t-85 218v461h166v-454
q0 -68 34.5 -103t95.5 -35q59 0 94 35.5t35 102.5v454h166v-461q0 -144 -84 -218q-83 -73 -211 -73z" />
    <glyph glyph-name="uring" unicode="&#x16f;" horiz-adv-x="620" 
d="M449 734q0 -55 -41 -94q-40 -39 -98 -39q-57 0 -98 38q-40 39 -40 95t40 95t98 39t98 -39q41 -39 41 -95zM310 684q21 0 36 15t15 37q0 21 -15 35.5t-36 14.5q-22 0 -37 -14.5t-15 -35.5q0 -22 15 -37t37 -15zM310 -14q-120 0 -188.5 66t-68.5 183v313h157v-314
q0 -48 26.5 -76t73.5 -28t73.5 28t26.5 76v314h157v-313q0 -119 -68 -184t-189 -65z" />
    <glyph glyph-name="Uhungarumlaut" unicode="&#x170;" horiz-adv-x="733" 
d="M322 795h-135l45 188h171zM543 795h-141l65 188h177zM366 -13q-126 0 -211 73t-85 218v461h166v-454q0 -68 34.5 -103t95.5 -35q59 0 94 35.5t35 102.5v454h166v-461q0 -144 -84 -218q-83 -73 -211 -73z" />
    <glyph glyph-name="uhungarumlaut" unicode="&#x171;" horiz-adv-x="615" 
d="M264 627h-129l43 179h163zM474 627h-134l62 179h168zM310 -14q-120 0 -188.5 66t-68.5 183v313h157v-314q0 -48 26.5 -76t73.5 -28t73.5 28t26.5 76v314h157v-313q0 -119 -68 -184t-189 -65z" />
    <glyph glyph-name="Uogonek" unicode="&#x172;" horiz-adv-x="731" 
d="M495 285v454h166v-461q0 -107 -48 -176.5t-134 -97.5q-38 -19 -64 -49.5t-26 -58.5q0 -18 10.5 -28t26.5 -10q15 0 42 11l30 -98q-54 -30 -112 -30t-91 32t-33 84q0 74 72 131q-115 9 -190 81q-74 74 -74 209v461h166v-454q0 -68 34.5 -103t95.5 -35q59 0 94 35.5
t35 102.5z" />
    <glyph glyph-name="uogonek" unicode="&#x173;" horiz-adv-x="620" 
d="M410 234v314h157v-313q0 -92 -41 -152.5t-119 -83.5q-38 -18 -64 -49t-26 -59q0 -18 10.5 -28t26.5 -10q15 0 42 11l30 -98q-54 -30 -112 -30t-91 32t-33 84q0 76 78 136q-101 11 -158 76t-57 171v313h157v-314q0 -48 26.5 -76t73.5 -28t73.5 28t26.5 76z" />
    <glyph glyph-name="Wcircumflex" unicode="&#x174;" horiz-adv-x="1078" 
d="M473 794h-153l159 190h124l159 -190h-158l-65 90zM395 0h-149l-242 739h182l138 -481l159 481h111l161 -481l136 481h182l-241 -739h-149l-144 460z" />
    <glyph glyph-name="wcircumflex" unicode="&#x175;" horiz-adv-x="890" 
d="M383 625h-145l151 181h118l151 -181h-150l-62 86zM332 1h-139l-187 547h165l103 -341l115 341h111l117 -341l101 341h165l-185 -547h-139l-114 320z" />
    <glyph glyph-name="Ycircumflex" unicode="&#x176;" horiz-adv-x="693" 
d="M280 794h-153l159 190h124l159 -190h-158l-65 90zM493 739h193l-257 -486v-253h-165v253l-255 486h193l144 -306z" />
    <glyph glyph-name="ycircumflex" unicode="&#x177;" horiz-adv-x="614" 
d="M377 626l-62 86l-63 -86h-145l151 181h118l151 -181h-150zM319 209l118 339h170l-217 -563q-43 -111 -102 -164.5t-145 -53.5q-67 0 -111 29l29 130q35 -19 71 -19q66 0 106 84l7 16l-239 541h181z" />
    <glyph glyph-name="Ydieresis" unicode="&#x178;" horiz-adv-x="693" 
d="M142 884q0 37 26.5 63t64.5 26t64 -25.5t26 -63.5q0 -39 -25.5 -64.5t-64.5 -25.5t-65 25.5t-26 64.5zM460 794q-39 0 -65 25.5t-26 64.5q0 37 26.5 63t64.5 26t64 -26t26 -63q0 -39 -26 -64.5t-64 -25.5zM493 739h193l-257 -486v-253h-165v253l-255 486h193l144 -306z
" />
    <glyph glyph-name="Zacute" unicode="&#x179;" horiz-adv-x="662" 
d="M405 795h-147l65 188h180zM624 0h-588v121l353 466h-339v152h563v-127l-345 -460h356v-152z" />
    <glyph glyph-name="zacute" unicode="&#x17a;" horiz-adv-x="549" 
d="M338 628h-140l62 179h172zM504 438l-255 -308h266v-130h-482v109l261 308h-249v130h459v-109z" />
    <glyph glyph-name="Zdotaccent" unicode="&#x17b;" horiz-adv-x="662" 
d="M338 793q-40 0 -67 26.5t-27 66.5t27 66.5t67 26.5q39 0 66 -26.5t27 -66.5t-27 -66.5t-66 -26.5zM624 0h-588v121l353 466h-339v152h563v-127l-345 -460h356v-152z" />
    <glyph glyph-name="zdotaccent" unicode="&#x17c;" horiz-adv-x="549" 
d="M282 606q-40 0 -67 26.5t-27 66.5t27 66.5t67 26.5q39 0 66 -26.5t27 -66.5t-27 -66.5t-66 -26.5zM504 438l-255 -308h266v-130h-482v109l261 308h-249v130h459v-109z" />
    <glyph glyph-name="Zcaron" unicode="&#x17d;" horiz-adv-x="662" 
d="M281 796l-151 181h145l63 -86l62 86h150l-151 -181h-118zM624 0h-588v121l353 466h-339v152h563v-127l-345 -460h356v-152z" />
    <glyph glyph-name="zcaron" unicode="&#x17e;" horiz-adv-x="549" 
d="M215 627l-151 181h145l63 -86l62 86h150l-151 -181h-118zM504 438l-255 -308h266v-130h-482v109l261 308h-249v130h459v-109z" />
    <glyph glyph-name="Scommaaccent" unicode="&#x218;" horiz-adv-x="610" 
d="M454 406q133 -60 133 -188q0 -101 -78 -166q-77 -65 -203 -65q-88 0 -163.5 34.5t-126.5 99.5l90 118q83 -98 201 -98q43 0 70 18.5t27 48.5q0 41 -64 69l-66 24q-61 23 -95 41q-119 65 -119 187q0 96 73 159t190 63q147 0 251 -98l-82 -123q-32 30 -78.5 48t-88.5 18
q-41 0 -64.5 -16.5t-23.5 -44.5q0 -38 60 -65l72 -29q67 -26 85 -35zM301 -42q41 0 68.5 -27.5t27.5 -70.5q0 -49 -37 -95.5t-119 -105.5l-55 69q52 39 81 66q-24 8 -39.5 29.5t-15.5 48.5q0 36 25.5 61t63.5 25z" />
    <glyph glyph-name="scommaaccent" unicode="&#x219;" horiz-adv-x="503" 
d="M386 304q93 -50 93 -140q0 -77 -62 -128q-61 -51 -163 -51q-145 0 -234 101l77 102q71 -72 157 -72q30 0 48.5 12t18.5 32q0 24 -34 40q-11 5 -65 24q-58 22 -71 28q-98 47 -98 145q0 76 58 122q59 47 156 47q119 0 198 -76l-73 -102q-62 51 -128 51q-26 0 -41.5 -11
t-15.5 -28q0 -30 49 -46q92 -30 130 -50zM250 -48q39 0 66 -26.5t27 -68.5q0 -47 -35.5 -91.5t-116.5 -103.5l-53 67q55 41 78 64q-24 8 -38.5 29t-14.5 47q0 34 25.5 58.5t61.5 24.5z" />
    <glyph glyph-name="uni021A" unicode="&#x21a;" horiz-adv-x="611" 
d="M14 580v159h583v-159h-208v-580h-166v580h-209zM302 -28q41 0 68.5 -27.5t27.5 -70.5q0 -49 -37 -95.5t-119 -105.5l-55 69q53 39 81 66q-24 8 -39.5 29.5t-15.5 48.5q0 36 25.5 61t63.5 25z" />
    <glyph glyph-name="uni021B" unicode="&#x21b;" horiz-adv-x="473" 
d="M426 156l44 -125q-70 -45 -168 -45q-196 0 -196 221v211h-87v130h88v194h156v-194h176v-130h-176v-196q0 -93 73 -93q38 0 90 27zM283 -47q39 0 66 -26.5t27 -68.5q0 -47 -35.5 -91.5t-116.5 -103.5l-53 67q55 41 78 64q-24 8 -38.5 29t-14.5 47q0 34 25.5 58.5
t61.5 24.5z" />
    <glyph glyph-name="uni0237" unicode="&#x237;" horiz-adv-x="302" 
d="M21 -234q-89 0 -135 31l30 123q41 -16 78 -16q90 0 90 106v538h157v-550q0 -113 -59.5 -172.5t-160.5 -59.5z" />
    <glyph glyph-name="circumflex" unicode="&#x2c6;" horiz-adv-x="557" 
d="M184 620h-145l151 181h118l151 -181h-150l-62 86z" />
    <glyph glyph-name="caron" unicode="&#x2c7;" horiz-adv-x="547" 
d="M190 623l-151 181h145l63 -86l62 86h150l-151 -181h-118z" />
    <glyph glyph-name="breve" unicode="&#x2d8;" horiz-adv-x="475" 
d="M40 801h121q2 -37 20.5 -59.5t51.5 -22.5t51.5 22.5t19.5 59.5h123q-6 -87 -58 -136t-136 -49t-135.5 49t-57.5 136z" />
    <glyph glyph-name="dotaccent" unicode="&#x2d9;" horiz-adv-x="300" 
d="M134 595q-40 0 -67 26.5t-27 66.5t27 66.5t67 26.5q39 0 66 -26.5t27 -66.5t-27 -66.5t-66 -26.5z" />
    <glyph glyph-name="ring" unicode="&#x2da;" horiz-adv-x="383" 
d="M317 726q0 -55 -41 -94t-98 -39t-98 38q-40 39 -40 95t40 95q41 39 98 39t98 -39t41 -95zM178 676q21 0 36 15t15 37q0 21 -15 35.5t-36 14.5q-22 0 -37 -14.5t-15 -35.5q0 -22 15 -37t37 -15z" />
    <glyph glyph-name="ogonek" unicode="&#x2db;" horiz-adv-x="352" 
d="M246 -137l30 -98q-54 -30 -112 -30t-91 32t-33 84q0 98 126 167l95 -18q-40 -18 -67 -49.5t-27 -60.5q0 -18 10.5 -28t26.5 -10q15 0 42 11z" />
    <glyph glyph-name="tilde" unicode="&#x2dc;" horiz-adv-x="557" 
d="M139 624l-99 49q30 62 66 91.5t87 29.5q34 0 75 -22q42 -21 58 -21q17 0 30 11t29 38l99 -47q-48 -122 -142 -122q-32 0 -75 22t-62 22q-37 0 -66 -51z" />
    <glyph glyph-name="hungarumlaut" unicode="&#x2dd;" horiz-adv-x="553" 
d="M173 620h-129l43 179h163zM383 620h-134l62 179h168z" />
    <glyph glyph-name="uni0394" unicode="&#x394;" horiz-adv-x="759" 
d="M741 0h-723v113l312 626h101l310 -626v-113zM379 524l-170 -367h341z" />
    <glyph glyph-name="uni03A9" unicode="&#x3a9;" horiz-adv-x="862" 
d="M390 0h-342v145h139q-57 38 -93 105.5t-36 150.5q0 149 107 250q109 101 266 101q158 0 265 -101q108 -101 108 -250q0 -83 -36 -150.5t-93 -105.5h139v-145h-342v151q73 26 116 86.5t43 137.5q0 92 -58 149q-57 57 -142 57t-143 -58q-57 -57 -57 -148q0 -77 43 -137.5
t116 -86.5v-151z" />
    <glyph glyph-name="uni03BC" unicode="&#x3bc;" horiz-adv-x="664" 
d="M447 283v252h157v-535h-151v74q-43 -85 -132 -85q-73 0 -109 60v-267h-152v753h157v-275q0 -62 28.5 -95t79.5 -33q55 0 88.5 39.5t33.5 111.5z" />
    <glyph glyph-name="pi" unicode="&#x3c0;" horiz-adv-x="638" 
d="M259 0h-157v397h-71v138h576v-138h-70v-397h-159v397h-119v-397z" />
    <glyph glyph-name="uni0401" unicode="&#x401;" horiz-adv-x="647" 
d="M134 884q0 37 26.5 63t64.5 26t64 -25.5t26 -63.5q0 -39 -25.5 -64.5t-64.5 -25.5t-65 25.5t-26 64.5zM452 794q-39 0 -65 25.5t-26 64.5q0 37 26.5 63t64.5 26t64 -26t26 -63q0 -39 -26 -64.5t-64 -25.5zM593 0h-515v739h516v-154h-350v-137h324v-153h-324v-141h349
v-154z" />
    <glyph glyph-name="uni0410" unicode="&#x410;" horiz-adv-x="704" 
d="M697 0h-172l-49 149h-248l-51 -149h-172l277 739h144zM432 294l-79 234l-80 -234h159z" />
    <glyph glyph-name="uni0411" unicode="&#x411;" horiz-adv-x="673" 
d="M241 468h137q61 0 109.5 -16t77 -40.5t47 -57t25 -62.5t6.5 -61q0 -100 -68 -166q-68 -65 -184 -65h-313v739h491v-142h-328v-129zM241 143h122q69 -3 97.5 44t1.5 94t-92 44h-129v-182z" />
    <glyph glyph-name="uni0412" unicode="&#x412;" horiz-adv-x="699" 
d="M522 405q68 -17 104.5 -67.5t36.5 -121.5q0 -92 -65 -154t-171 -62h-349v739h332q103 0 158 -55q56 -54 56 -128q0 -50 -28 -92t-74 -59zM381 597h-140v-145h133q40 0 63 21t23 53q0 30 -21.5 50.5t-57.5 20.5zM241 143h151q47 0 73.5 25t26.5 62q0 38 -25.5 62.5
t-71.5 24.5h-154v-174z" />
    <glyph glyph-name="uni0413" unicode="&#x413;" horiz-adv-x="560" 
d="M241 0h-163v739h471v-147h-308v-592z" />
    <glyph glyph-name="uni0414" unicode="&#x414;" horiz-adv-x="811" 
d="M492 739l204 -590h85v-299h-159v150h-433v-150h-159v299h83l208 590h171zM406 544l-126 -395h248z" />
    <glyph glyph-name="uni0415" unicode="&#x415;" horiz-adv-x="647" 
d="M593 0h-515v739h516v-154h-350v-137h324v-153h-324v-141h349v-154z" />
    <glyph glyph-name="uni0416" unicode="&#x416;" horiz-adv-x="1048" 
d="M1017 142l8 -137q-36 -16 -86 -16q-42 0 -88 18q-28 15 -61 50q-26 34 -44 72l-21 41l-21 41q-25 47 -42 64.5t-39 17.5h-16v-294h-166v294h-16q-22 0 -39 -17.5t-42 -64.5l-21 -41l-21 -41q-21 -45 -45 -72q-28 -34 -61 -50q-42 -18 -87 -18q-50 0 -86 16l8 137
q26 -8 55 -8q34 0 53 25q20 25 82 133l20 34q26 40 34 48q-27 24 -43 56q-23 47 -31 65l-26 48q-7 13 -22 31q-21 29 -59 29q-19 0 -42 -4l-9 130q35 21 81 21q73 0 112 -42q40 -41 86 -144q1 -3 5.5 -12t7.5 -16q29 -64 42 -78q14 -14 51 -14h13v294h166v-294h13
q36 0 50 14q15 15 43 78q4 6 13 28q46 103 86 144q39 42 112 42q46 0 81 -21l-10 -130q-21 4 -41 4q-37 0 -60 -29q-12 -14 -21 -31l-26 -48l-12 -24l-14 -28q-24 -46 -47 -69q8 -9 33 -48q81 -142 97 -162q25 -30 58 -30q29 0 55 8z" />
    <glyph glyph-name="uni0417" unicode="&#x417;" horiz-adv-x="621" 
d="M279 -12q-138 0 -263 74l61 133q107 -57 207 -57q58 0 91.5 22.5t33.5 59.5q0 35 -29.5 56t-81.5 21h-130v145h92q57 0 91 23t35 60q0 34 -28.5 54.5t-74.5 20.5q-82 0 -176 -56l-74 118q50 42 123 66t148 24q116 0 183 -58q69 -57 69 -136q0 -51 -29.5 -91t-83.5 -62
l-1 -4q66 -18 103 -66.5t37 -114.5q0 -97 -80 -165q-79 -67 -223 -67z" />
    <glyph glyph-name="uni0418" unicode="&#x418;" horiz-adv-x="786" 
d="M182 0h-104v739h163v-462l361 462h106v-739h-163v457z" />
    <glyph glyph-name="uni0419" unicode="&#x419;" horiz-adv-x="786" 
d="M187 891l82 85q38 -47 71 -66t73 -19t73 19t71 66l83 -85q-98 -119 -228 -119t-225 119zM182 0h-104v739h163v-462l361 462h106v-739h-163v457z" />
    <glyph glyph-name="uni041A" unicode="&#x41a;" horiz-adv-x="706" 
d="M719 0h-203l-186 281l-87 -105v-176h-165v739h165v-330l259 330h200l-264 -332z" />
    <glyph glyph-name="uni041B" unicode="&#x41b;" horiz-adv-x="700" 
d="M185 0h-179l261 739h171l256 -739h-180l-162 522z" />
    <glyph glyph-name="uni041C" unicode="&#x41c;" horiz-adv-x="946" 
d="M241 0h-163v739h116l279 -402l277 402h118v-739h-165v391l-201 -287h-60l-201 287v-391z" />
    <glyph glyph-name="uni041D" unicode="&#x41d;" horiz-adv-x="775" 
d="M243 0h-165v739h165v-289h288v289h166v-739h-166v291h-288v-291z" />
    <glyph glyph-name="uni041E" unicode="&#x41e;" 
d="M37 368q0 161 111 272q112 112 275 112t274 -112q112 -111 112 -271t-111 -271q-112 -110 -276 -110q-165 0 -275 110t-110 270zM423 151q91 0 153 62q62 64 61 156q-2 96 -63 157q-62 63 -151 63q-91 0 -152 -63q-62 -64 -62 -157q0 -92 62 -156q62 -62 152 -62z" />
    <glyph glyph-name="uni041F" unicode="&#x41f;" horiz-adv-x="775" 
d="M243 0h-165v739h619v-739h-166v580h-288v-580z" />
    <glyph glyph-name="uni0420" unicode="&#x420;" horiz-adv-x="650" 
d="M78 739h283q135 0 201 -72q67 -71 67 -178q0 -106 -69 -175t-211 -69h-106v-245h-165v739zM243 394h112q49 0 77 27.5t28 69.5q0 41 -27 68.5t-71 27.5h-119v-193z" />
    <glyph glyph-name="uni0421" unicode="&#x421;" horiz-adv-x="761" 
d="M418 -11q-162 0 -271 105q-109 106 -109 273q0 168 111 276q112 109 271 109q98 0 182 -40.5t135 -109.5l-108 -110q-84 101 -200 101q-92 0 -156 -64t-64 -161q0 -95 63 -158t156 -63q120 0 205 102l111 -104q-52 -71 -139 -113.5t-187 -42.5z" />
    <glyph glyph-name="uni0422" unicode="&#x422;" horiz-adv-x="611" 
d="M223 0v580h-209v159h583v-159h-208v-580h-166z" />
    <glyph glyph-name="uni0423" unicode="&#x423;" horiz-adv-x="640" 
d="M147 -11q-57 0 -101 23l12 133q29 -13 63 -13q80 0 134 111l-233 496h194l127 -314l114 314h192l-78 -177q-106 -245 -145 -325q-24 -50 -37 -73q-13 -26 -41 -65q-25 -37 -52 -59q-66 -51 -149 -51z" />
    <glyph glyph-name="uni0424" unicode="&#x424;" horiz-adv-x="955" 
d="M922 370q0 -148 -99 -246t-262 -112v-92h-166v92q-165 14 -263 112q-98 100 -98 246q0 150 99 247q100 98 262 112v90h166v-90q161 -13 261 -112q100 -97 100 -247zM200 368q0 -90 52.5 -147.5t142.5 -64.5v426q-90 -10 -142.5 -67t-52.5 -147zM561 582v-426
q90 8 142.5 65t52.5 147t-52.5 147t-142.5 67z" />
    <glyph glyph-name="uni0425" unicode="&#x425;" horiz-adv-x="684" 
d="M196 0h-193l233 373l-216 366h191l132 -241l140 241h193l-229 -366l227 -373h-191l-142 248z" />
    <glyph glyph-name="uni0426" unicode="&#x426;" horiz-adv-x="762" 
d="M723 -150h-165v150h-480v739h166v-580h233v580h167v-580h79v-309z" />
    <glyph glyph-name="uni0427" unicode="&#x427;" horiz-adv-x="704" 
d="M459 384v355h167v-739h-167v228q-78 -26 -141 -26q-273 0 -273 270v267h166v-243q0 -71 29 -102.5t91 -31.5q65 0 128 22z" />
    <glyph glyph-name="uni0428" unicode="&#x428;" horiz-adv-x="1101" 
d="M1023 0h-945v739h166v-580h223v580h167v-580h223v580h166v-739z" />
    <glyph glyph-name="uni0429" unicode="&#x429;" horiz-adv-x="1142" 
d="M1102 -150h-165v150h-859v739h166v-580h223v580h167v-580h223v580h166v-580h79v-309z" />
    <glyph glyph-name="uni042A" unicode="&#x42a;" horiz-adv-x="762" 
d="M464 517q122 0 198 -70q77 -69 77 -192q0 -106 -69 -181q-68 -74 -201 -74h-295v597h-160v142h322v-243q61 21 128 21zM336 148h103q64 0 96.5 29t32.5 82q0 110 -126 110q-49 0 -106 -18v-203z" />
    <glyph glyph-name="uni042B" unicode="&#x42b;" horiz-adv-x="976" 
d="M244 492h134q74 0 129.5 -23t83.5 -63q55 -72 55 -161q0 -105 -68 -176q-68 -69 -185 -69h-312v739h163v-247zM732 0v739h166v-739h-166zM244 145h121q53 0 82 28t29 74q0 45 -28.5 73t-79.5 28h-124v-203z" />
    <glyph glyph-name="uni042C" unicode="&#x42c;" horiz-adv-x="667" 
d="M369 517q122 0 198 -70q77 -69 77 -192q0 -106 -69 -181q-68 -74 -201 -74h-296v739h163v-242q65 20 128 20zM241 148h102q65 0 97.5 29t32.5 82q0 110 -126 110q-49 0 -106 -18v-203z" />
    <glyph glyph-name="uni042D" unicode="&#x42d;" horiz-adv-x="765" 
d="M345 752q160 0 270 -109q112 -108 112 -276q0 -167 -109 -273q-110 -105 -271 -105q-100 0 -187 42.5t-139 113.5l111 104q86 -102 205 -102q73 0 129 40t78 107h-309v146h310q-21 69 -78.5 111t-130.5 42q-116 0 -200 -101l-108 110q51 69 135 109.5t182 40.5z" />
    <glyph glyph-name="uni042E" unicode="&#x42e;" horiz-adv-x="1137" 
d="M714 752q163 0 274 -112q112 -111 112 -271t-111 -271q-112 -110 -276 -110q-143 0 -246 84q-104 84 -131 215h-92v-287h-166v739h166v-293h92q27 133 131 219q105 87 247 87zM714 151q91 0 153 62q62 64 61 156q-2 96 -63 157q-61 63 -151 63t-152 -63q-62 -64 -62 -157
q0 -92 62 -156q62 -62 152 -62z" />
    <glyph glyph-name="uni042F" unicode="&#x42f;" horiz-adv-x="688" 
d="M342 739h268v-739h-163v246q-41 -8 -98 -9l-138 -237h-187l165 264q-133 60 -133 224q0 110 72 181q73 70 214 70zM353 380q47 0 94 9v200h-96q-126 0 -126 -103q0 -106 128 -106z" />
    <glyph glyph-name="uni0430" unicode="&#x430;" horiz-adv-x="683" 
d="M472 490v58h148v-548h-148v56q-70 -70 -169 -70q-117 0 -194 83q-76 83 -76 208q0 122 77 204q76 81 193 81q99 0 169 -72zM190 275q0 -61 39 -104q41 -42 101 -42q61 0 101 43q41 44 41 103t-41 102q-41 42 -101 42t-101 -42q-39 -42 -39 -102z" />
    <glyph glyph-name="uni0431" unicode="&#x431;" horiz-adv-x="693" 
d="M388 540q108 0 190 -74q82 -73 82 -198q0 -121 -82 -202q-81 -81 -218 -81q-84 0 -148.5 33.5t-101.5 92.5q-71 114 -71 271q0 156 66 250.5t182 122.5q33 8 69 14q7 1 66 13q66 18 137 72l59 -124q-41 -41 -90 -61q-45 -17 -159 -40q-66 -13 -106 -37q-71 -40 -82 -166
q30 54 85 84t122 30zM361 126q58 0 99 41q40 40 40 99q0 58 -40 98q-39 40 -97 40q-59 0 -99 -39q-40 -37 -40 -98q0 -57 38 -100q39 -41 99 -41z" />
    <glyph glyph-name="uni0432" unicode="&#x432;" horiz-adv-x="654" 
d="M485 426q65 -18 100.5 -71.5t35.5 -129.5q0 -97 -76 -167q-76 -71 -205 -71q-89 0 -154 33q-136 69 -136 268v184q0 155 80 232q80 76 206 76q113 0 180 -55q69 -55 69 -147q0 -51 -27.5 -93t-72.5 -59zM334 636q-63 0 -95 -50q-31 -49 -31 -115v-6h109q57 0 84.5 24.5
t27.5 64.5q0 38 -26 60t-69 22zM342 130q55 0 87 29t32 73q0 99 -119 99h-134v-42q0 -76 34 -117.5t100 -41.5z" />
    <glyph glyph-name="uni0433" unicode="&#x433;" horiz-adv-x="514" 
d="M251 -13q-105 0 -162.5 41.5t-57.5 112.5q0 55 27.5 94t66.5 58.5t77.5 33.5t66 29.5t27.5 35.5q0 42 -66 42q-61 0 -145 -32l-37 116q105 44 212 44q96 0 153 -39.5t57 -107.5q0 -49 -26 -85.5t-67 -56.5q-17 -8 -45.5 -19.5l-47 -19.5t-37.5 -18.5t-29 -23t-10 -26.5
q0 -48 81 -48q78 0 165 42l33 -122q-117 -51 -236 -51z" />
    <glyph glyph-name="uni0434" unicode="&#x434;" horiz-adv-x="677" 
d="M475 494v54h143v-474q0 -149 -83 -228t-234 -79q-97 0 -226 41l33 127q93 -34 188 -34q86 0 129 36.5t43 104.5v21q-61 -64 -162 -64q-121 -1 -197 78t-76 202q0 124 80 204q79 79 199 79q98 0 163 -68zM470 278q0 61 -39.5 100.5t-99.5 39.5t-100 -40q-40 -39 -40 -100
q0 -62 40 -102q41 -41 100 -41q60 0 99 40q40 40 40 103z" />
    <glyph glyph-name="uni0435" unicode="&#x435;" horiz-adv-x="632" 
d="M600 287q0 -24 -5 -66h-403q28 -103 149 -103q92 0 171 53l62 -107q-100 -76 -240 -76q-145 0 -223 83q-77 83 -77 204q0 123 80 205q79 82 209 82q120 0 199 -74q78 -74 78 -201zM323 435q-48 0 -83.5 -27t-48.5 -75h258q-11 48 -44.5 75t-81.5 27z" />
    <glyph glyph-name="uni0436" unicode="&#x436;" horiz-adv-x="904" 
d="M874 124l6 -120q-35 -13 -77 -13q-76 -1 -131 50q-19 21 -35 48l-28 51q-18 34 -32.5 47t-34.5 13h-13v-201h-154v201h-13q-20 0 -34.5 -13t-33.5 -47l-16 -28q-14 -25 -36 -57q-18 -25 -54 -45q-34 -19 -87 -19q-42 0 -78 13l7 120q22 -6 42 -6q28 0 49 22t75 105l21 30
q-21 17 -49 71l-26 46q-23 36 -60 36q-15 0 -35 -2l-7 113q31 17 72 17q61 0 97 -27t64 -88l12 -27l21 -40q6 -10 23 -23q13 -8 35 -8h11v205h154v-205h11q24 0 46 16q8 6 21 32q19 38 24 50q28 61 64 88t97 27q41 0 72 -17l-7 -113q-22 2 -36 2q-21 0 -37 -12
q-10 -7 -17.5 -16.5t-11.5 -17l-20 -36.5q-28 -54 -48 -71l21 -30q52 -81 74 -104q21 -23 50 -23q18 0 42 6z" />
    <glyph glyph-name="uni0437" unicode="&#x437;" horiz-adv-x="561" 
d="M259 -231q-139 0 -255 81l53 122q97 -62 177 -62q62 0 97 27.5t35 73.5q0 44 -32.5 68.5t-87.5 24.5h-101v133h69q64 0 97 26t33 69q0 41 -29.5 64.5t-75.5 23.5q-73 0 -158 -61l-68 111q43 40 112 66q70 26 139 26q107 0 176 -60q69 -59 69 -143q0 -52 -29 -95.5
t-82 -66.5v-4q62 -18 98 -69t36 -120q0 -100 -73 -167q-73 -68 -200 -68z" />
    <glyph glyph-name="uni0438" unicode="&#x438;" horiz-adv-x="658" 
d="M442 548h156v-548h-151v78q-22 -40 -72.5 -66t-111.5 -26q-90 0 -149 58q-60 58 -60 177v327h157v-301q0 -56 27 -86.5t77 -30.5q58 0 92.5 36.5t34.5 98.5v283z" />
    <glyph glyph-name="uni0439" unicode="&#x439;" horiz-adv-x="658" 
d="M329 583q-116 0 -202 107l74 77q34 -43 63.5 -60t65.5 -17t65.5 17t64.5 60l75 -77q-89 -107 -206 -107zM442 548h156v-548h-151v78q-22 -40 -72.5 -66t-111.5 -26q-90 0 -149 58q-60 58 -60 177v327h157v-301q0 -56 27 -86.5t77 -30.5q58 0 92.5 36.5t34.5 98.5v283z
" />
    <glyph glyph-name="uni043A" unicode="&#x43a;" horiz-adv-x="597" 
d="M611 0h-190l-173 227l-31 -29v-198h-157v761h157v-388l184 175h194l-240 -223z" />
    <glyph glyph-name="uni043B" unicode="&#x43b;" horiz-adv-x="623" 
d="M181 0h-174l224 548h167l218 -548h-174l-128 366z" />
    <glyph glyph-name="uni043C" unicode="&#x43c;" horiz-adv-x="786" 
d="M212 0h-152v548h116l217 -275l216 275h116v-548h-151v270l-153 -186h-57l-152 186v-270z" />
    <glyph glyph-name="uni043D" unicode="&#x43d;" horiz-adv-x="636" 
d="M420 344v204h155v-548h-155v203h-204v-203h-156v548h156v-204h204z" />
    <glyph glyph-name="uni043E" unicode="&#x43e;" horiz-adv-x="657" 
d="M328 -15q-130 0 -213 83q-82 83 -82 206t82 205q83 84 213 84q132 0 214 -84q83 -83 83 -205q0 -121 -83 -206q-83 -83 -214 -83zM468 275q0 59 -41 100q-41 42 -99 42t-99 -42q-40 -40 -40 -100q0 -62 40 -103q41 -41 99 -41t99 41q41 43 41 103z" />
    <glyph glyph-name="uni043F" unicode="&#x43f;" horiz-adv-x="652" 
d="M217 0h-157v548h153v-76q22 40 68.5 65.5t104.5 25.5q89 0 151 -59t62 -169v-335h-157v294q0 59 -29 92t-78 33q-53 0 -85.5 -35.5t-32.5 -93.5v-290z" />
    <glyph glyph-name="uni0440" unicode="&#x440;" horiz-adv-x="684" 
d="M382 562q116 0 193 -84q76 -82 76 -203q0 -120 -77 -205q-76 -84 -192 -84q-98 0 -165 70v-282h-157v774h155v-61q67 75 167 75zM492 274q0 60 -39 101q-39 42 -100 42q-60 0 -99 -42q-39 -41 -39 -101q0 -61 39 -102.5t99 -41.5t99.5 41.5t39.5 102.5z" />
    <glyph glyph-name="uni0441" unicode="&#x441;" horiz-adv-x="605" 
d="M324 -12q-128 0 -210 80q-81 81 -81 207q0 127 82 206q83 81 212 81q86 0 155.5 -41t102.5 -115l-125 -67q-48 78 -130 78q-60 0 -101 -41q-40 -40 -40 -101q0 -63 39 -103q40 -40 100 -40q41 0 76.5 21.5t52.5 55.5l127 -75q-36 -67 -105.5 -106.5t-154.5 -39.5z" />
    <glyph glyph-name="uni0442" unicode="&#x442;" horiz-adv-x="1012" 
d="M733 563q97 0 161 -60t64 -170v-333h-157v303q0 56 -27.5 86t-73.5 30q-50 0 -81 -33t-31 -88v-298h-157v302q0 54 -28.5 85.5t-74.5 31.5q-49 0 -80 -33t-31 -89v-297h-157v548h153v-78q23 44 69 69t100 24q52 0 94 -23.5t63 -69.5q30 44 82 68.5t112 24.5z" />
    <glyph glyph-name="uni0443" unicode="&#x443;" horiz-adv-x="614" 
d="M318 209l118 339h170l-217 -563q-43 -111 -102 -164.5t-145 -53.5q-67 0 -111 29l29 130q35 -19 71 -19q65 0 106 84l7 16l-239 541h181z" />
    <glyph glyph-name="uni0444" unicode="&#x444;" horiz-adv-x="862" 
d="M829 274q0 -132 -87 -205t-236 -81v-216h-149v216q-147 7 -236 81q-88 75 -88 206q0 130 87 206q88 77 237 81v199h149v-199q148 -4 235 -81q88 -75 88 -207zM357 121v306q-83 -3 -126.5 -43t-43.5 -110t45 -111t125 -42zM506 427v-306q80 1 125 42.5t45 111.5
t-43.5 109.5t-126.5 42.5z" />
    <glyph glyph-name="uni0445" unicode="&#x445;" horiz-adv-x="570" 
d="M388 275l172 -275h-181l-95 171l-101 -171h-179l177 278l-157 270h179l84 -160l92 160h176z" />
    <glyph glyph-name="uni0446" unicode="&#x446;" horiz-adv-x="736" 
d="M599 548v-360q-2 -51 27.5 -68.5t102.5 -17.5v-282h-136v170q-54 0 -90 29.5t-42 82.5q-20 -51 -75 -83.5t-123 -32.5q-90 0 -149 58q-60 58 -60 177v327h157v-301q0 -56 27 -86.5t77 -30.5q58 0 92.5 36.5t34.5 98.5v283h157z" />
    <glyph glyph-name="uni0447" unicode="&#x447;" horiz-adv-x="596" 
d="M380 297v251h156v-548h-156v158q-62 -15 -116 -15q-95 0 -157 40q-70 49 -70 178v187h156v-176q0 -86 91 -86q49 0 96 11z" />
    <glyph glyph-name="uni0448" unicode="&#x448;" horiz-adv-x="983" 
d="M765 256v292h158v-548h-149v78q-19 -37 -67 -65q-47 -27 -101 -27q-50 0 -91 23t-62 66q-28 -44 -76.5 -66.5t-105.5 -22.5q-91 0 -154 60q-63 62 -63 181v321h158v-306q0 -112 93 -112q49 0 77 34t28 92v292h158v-309q0 -52 23.5 -80.5t66.5 -28.5q49 0 78 34.5t29 91.5
z" />
    <glyph glyph-name="uni0449" unicode="&#x449;" horiz-adv-x="1063" 
d="M922 548v-360q0 -51 30 -68.5t104 -17.5v-282h-136v170q-54 0 -90 29.5t-41 82.5q-20 -52 -71.5 -84t-116.5 -32q-49 0 -88.5 22.5t-59.5 65.5q-28 -43 -77 -65.5t-105 -22.5q-91 0 -154 60q-63 62 -63 181v321h157v-306q0 -54 24.5 -83t69.5 -29q49 0 77 34t28 92v292
h157v-309q0 -52 24 -80.5t67 -28.5q49 0 78 34.5t29 91.5v292h157z" />
    <glyph glyph-name="uni044A" unicode="&#x44a;" horiz-adv-x="659" 
d="M402 449q95 0 162 -64t67 -163q0 -98 -63 -167t-191 -69q-71 0 -123 25t-77 69q-46 79 -46 179v160h-118v129h271v-131q56 32 118 32zM381 121q45 0 70 27.5t25 70.5q0 45 -26 70.5t-75 25.5q-43 0 -91 -20v-59q0 -46 21 -80q21 -35 76 -35z" />
    <glyph glyph-name="uni044B" unicode="&#x44b;" horiz-adv-x="810" 
d="M209 385h104q60 0 105.5 -17t69.5 -46t35.5 -61t11.5 -67q0 -84 -57 -140q-57 -54 -159 -54h-259v548h150zM594 0v548h156v-548h-156zM208 127h96q51 -3 71 31.5t-0.5 69t-68.5 31.5h-97z" />
    <glyph glyph-name="uni044C" unicode="&#x44c;" horiz-adv-x="581" 
d="M322 449q99 0 164 -64q67 -63 67 -163q0 -98 -63 -167t-191 -69q-71 0 -123 25t-77 69q-46 79 -46 179v289h154v-128q56 29 115 29zM303 121q45 0 70 27.5t25 70.5q0 45 -26 70.5t-75 25.5q-42 0 -90 -20v-59q0 -115 96 -115z" />
    <glyph glyph-name="uni044D" unicode="&#x44d;" horiz-adv-x="604" 
d="M280 562q128 0 209 -81q81 -79 81 -206q0 -125 -80 -207q-80 -80 -207 -80q-87 0 -156.5 39.5t-105.5 106.5l122 73q18 -34 55.5 -57t79.5 -23q44 0 80 25.5t52 67.5h-182v109h182q-16 42 -53 67.5t-82 25.5q-41 0 -77 -22t-57 -59l-122 65q36 75 105 115.5t156 40.5z
" />
    <glyph glyph-name="uni044E" unicode="&#x44e;" horiz-adv-x="894" 
d="M565 563q131 0 213 -84q83 -83 83 -205q0 -121 -83 -206q-83 -83 -213 -83q-110 0 -189 62q-77 63 -100 162h-61v-209h-155v761h155v-425h60q21 98 99 163q79 64 191 64zM704 275q0 61 -40 101q-41 41 -99 41q-59 0 -99 -42q-40 -40 -40 -100q0 -62 40 -103
q41 -41 99 -41t99 41q40 41 40 103z" />
    <glyph glyph-name="uni044F" unicode="&#x44f;" horiz-adv-x="589" 
d="M299 548h230v-548h-152v172q-47 -6 -84 -7l-103 -165h-170l130 190q-101 47 -101 167q0 89 64.5 140t185.5 51zM298 288q37 0 79 7v129h-72q-100 0 -100 -70q0 -66 93 -66z" />
    <glyph glyph-name="uni0451" unicode="&#x451;" horiz-adv-x="632" 
d="M220 599q-39 0 -64.5 25t-25.5 64q0 37 26 62.5t64 25.5t63.5 -25.5t25.5 -62.5q0 -39 -25.5 -64t-63.5 -25zM444 599q-39 0 -64.5 25t-25.5 64q0 37 26 62.5t64 25.5t63.5 -25.5t25.5 -62.5q0 -39 -25.5 -64t-63.5 -25zM600 287q0 -24 -5 -66h-403q28 -103 149 -103
q92 0 171 53l62 -107q-100 -76 -240 -76q-145 0 -223 83q-77 83 -77 204q0 123 80 205q79 82 209 82q120 0 199 -74q78 -74 78 -201zM323 435q-48 0 -83.5 -27t-48.5 -75h258q-11 48 -44.5 75t-81.5 27z" />
    <glyph glyph-name="Wgrave" unicode="&#x1e80;" horiz-adv-x="1078" 
d="M551 984l66 -189h-149l-99 189h182zM395 0h-149l-242 739h182l138 -481l159 481h111l161 -481l136 481h182l-241 -739h-149l-144 460z" />
    <glyph glyph-name="wgrave" unicode="&#x1e81;" horiz-adv-x="890" 
d="M460 806l63 -179h-140l-94 179h171zM332 1h-139l-187 547h165l103 -341l115 341h111l117 -341l101 341h165l-185 -547h-139l-114 320z" />
    <glyph glyph-name="Wacute" unicode="&#x1e82;" horiz-adv-x="1078" 
d="M619 794h-147l65 188h180zM395 0h-149l-242 739h182l138 -481l159 481h111l161 -481l136 481h182l-241 -739h-149l-144 460z" />
    <glyph glyph-name="wacute" unicode="&#x1e83;" horiz-adv-x="890" 
d="M518 628h-140l62 179h172zM332 1h-139l-187 547h165l103 -341l115 341h111l117 -341l101 341h165l-185 -547h-139l-114 320z" />
    <glyph glyph-name="Wdieresis" unicode="&#x1e84;" horiz-adv-x="1078" 
d="M335 884q0 37 26.5 63t64.5 26t64 -25.5t26 -63.5q0 -39 -25.5 -64.5t-64.5 -25.5t-65 25.5t-26 64.5zM653 794q-39 0 -65 25.5t-26 64.5q0 37 26.5 63t64.5 26t64 -26t26 -63q0 -39 -26 -64.5t-64 -25.5zM395 0h-149l-242 739h182l138 -481l159 481h111l161 -481
l136 481h182l-241 -739h-149l-144 460z" />
    <glyph glyph-name="wdieresis" unicode="&#x1e85;" horiz-adv-x="890" 
d="M334 616q-39 0 -64.5 25t-25.5 64q0 37 26 62.5t64 25.5t63.5 -25.5t25.5 -62.5q0 -39 -25.5 -64t-63.5 -25zM558 616q-39 0 -64.5 25t-25.5 64q0 37 26 62.5t64 25.5t63.5 -25.5t25.5 -62.5q0 -39 -25.5 -64t-63.5 -25zM332 1h-139l-187 547h165l103 -341l115 341h111
l117 -341l101 341h165l-185 -547h-139l-114 320z" />
    <glyph glyph-name="Ygrave" unicode="&#x1ef2;" horiz-adv-x="693" 
d="M366 984l66 -189h-149l-99 189h182zM493 739h193l-257 -486v-253h-165v253l-255 486h193l144 -306z" />
    <glyph glyph-name="ygrave" unicode="&#x1ef3;" horiz-adv-x="614" 
d="M325 807l63 -179h-140l-94 179h171zM319 209l118 339h170l-217 -563q-43 -111 -102 -164.5t-145 -53.5q-67 0 -111 29l29 130q35 -19 71 -19q66 0 106 84l7 16l-239 541h181z" />
    <glyph glyph-name="uni2009" unicode="&#x2009;" horiz-adv-x="78" 
 />
    <glyph glyph-name="endash" unicode="&#x2013;" horiz-adv-x="721" 
d="M664 204h-606v146h606v-146z" />
    <glyph glyph-name="emdash" unicode="&#x2014;" horiz-adv-x="1040" 
d="M983 204h-925v146h925v-146z" />
    <glyph glyph-name="quoteleft" unicode="&#x2018;" horiz-adv-x="257" 
d="M137 684q30 0 52.5 -23.5t22.5 -55.5q0 -36 -26.5 -61.5t-63.5 -25.5q-40 0 -66.5 29t-26.5 72q0 111 156 211l43 -62q-73 -55 -91 -84z" />
    <glyph glyph-name="quoteright" unicode="&#x2019;" horiz-adv-x="255" 
d="M138 824q40 0 67 -28.5t27 -72.5q0 -109 -156 -210l-43 61q73 55 91 84q-31 0 -53 23.5t-22 55.5q0 37 26 62t63 25z" />
    <glyph glyph-name="quotesinglbase" unicode="&#x201a;" horiz-adv-x="264" 
d="M130 158q40 0 67 -28.5t27 -72.5q0 -109 -156 -210l-43 61q73 55 91 84q-31 0 -53 23.5t-22 55.5q0 37 26 62t63 25z" />
    <glyph glyph-name="quotedblleft" unicode="&#x201c;" horiz-adv-x="513" 
d="M187 830l43 -62q-73 -55 -91 -84q30 0 52.5 -23.5t22.5 -55.5q0 -36 -26.5 -61.5t-63.5 -25.5q-40 0 -66.5 29t-26.5 72q0 111 156 211zM394 684q30 0 52.5 -23.5t22.5 -55.5q0 -36 -26.5 -61.5t-63.5 -25.5q-40 0 -66.5 29t-26.5 72q0 111 156 211l43 -62
q-73 -55 -91 -84z" />
    <glyph glyph-name="quotedblright" unicode="&#x201d;" horiz-adv-x="508" 
d="M137 828q40 0 66.5 -29t26.5 -72q0 -111 -156 -211l-43 62q73 55 91 84q-30 0 -52.5 23.5t-22.5 55.5q0 36 26.5 61.5t63.5 25.5zM392 828q40 0 66.5 -29t26.5 -72q0 -111 -156 -211l-43 62q73 55 91 84q-30 0 -52.5 23.5t-22.5 55.5q0 36 26.5 61.5t63.5 25.5z" />
    <glyph glyph-name="quotedblbase" unicode="&#x201e;" horiz-adv-x="517" 
d="M128 157q40 0 66.5 -29t26.5 -72q0 -110 -156 -211l-43 62q73 55 91 84q-30 0 -52.5 23.5t-22.5 55.5q0 36 26.5 61.5t63.5 25.5zM383 157q40 0 66.5 -29t26.5 -72q0 -110 -156 -211l-43 62q73 55 91 84q-30 0 -52.5 23.5t-22.5 55.5q0 36 26.5 61.5t63.5 25.5z" />
    <glyph glyph-name="dagger" unicode="&#x2020;" horiz-adv-x="518" 
d="M337 541h143v-143h-143v-576h-156v576h-144v143h144v308h156v-308z" />
    <glyph glyph-name="daggerdbl" unicode="&#x2021;" horiz-adv-x="518" 
d="M481 583v-143h-144v-210h144v-143h-144v-265h-156v265h-144v143h144v210h-144v143h144v266h156v-266h144z" />
    <glyph glyph-name="bullet" unicode="&#x2022;" horiz-adv-x="472" 
d="M235 166q-71 0 -122 51t-51 123q0 73 51 124t122 51q73 0 124 -51q52 -51 52 -124q0 -72 -52 -123q-51 -51 -124 -51z" />
    <glyph glyph-name="ellipsis" unicode="&#x2026;" horiz-adv-x="760" 
d="M128 -16q-38 0 -63.5 25t-25.5 63q0 37 25.5 62t63.5 25q36 0 61 -25.5t25 -61.5q0 -38 -25 -63t-61 -25zM381 -16q-38 0 -63.5 25t-25.5 63q0 37 25.5 62t63.5 25q35 0 60.5 -25.5t25.5 -61.5q0 -38 -25 -63t-61 -25zM635 -16q-38 0 -63.5 25t-25.5 63q0 37 25.5 62
t63.5 25q35 0 60.5 -25.5t25.5 -61.5q0 -38 -25 -63t-61 -25z" />
    <glyph glyph-name="perthousand" unicode="&#x2030;" horiz-adv-x="1321" 
d="M221 384q-79 0 -135 53q-56 54 -56 129q0 77 56 131t135 54q81 0 136 -54q56 -54 56 -131q0 -75 -56 -129q-56 -53 -136 -53zM259 0h-150l537 739h150zM167 512q23 -21 54 -21t54 21q23 22 23 55t-23 55t-54 22t-54 -22q-22 -22 -22 -55t22 -55zM689 -12q-79 0 -135 53
q-56 54 -56 130t56 130t135 54q81 0 136 -54q56 -54 56 -130t-56 -130q-56 -53 -136 -53zM1105 -12q-80 0 -136 53q-56 54 -56 130t56 129q55 54 136 54q79 0 135 -54q56 -53 56 -129t-56 -130q-56 -53 -135 -53zM1105 91q33 0 56.5 23.5t23.5 56.5q0 35 -23.5 58t-56.5 23
q-34 0 -57.5 -23t-23.5 -58q0 -33 24 -56.5t57 -23.5zM689 95q33 0 55.5 22t22.5 55q0 32 -23.5 54.5t-54.5 22.5t-53.5 -22t-22.5 -55t22.5 -55t53.5 -22z" />
    <glyph glyph-name="guilsinglleft" unicode="&#x2039;" horiz-adv-x="372" 
d="M329 88h-165l-134 203l134 203h165l-139 -203z" />
    <glyph glyph-name="guilsinglright" unicode="&#x203a;" horiz-adv-x="372" 
d="M342 291l-134 -203h-165l139 203l-139 203h165z" />
    <glyph glyph-name="fraction" unicode="&#x2044;" horiz-adv-x="221" 
d="M-114 0h-125l578 739h123z" />
    <glyph glyph-name="uni2070" unicode="&#x2070;" horiz-adv-x="391" 
d="M23 706q0 94 45.5 150t127.5 56t127.5 -56t45.5 -150q0 -93 -45.5 -149t-127.5 -56t-127.5 56t-45.5 149zM196 594q67 0 67 112t-67 112q-68 0 -68 -112t68 -112z" />
    <glyph glyph-name="uni2074" unicode="&#x2074;" horiz-adv-x="372" 
d="M300 674h42v-81h-42v-86h-93v86h-175l-21 61l209 249h80v-229zM207 778l-89 -104h89v104z" />
    <glyph glyph-name="uni2075" unicode="&#x2075;" horiz-adv-x="339" 
d="M175 764q62 0 99.5 -36t37.5 -93q0 -58 -43 -96t-113 -38q-79 0 -141 44l38 79q52 -34 98 -34q29 0 46.5 14t17.5 35t-16 34t-43 13q-34 0 -66 -26l-48 48l24 192h218v-84h-151l-8 -60q24 8 50 8z" />
    <glyph glyph-name="uni2076" unicode="&#x2076;" horiz-adv-x="356" 
d="M197 764q59 0 96.5 -36t37.5 -92q0 -60 -42 -97q-41 -38 -105 -38q-76 0 -118 53t-42 139q0 94 47 156q48 63 138 63q66 0 116 -35l-39 -72q-35 23 -72 23q-41 0 -68.5 -27t-33.5 -71q30 34 85 34zM183 582q24 0 40 15t16 38q0 22 -16 37t-39 15q-24 0 -39.5 -14.5
t-15.5 -37.5t15.5 -38t38.5 -15z" />
    <glyph glyph-name="uni2077" unicode="&#x2077;" horiz-adv-x="304" 
d="M12 809v93h278v-71l-147 -321h-109l140 299h-162z" />
    <glyph glyph-name="uni2078" unicode="&#x2078;" horiz-adv-x="373" 
d="M187 501q-72 0 -114.5 32.5t-42.5 83.5q0 68 79 102v1q-28 11 -44.5 33.5t-16.5 49.5q0 48 38 78.5t101 30.5q62 0 100.5 -30.5t38.5 -78.5q0 -57 -63 -83v-2q80 -32 80 -100q0 -51 -42.5 -84t-113.5 -33zM186 751q33 0 45.5 25.5t-10.5 45.5q-20 20 -54 8.5t-30 -38.5
q0 -17 14 -29t35 -12zM187 581q26 0 42.5 13.5t16.5 34.5t-16.5 34.5t-43.5 13.5q-37 2 -52 -23t0.5 -50t52.5 -23z" />
    <glyph glyph-name="uni2079" unicode="&#x2079;" horiz-adv-x="362" 
d="M172 912q76 0 117 -52.5t41 -141.5q0 -93 -47 -155t-136 -62q-69 0 -116 35l37 72q38 -23 74 -23q41 0 68 27.5t33 73.5q-33 -37 -87 -37q-60 0 -96 35t-36 91q0 61 41 99t107 38zM226 777q0 23 -15.5 38.5t-38.5 15.5q-24 0 -40 -15.5t-16 -38.5q0 -22 15.5 -36.5
t39.5 -14.5t39.5 14.5t15.5 36.5z" />
    <glyph glyph-name="uni2080" unicode="&#x2080;" horiz-adv-x="391" 
d="M23 44q0 94 45.5 150t127.5 56t127.5 -56t45.5 -150q0 -93 -45.5 -149t-127.5 -56t-127.5 56t-45.5 149zM196 -68q67 0 67 112t-67 112q-68 0 -68 -112t68 -112z" />
    <glyph glyph-name="uni2081" unicode="&#x2081;" horiz-adv-x="281" 
d="M8 130l147 110h76v-395h-102v254l-69 -50z" />
    <glyph glyph-name="uni2082" unicode="&#x2082;" horiz-adv-x="347" 
d="M254 10l-75 -76h133v-89h-276v81l129 130q42 44 42 68q0 16 -11.5 26t-30.5 10q-38 0 -96 -55l-48 74q65 71 151 71q60 0 99 -35t39 -90q0 -56 -56 -115z" />
    <glyph glyph-name="uni2083" unicode="&#x2083;" horiz-adv-x="334" 
d="M147 -161q-72 0 -139 40l40 78q57 -27 94 -27q57 0 57 38q0 16 -15.5 26t-40.5 10h-54v85h47q22 0 38 9t16 27q0 32 -47 32q-33 0 -77 -26l-48 71q58 48 138 48q58 0 97 -30q40 -30 40 -74q0 -32 -19.5 -55.5t-52.5 -33.5v-2q39 -9 61 -34.5t22 -61.5q0 -53 -43.5 -86.5
t-113.5 -33.5z" />
    <glyph glyph-name="uni2084" unicode="&#x2084;" horiz-adv-x="372" 
d="M300 12h42v-81h-42v-86h-93v86h-175l-21 61l209 249h80v-229zM207 116l-89 -104h89v104z" />
    <glyph glyph-name="uni2085" unicode="&#x2085;" horiz-adv-x="339" 
d="M175 102q62 0 99.5 -36t37.5 -93q0 -58 -43 -96t-113 -38q-79 0 -141 44l38 79q52 -34 98 -34q29 0 46.5 14t17.5 35t-16 34t-43 13q-34 0 -66 -26l-48 48l24 192h218v-84h-151l-8 -60q24 8 50 8z" />
    <glyph glyph-name="uni2086" unicode="&#x2086;" horiz-adv-x="356" 
d="M197 102q59 0 96.5 -36t37.5 -92q0 -59 -42 -97q-41 -38 -105 -38q-76 0 -118 53t-42 139q0 94 47 156q48 63 138 63q66 0 116 -35l-39 -72q-35 23 -72 23q-41 0 -68.5 -27t-33.5 -71q30 34 85 34zM183 -80q24 0 40 15t16 38q0 22 -16 37t-39 15q-24 0 -39.5 -14.5
t-15.5 -37.5t15.5 -38t38.5 -15z" />
    <glyph glyph-name="uni2087" unicode="&#x2087;" horiz-adv-x="304" 
d="M12 147v93h278v-71l-147 -321h-109l140 299h-162z" />
    <glyph glyph-name="uni2088" unicode="&#x2088;" horiz-adv-x="373" 
d="M187 -161q-72 0 -114.5 32.5t-42.5 83.5q0 68 79 102v1q-28 11 -44.5 33.5t-16.5 49.5q0 48 38 78.5t101 30.5q62 0 100.5 -30.5t38.5 -78.5q0 -57 -63 -83v-2q80 -32 80 -100q0 -51 -42.5 -84t-113.5 -33zM186 89q33 0 45.5 25.5t-10.5 45.5q-20 20 -54 8.5t-30 -38.5
q0 -17 14 -29t35 -12zM187 -81q26 0 42.5 13.5t16.5 34.5t-16.5 34.5t-43.5 13.5q-37 2 -52 -23t0.5 -50t52.5 -23z" />
    <glyph glyph-name="uni2089" unicode="&#x2089;" horiz-adv-x="362" 
d="M172 250q76 0 117 -52.5t41 -141.5q0 -93 -47 -155t-136 -62q-69 0 -116 35l37 72q38 -23 74 -23q41 0 68 27.5t33 73.5q-33 -37 -87 -37q-60 0 -96 35t-36 91q0 61 41 99t107 38zM226 115q0 23 -15.5 38.5t-38.5 15.5q-24 0 -40 -15.5t-16 -38.5q0 -22 15.5 -36.5
t39.5 -14.5t39.5 14.5t15.5 36.5z" />
    <glyph glyph-name="Euro" unicode="&#x20ac;" horiz-adv-x="773" 
d="M561 245h-227q30 -48 78 -75t106 -27q95 0 179 48v-156q-36 -21 -92 -33.5t-108 -12.5q-124 0 -218 70q-95 71 -131 186h-121l40 100h64q-2 24 0 48h-85l40 100h62q34 117 129 188t220 71q66 0 131 -18.5t110 -50.5l-77 -130q-65 45 -141 45q-59 0 -107.5 -28t-78.5 -77
h328l-45 -100h-315q-2 -24 0 -48h300z" />
    <glyph glyph-name="trademark" unicode="&#x2122;" horiz-adv-x="817" 
d="M128 652h-96v87h283v-87h-96v-263h-91v263zM548 555l130 184h69v-350h-89v171l-90 -126h-38l-89 124v-169h-90v350h70z" />
    <glyph glyph-name="estimated" unicode="&#x212e;" horiz-adv-x="950" 
d="M482 -17q-184 0 -312 110q-127 109 -127 273q0 165 127 274q128 111 312 111q183 0 310 -109q129 -109 129 -281v-21q0 -5 -7 -5h-686v-230q0 -3 4 -4q103 -72 250 -72q103 0 189 37t137 105l35 -29q-60 -75 -155.5 -117t-205.5 -42zM228 628v-243h508v244q0 3 -3 4
q-106 73 -251 73q-146 0 -252 -73q-2 -2 -2 -5z" />
    <glyph glyph-name="uni2150" unicode="&#x2150;" horiz-adv-x="897" 
d="M254 347h-101v255l-70 -51l-52 81l148 110h75v-395zM85 0l578 739h124l-577 -739h-125zM575 302v93h278v-71l-147 -321h-109l140 299h-162z" />
    <glyph glyph-name="uni2151" unicode="&#x2151;" horiz-adv-x="921" 
d="M252 347h-101v255l-70 -51l-52 81l148 110h75v-395zM93 0l578 739h123l-576 -739h-125zM722 405q76 0 117 -52.5t41 -141.5q0 -93 -47 -155t-136 -62q-69 0 -116 35l37 72q38 -23 74 -23q41 0 68 27.5t33 73.5q-33 -37 -87 -37q-60 0 -96 35t-36 91q0 61 41 99t107 38z
M776 270q0 23 -15.5 38.5t-38.5 15.5q-24 0 -40 -15.5t-16 -38.5q0 -22 15.5 -36.5t39.5 -14.5t39.5 14.5t15.5 36.5z" />
    <glyph glyph-name="uni2153" unicode="&#x2153;" horiz-adv-x="889" 
d="M253 347h-101v255l-70 -51l-52 81l148 110h75v-395zM86 0l578 739h124l-577 -739h-125zM761 213v-2q39 -9 61 -34.5t22 -61.5q0 -53 -43.5 -86.5t-113.5 -33.5q-72 0 -139 40l40 78q57 -27 94 -27q57 0 57 38q0 16 -15.5 26t-40.5 10h-54v85h47q22 0 38 9t16 27
q0 32 -47 32q-33 0 -77 -26l-48 71q58 48 138 48q58 0 97 -30q40 -30 40 -74q0 -32 -19.5 -55.5t-52.5 -33.5z" />
    <glyph glyph-name="uni2154" unicode="&#x2154;" horiz-adv-x="885" 
d="M46 347v81l129 130q42 44 42 68q0 16 -11.5 26t-30.5 10q-38 0 -96 -55l-48 74q65 71 151 71q60 0 99 -35t39 -90q0 -56 -56 -115l-75 -76h133v-89h-276zM113 0l578 739h124l-577 -739h-125zM752 211v-2q39 -9 61 -34.5t22 -61.5q0 -53 -43.5 -86.5t-113.5 -33.5
q-72 0 -139 40l40 78q57 -27 94 -27q57 0 57 38q0 16 -15.5 26t-40.5 10h-54v85h47q21 0 37.5 9.5t16.5 26.5q0 32 -47 32q-33 0 -77 -26l-48 71q59 48 138 48q58 0 97 -30q40 -30 40 -74q0 -32 -19.5 -55.5t-52.5 -33.5z" />
    <glyph glyph-name="uni2155" unicode="&#x2155;" horiz-adv-x="879" 
d="M252 347h-101v255l-70 -51l-52 81l148 110h75v-395zM88 0l578 739h124l-577 -739h-125zM710 257q62 0 99.5 -36t37.5 -93q0 -58 -43 -96t-113 -38q-79 0 -141 44l38 79q52 -34 98 -34q29 0 46.5 14t17.5 35t-16 34t-43 13q-32 0 -66 -26l-48 48l24 192h218v-84h-151
l-8 -60q24 8 50 8z" />
    <glyph glyph-name="uni2156" unicode="&#x2156;" horiz-adv-x="876" 
d="M46 347v81l129 130q42 44 42 68q0 16 -11.5 26t-30.5 10q-38 0 -96 -55l-48 74q65 71 151 71q60 0 99 -35t39 -90q0 -56 -56 -115l-75 -76h133v-89h-276zM109 0l578 739h124l-577 -739h-125zM686 257q62 0 99.5 -36t37.5 -93q0 -58 -43 -96t-113 -38q-79 0 -141 44l38 79
q52 -34 98 -34q29 0 46.5 14t17.5 35t-16 34t-43 13q-32 0 -66 -26l-48 48l24 192h218v-84h-151l-8 -60q24 8 50 8z" />
    <glyph glyph-name="uni2157" unicode="&#x2157;" horiz-adv-x="839" 
d="M154 432q57 0 57 38q0 16 -15.5 26t-40.5 10h-54v85h47q22 0 38 9t16 27q0 32 -47 32q-33 0 -77 -26l-48 71q58 48 138 48q58 0 97 -30q40 -30 40 -74q0 -32 -19.5 -55.5t-52.5 -33.5v-2q39 -9 61 -34.5t22 -61.5q0 -53 -43.5 -86.5t-113.5 -33.5q-72 0 -139 40l40 78
q57 -27 94 -27zM75 0l578 739h124l-577 -739h-125zM658 257q62 0 99.5 -36t37.5 -93q0 -58 -43 -96t-113 -38q-79 0 -141 44l38 79q52 -34 98 -34q29 0 46.5 14t17.5 35t-16 34t-43 13q-32 0 -66 -26l-48 48l24 192h218v-84h-151l-8 -60q24 8 50 8z" />
    <glyph glyph-name="uni2158" unicode="&#x2158;" horiz-adv-x="898" 
d="M314 347h-93v86h-175l-21 61l209 249h80v-229h42v-81h-42v-86zM125 0l578 739h124l-576 -739h-126zM221 618l-89 -104h89v104zM704 257q62 0 99.5 -36t37.5 -93q0 -58 -43 -96t-113 -38q-79 0 -141 44l38 79q52 -34 98 -34q29 0 46.5 14t17.5 35t-16 34t-43 13
q-32 0 -66 -26l-48 48l24 192h218v-84h-151l-8 -60q24 8 50 8z" />
    <glyph glyph-name="uni2159" unicode="&#x2159;" horiz-adv-x="869" 
d="M252 347h-101v255l-70 -51l-52 81l148 110h75v-395zM84 0l578 739h123l-576 -739h-125zM703 257q62 0 99.5 -36t37.5 -93q0 -58 -43 -96t-113 -38q-79 0 -141 44l38 79q52 -34 98 -34q29 0 46.5 14t17.5 35t-16 34t-43 13q-32 0 -66 -26l-48 48l24 192h218v-84h-151
l-8 -60q24 8 50 8z" />
    <glyph glyph-name="uni215A" unicode="&#x215a;" horiz-adv-x="880" 
d="M161 430q29 0 46.5 14t17.5 35t-16 34t-43 13q-34 0 -66 -26l-48 48l24 192h218v-84h-151l-8 -60q24 8 50 8q62 0 99.5 -36t37.5 -93q0 -58 -43 -96t-113 -38q-79 0 -141 44l38 79q52 -34 98 -34zM97 0l578 739h124l-577 -739h-125zM701 257q59 0 96.5 -36t37.5 -92
q0 -59 -42 -97q-41 -38 -105 -38q-76 0 -118 53t-42 139q0 94 47 156q48 63 138 63q66 0 116 -35l-39 -72q-35 23 -72 23q-41 0 -68.5 -27t-33.5 -71q30 34 85 34zM687 75q24 0 40 15t16 38q0 22 -16 37t-39 15q-24 0 -39.5 -14.5t-15.5 -37.5t15.5 -38t38.5 -15z" />
    <glyph glyph-name="oneeighth" unicode="&#x215b;" horiz-adv-x="897" 
d="M252 347h-101v255l-70 -51l-52 81l148 110h75v-395zM93 0l578 739h123l-576 -739h-125zM781 213v-2q80 -32 80 -100q0 -51 -42.5 -84t-113.5 -33q-72 0 -114.5 32.5t-42.5 83.5q0 68 79 102v1q-28 11 -44.5 33.5t-16.5 49.5q0 48 38 78.5t101 30.5q62 0 100.5 -30.5
t38.5 -78.5q0 -58 -63 -83zM655 285q0 -17 14 -29t35 -12q33 0 45.5 25.5t-10.5 45.5q-20 20 -54 8.5t-30 -38.5zM705 74q26 0 42.5 13.5t16.5 34.5t-16.5 34.5t-43.5 13.5q-37 2 -52 -23t0.5 -50t52.5 -23z" />
    <glyph glyph-name="threeeighths" unicode="&#x215c;" horiz-adv-x="872" 
d="M159 341q-72 0 -139 40l40 78q57 -27 94 -27q57 0 57 38q0 16 -15.5 26t-40.5 10h-54v85h47q22 0 38 9t16 27q0 32 -47 32q-33 0 -77 -26l-48 71q58 48 138 48q58 0 97 -30q40 -30 40 -74q0 -32 -19.5 -55.5t-52.5 -33.5v-2q39 -9 61 -34.5t22 -61.5q0 -53 -43.5 -86.5
t-113.5 -33.5zM220 0h-125l578 739h124zM683 -6q-72 0 -114.5 32.5t-42.5 83.5q0 68 79 102v1q-28 11 -44.5 33.5t-16.5 49.5q0 48 38 78.5t101 30.5q62 0 100.5 -30.5t38.5 -78.5q0 -58 -63 -83v-2q80 -32 80 -100q0 -51 -42.5 -84t-113.5 -33zM682 244q33 0 45.5 25.5
t-10.5 45.5q-20 20 -54 8.5t-30 -38.5q0 -17 14 -29t35 -12zM683 74q26 0 42.5 13.5t16.5 34.5t-16.5 34.5t-43.5 13.5q-37 2 -52 -23t0.5 -50t52.5 -23z" />
    <glyph glyph-name="fiveeighths" unicode="&#x215d;" horiz-adv-x="887" 
d="M161 430q29 0 46.5 14t17.5 35t-16 34t-43 13q-34 0 -66 -26l-48 48l24 192h218v-84h-151l-8 -60q24 8 50 8q62 0 99.5 -36t37.5 -93q0 -58 -43 -96t-113 -38q-79 0 -141 44l38 79q52 -34 98 -34zM111 0l578 739h123l-576 -739h-125zM775 213v-2q80 -32 80 -100
q0 -51 -42.5 -84t-113.5 -33q-72 0 -114.5 32.5t-42.5 83.5q0 68 79 102v1q-28 11 -44.5 33.5t-16.5 49.5q0 48 38 78.5t101 30.5q62 0 100.5 -30.5t38.5 -78.5q0 -58 -63 -83zM649 285q0 -17 14 -29t35 -12q33 0 45.5 25.5t-10.5 45.5q-20 20 -54 8.5t-30 -38.5zM699 74
q26 0 42.5 13.5t16.5 34.5t-16.5 34.5t-43.5 13.5q-37 2 -52 -23t0.5 -50t52.5 -23z" />
    <glyph glyph-name="seveneighths" unicode="&#x215e;" horiz-adv-x="822" 
d="M163 350h-109l140 299h-162v93h278v-71zM40 0l578 739h124l-577 -739h-125zM710 213v-2q80 -32 80 -100q0 -51 -42.5 -84t-113.5 -33q-72 0 -114.5 32.5t-42.5 83.5q0 68 79 102v1q-28 11 -44.5 33.5t-16.5 49.5q0 48 38 78.5t101 30.5q62 0 100.5 -30.5t38.5 -78.5
q0 -58 -63 -83zM584 285q0 -17 14 -29t35 -12q33 0 45.5 25.5t-10.5 45.5q-20 20 -54 8.5t-30 -38.5zM634 74q26 0 42.5 13.5t16.5 34.5t-16.5 34.5t-43.5 13.5q-37 2 -52 -23t0.5 -50t52.5 -23z" />
    <glyph glyph-name="partialdiff" unicode="&#x2202;" horiz-adv-x="621" 
d="M290 -12q-112 0 -185 72t-73 181t67 179q68 72 173 74q85 1 143 -66q-27 82 -90.5 152t-149.5 118l93 111q90 -46 163 -119q46 -46 76 -93q76 -112 76 -258q0 -151 -82 -251q-81 -100 -211 -100zM296 123q48 0 81 35q34 34 34 85q0 50 -32 83t-80 33t-80.5 -34t-32.5 -84
q0 -49 31 -83q32 -35 79 -35z" />
    <glyph glyph-name="product" unicode="&#x220f;" horiz-adv-x="764" 
d="M33 734h697v-159h-91v-693h-166v693h-182v-693h-166v693h-92v159z" />
    <glyph glyph-name="summation" unicode="&#x2211;" horiz-adv-x="659" 
d="M624 -179h-580v132l203 326l-203 328v132h580v-154h-373l180 -306l-180 -304h373v-154z" />
    <glyph glyph-name="minus" unicode="&#x2212;" horiz-adv-x="584" 
d="M523 258h-462v146h462v-146z" />
    <glyph glyph-name="radical" unicode="&#x221a;" horiz-adv-x="758" 
d="M439 -118h-139l-169 432h-128v145h249l120 -340l234 689h175z" />
    <glyph glyph-name="infinity" unicode="&#x221e;" horiz-adv-x="954" 
d="M699 582q91 0 152 -63q63 -62 63 -149t-64 -150q-65 -62 -153 -62q-59 0 -105 30q-45 29 -115 99q-75 -73 -120 -100q-49 -29 -105 -29q-89 0 -151 62q-61 61 -61 150q0 87 63 149q63 63 151 63q52 0 100 -27q51 -28 123 -97q73 70 121 97q50 27 101 27zM174 367
q0 -34 23 -58.5t55 -24.5q28 0 59 20t80 68q-86 80 -132 80q-36 0 -60.5 -24.5t-24.5 -60.5zM693 284q36 0 61.5 25t25.5 60t-25.5 59t-61.5 24q-29 0 -58 -18t-72 -60q54 -55 79 -73q26 -17 51 -17z" />
    <glyph glyph-name="integral" unicode="&#x222b;" horiz-adv-x="496" 
d="M111 -210q-73 0 -132 32l34 132q35 -20 71 -20q41 0 65.5 28t24.5 85v546q0 114 55.5 172.5t149.5 58.5q75 0 141 -36l-43 -131q-34 20 -71 20q-41 0 -65 -28t-24 -86v-544q0 -61 -19 -107.5t-50.5 -72t-66 -37.5t-70.5 -12z" />
    <glyph glyph-name="approxequal" unicode="&#x2248;" horiz-adv-x="651" 
d="M408 383q-52 0 -115 29q-62 30 -86 30q-21 0 -40 -13t-46 -48l-89 75q27 56 74.5 86t105.5 30q52 0 115 -30q64 -29 88 -29q22 0 40.5 14.5t44.5 52.5l94 -78q-68 -119 -186 -119zM413 156q-52 0 -115 29q-62 30 -86 30q-21 0 -40 -13t-46 -48l-89 75q27 56 74.5 86
t105.5 30q53 0 114 -30q64 -29 89 -29q22 0 40.5 14.5t44.5 52.5l94 -78q-68 -119 -186 -119z" />
    <glyph glyph-name="notequal" unicode="&#x2260;" horiz-adv-x="585" 
d="M524 492v-128h-174l-30 -73h204v-128h-256l-42 -103h-86l42 103h-120v128h172l30 73h-202v128h254l43 105h86l-43 -105h122z" />
    <glyph glyph-name="lessequal" unicode="&#x2264;" horiz-adv-x="574" 
d="M507 339v-146l-453 181v107l453 186v-146l-262 -92zM507 162v-128h-457v128h457z" />
    <glyph glyph-name="greaterequal" unicode="&#x2265;" horiz-adv-x="574" 
d="M520 374l-453 -181v146l262 90l-262 92v146l453 -186v-107zM524 34h-457v128h457v-128z" />
    <glyph glyph-name="lozenge" unicode="&#x25ca;" horiz-adv-x="708" 
d="M420 -42h-133l-258 418l258 416h133l258 -416zM213 377l141 -232l140 232l-140 230z" />
    <glyph glyph-name="NULL" horiz-adv-x="0" 
 />
    <glyph glyph-name="Euro.osf" horiz-adv-x="599" 
d="M459 226h-224q21 -57 68.5 -90.5t113.5 -33.5q65 0 150 44v-120q-29 -16 -76.5 -26.5t-88.5 -10.5q-111 0 -193 65q-81 66 -102 172h-100l18 41h-13l39 87h54q19 109 103 179q82 70 196 70q54 0 109 -15t92 -40l-52 -99q-64 37 -133 37t-119.5 -36t-68.5 -96h289l-40 -87
h-3z" />
    <glyph glyph-name="I_J.loclNLD" horiz-adv-x="915" 
d="M78 0v739h166v-739h-166zM556 -12q-141 0 -234 90l76 131q65 -62 144 -62q64 0 101 40t37 109v443h165v-449q0 -152 -82 -227q-81 -75 -207 -75z" />
    <glyph glyph-name="Iacute_J.loclNLD" horiz-adv-x="910" 
d="M234 795h-147l65 188h180zM831 794h-147l65 188h180zM78 0v739h166v-739h-166zM556 -12q-141 0 -234 90l76 131q65 -62 144 -62q64 0 101 40t37 109v443h165v-449q0 -152 -82 -227q-81 -75 -207 -75z" />
    <glyph glyph-name="J.loclNLD" horiz-adv-x="589" 
d="M510 794h-147l65 188h180zM235 -12q-141 0 -234 90l76 131q65 -62 144 -62q64 0 101 40t37 109v443h165v-449q0 -152 -82 -227q-81 -75 -207 -75z" />
    <glyph glyph-name="Jacute" horiz-adv-x="589" 
d="M512 794h-147l65 188h180zM235 -12q-141 0 -234 90l76 131q65 -62 144 -62q64 0 101 40t37 109v443h165v-449q0 -152 -82 -227q-81 -75 -207 -75z" />
    <glyph glyph-name="_1" horiz-adv-x="0" 
 />
    <glyph glyph-name="a.ss02" horiz-adv-x="586" 
d="M280 562q103 0 172 -49q81 -56 81 -189v-324h-141v57q-60 -70 -170 -70q-91 0 -144 50q-51 49 -51 126q0 83 66 128t182 47h45l67 3q-11 86 -115 86q-86 0 -171 -44l-52 116q113 63 231 63zM251 110q53 0 91.5 33.5t43.5 85.5q-51 -3 -93 -3q-60 -1 -88 -14t-28 -45
q0 -26 19.5 -41.5t54.5 -15.5z" />
    <glyph glyph-name="aacute.ss02" horiz-adv-x="586" 
d="M279 807h172l-94 -179h-140zM280 562q103 0 172 -49q81 -56 81 -189v-324h-141v57q-60 -70 -170 -70q-91 0 -144 50q-51 49 -51 126q0 83 66 128t182 47h45l67 3q-11 86 -115 86q-86 0 -171 -44l-52 116q113 63 231 63zM251 110q53 0 91.5 33.5t43.5 85.5q-51 -3 -93 -3
q-60 -1 -88 -14t-28 -45q0 -26 19.5 -41.5t54.5 -15.5z" />
    <glyph glyph-name="abreve.ss02" horiz-adv-x="586" 
d="M101 807h121q2 -37 20.5 -59.5t51.5 -22.5t51.5 22.5t19.5 59.5h123q-6 -87 -58 -136t-136 -49t-135.5 49t-57.5 136zM280 562q103 0 172 -49q81 -56 81 -189v-324h-141v57q-60 -70 -170 -70q-91 0 -144 50q-51 49 -51 126q0 83 66 128t182 47h45l67 3q-11 86 -115 86
q-86 0 -171 -44l-52 116q113 63 231 63zM251 110q53 0 91.5 33.5t43.5 85.5q-51 -3 -93 -3q-60 -1 -88 -14t-28 -45q0 -26 19.5 -41.5t54.5 -15.5z" />
    <glyph glyph-name="acircumflex.ss02" horiz-adv-x="586" 
d="M349 627l-62 86l-63 -86h-145l151 181h118l151 -181h-150zM280 562q103 0 172 -49q81 -56 81 -189v-324h-141v57q-60 -70 -170 -70q-91 0 -144 50q-51 49 -51 126q0 83 66 128t182 47h45l67 3q-11 86 -115 86q-86 0 -171 -44l-52 116q113 63 231 63zM251 110
q53 0 91.5 33.5t43.5 85.5q-51 -3 -93 -3q-60 -1 -88 -14t-28 -45q0 -26 19.5 -41.5t54.5 -15.5z" />
    <glyph glyph-name="acute.case" horiz-adv-x="350" 
d="M188 795h-147l65 188h180z" />
    <glyph glyph-name="adieresis.ss02" horiz-adv-x="586" 
d="M184 617q-39 0 -64.5 25t-25.5 64q0 37 26 62.5t64 25.5t63.5 -25.5t25.5 -62.5q0 -39 -25.5 -64t-63.5 -25zM408 617q-39 0 -64.5 25t-25.5 64q0 37 26 62.5t64 25.5t63.5 -25.5t25.5 -62.5q0 -39 -25.5 -64t-63.5 -25zM280 562q103 0 172 -49q81 -56 81 -189v-324h-141
v57q-60 -70 -170 -70q-91 0 -144 50q-51 49 -51 126q0 83 66 128t182 47h45l67 3q-11 86 -115 86q-86 0 -171 -44l-52 116q113 63 231 63zM251 110q53 0 91.5 33.5t43.5 85.5q-51 -3 -93 -3q-60 -1 -88 -14t-28 -45q0 -26 19.5 -41.5t54.5 -15.5z" />
    <glyph glyph-name="agrave.ss02" horiz-adv-x="586" 
d="M316 807l63 -179h-140l-94 179h171zM280 562q103 0 172 -49q81 -56 81 -189v-324h-141v57q-60 -70 -170 -70q-91 0 -144 50q-51 49 -51 126q0 83 66 128t182 47h45l67 3q-11 86 -115 86q-86 0 -171 -44l-52 116q113 63 231 63zM251 110q53 0 91.5 33.5t43.5 85.5
q-51 -3 -93 -3q-60 -1 -88 -14t-28 -45q0 -26 19.5 -41.5t54.5 -15.5z" />
    <glyph glyph-name="amacron.ss02" horiz-adv-x="586" 
d="M129 774h334v-135l-334 -2v137zM280 562q103 0 172 -49q81 -56 81 -189v-324h-141v57q-60 -70 -170 -70q-91 0 -144 50q-51 49 -51 126q0 83 66 128t182 47h45l67 3q-11 86 -115 86q-86 0 -171 -44l-52 116q113 63 231 63zM251 110q53 0 91.5 33.5t43.5 85.5
q-51 -3 -93 -3q-60 -1 -88 -14t-28 -45q0 -26 19.5 -41.5t54.5 -15.5z" />
    <glyph glyph-name="aogonek.ss02" horiz-adv-x="583" 
d="M518 -137l30 -98q-54 -30 -112 -30t-91 32t-33 84q0 85 96 149h-16v57q-60 -70 -170 -70q-91 0 -144 50q-51 49 -51 126q0 83 66 128t182 47h45l67 3q-11 86 -115 86q-86 0 -171 -44l-52 116q113 63 231 63q103 0 172 -49q81 -56 81 -189v-324q-40 -18 -67 -49.5
t-27 -60.5q0 -18 10.5 -28t26.5 -10q15 0 42 11zM251 110q53 0 91.5 33.5t43.5 85.5q-51 -3 -93 -3q-60 -1 -88 -14t-28 -45q0 -26 19.5 -41.5t54.5 -15.5z" />
    <glyph glyph-name="aring.ss02" horiz-adv-x="586" 
d="M433 741q0 -55 -41 -94q-40 -39 -98 -39q-57 0 -98 38q-40 39 -40 95t40 95t98 39t98 -39q41 -39 41 -95zM294 793q-22 0 -37 -14.5t-15 -35.5q0 -22 15 -37t37 -15q21 0 36 15t15 37q0 21 -15 35.5t-36 14.5zM280 562q103 0 172 -49q81 -56 81 -189v-324h-141v57
q-60 -70 -170 -70q-91 0 -144 50q-51 49 -51 126q0 83 66 128t182 47h45l67 3q-11 86 -115 86q-86 0 -171 -44l-52 116q113 63 231 63zM251 110q53 0 91.5 33.5t43.5 85.5q-51 -3 -93 -3q-60 -1 -88 -14t-28 -45q0 -26 19.5 -41.5t54.5 -15.5z" />
    <glyph glyph-name="at.case" horiz-adv-x="964" 
d="M577 531v39h117v-252q0 -28 11.5 -43.5t28.5 -15.5q33 0 58 43q27 43 27 109q0 131 -96 219q-95 88 -232 86q-141 -3 -241 -104q-98 -101 -98 -243q0 -146 103 -249t251 -103q69 0 138.5 24t123.5 66l52 -89q-50 -44 -136 -75q-88 -32 -182 -32q-128 0 -235 63
q-106 61 -168 167q-60 105 -60 229q0 188 132 319q132 132 323 132q189 0 313 -118q125 -119 125 -285q0 -116 -63 -193q-61 -76 -154 -76q-86 0 -119 72q-52 -72 -149 -72q-86 0 -145 62q-58 61 -58 155t58 156q58 63 146 63q81 0 129 -54zM471 260q43 0 73.5 30.5
t30.5 75.5q0 46 -30 78q-29 32 -73 32t-75 -31q-30 -31 -30 -77t30 -77t74 -31z" />
    <glyph glyph-name="atilde.ss02" horiz-adv-x="586" 
d="M237 670q-37 0 -66 -51l-99 49q30 62 66 91.5t87 29.5q34 0 75 -22q42 -21 58 -21q17 0 30 11t29 38l99 -47q-48 -122 -142 -122q-32 0 -75 22t-62 22zM280 562q103 0 172 -49q81 -56 81 -189v-324h-141v57q-60 -70 -170 -70q-91 0 -144 50q-51 49 -51 126q0 83 66 128
t182 47h45l67 3q-11 86 -115 86q-86 0 -171 -44l-52 116q113 63 231 63zM251 110q53 0 91.5 33.5t43.5 85.5q-51 -3 -93 -3q-60 -1 -88 -14t-28 -45q0 -26 19.5 -41.5t54.5 -15.5z" />
    <glyph glyph-name="backslash.case" horiz-adv-x="614" 
d="M192 739l403 -739h-173l-405 739h175z" />
    <glyph glyph-name="braceleft.case" horiz-adv-x="428" 
d="M206 371v-3q41 -13 69 -44.5t28 -74.5q0 -24 -6 -86q-6 -61 -6 -87q0 -74 75 -74h26v-152h-77q-185 0 -185 191q0 34 4 86q5 65 5 85q0 50 -27.5 70t-87.5 24v129q62 6 88.5 26t26.5 69q0 18 -5 86q-4 55 -4 91q0 185 194 185h68v-153h-26q-75 0 -75 -74q0 -25 6 -88
q6 -61 6 -85q0 -44 -27.5 -75.5t-69.5 -45.5z" />
    <glyph glyph-name="braceright.case" horiz-adv-x="428" 
d="M222 369v4q-41 13 -69 45t-28 75q0 23 6 86t6 88q0 73 -74 73h-27v153h68q195 0 195 -184q0 -24 -5 -92q-4 -55 -4 -86q0 -50 26 -69.5t89 -25.5v-128q-61 -6 -88 -26t-27 -69q0 -33 4 -85q5 -65 5 -85q0 -192 -185 -192h-78v153h27q74 0 74 74q0 24 -6 86t-6 86
q0 43 28 75t69 44z" />
    <glyph glyph-name="bracketleft.case" horiz-adv-x="430" 
d="M406 -144h-327v1038h327v-142h-167v-755h167v-141z" />
    <glyph glyph-name="bracketright.case" horiz-adv-x="430" 
d="M352 -144h-327v141h167v755h-167v142h327v-1038z" />
    <glyph glyph-name="breve.case" horiz-adv-x="495" 
d="M243 787q-88 0 -142 52t-60 143h127q2 -40 21.5 -63.5t53.5 -23.5q35 0 54.5 24t20.5 63h129q-6 -91 -60.5 -143t-143.5 -52z" />
    <glyph glyph-name="brevecombcy" horiz-adv-x="0" 
d="M-472 706l82 85q38 -47 71 -66t73 -19t73 19t71 66l83 -85q-98 -119 -228 -119t-225 119z" />
    <glyph glyph-name="caron.alt" horiz-adv-x="315" 
d="M156 625h-133l67 184h162z" />
    <glyph glyph-name="caron.case" horiz-adv-x="556" 
d="M222 793l-151 181h145l63 -86l62 86h150l-151 -181h-118z" />
    <glyph glyph-name="cedilla.case" horiz-adv-x="355" 
d="M239 18l-27 -66q46 -3 76.5 -31.5t30.5 -71.5q0 -52 -41 -87.5t-111 -35.5q-61 0 -127 31l32 88q44 -21 81 -21q24 0 37.5 10t13.5 26q0 33 -57 33h-53l-8 29l39 98z" />
    <glyph glyph-name="circumflex.case" horiz-adv-x="544" 
d="M192 795h-153l159 190h124l159 -190h-158l-65 90z" />
    <glyph glyph-name="colon.case" horiz-adv-x="300" 
d="M152 435q-38 0 -63.5 25t-25.5 63q0 37 25.5 62t63.5 25q36 0 61 -25t25 -62q0 -38 -25 -63t-61 -25zM152 97q-38 0 -63.5 25t-25.5 63q0 37 25.5 62t63.5 25q36 0 61 -25t25 -62q0 -38 -25 -63t-61 -25z" />
    <glyph glyph-name="comma.ss03" horiz-adv-x="270" 
d="M4 -181l83 322h152l-112 -322h-123z" />
    <glyph glyph-name="commaccent" horiz-adv-x="256" 
d="M140 -62q39 0 66 -26.5t27 -68.5q0 -47 -35.5 -91.5t-116.5 -103.5l-53 67q55 41 78 64q-24 8 -38.5 29t-14.5 47q0 34 25.5 58.5t61.5 24.5z" />
    <glyph glyph-name="commaccent.case" horiz-adv-x="248" 
d="M146 -64q41 0 68.5 -27.5t27.5 -70.5q0 -49 -37 -95.5t-119 -105.5l-55 69q53 39 81 66q-24 8 -39.5 29.5t-15.5 48.5q0 36 25.5 61t63.5 25z" />
    <glyph glyph-name="dieresis.case" horiz-adv-x="499" 
d="M42 888q0 37 26.5 63t64.5 26t64 -25.5t26 -63.5q0 -39 -25.5 -64.5t-64.5 -25.5t-65 25.5t-26 64.5zM360 798q-39 0 -65 25.5t-26 64.5q0 37 26.5 63t64.5 26t64 -26t26 -63q0 -39 -26 -64.5t-64 -25.5z" />
    <glyph glyph-name="dollar.osf" horiz-adv-x="530" 
d="M505 171q0 -64 -44.5 -110.5t-117.5 -64.5v-119h-136v115q-119 21 -184 117l94 90q27 -37 67.5 -59t84.5 -22q35 0 55.5 13t20.5 35q0 17 -12.5 28t-42.5 24q-99 40 -140 65q-94 58 -94 142q0 66 41.5 110.5t114.5 59.5v111h136v-111q76 -15 143 -70l-77 -102
q-70 52 -136 52q-34 0 -53.5 -12t-19.5 -32q0 -17 16.5 -30.5t55.5 -29.5l46 -20q63 -25 90 -40q92 -53 92 -140z" />
    <glyph glyph-name="dotaccent.case" horiz-adv-x="301" 
d="M134 796q-40 0 -67 26.5t-27 66.5t27 66.5t67 26.5q39 0 66 -26.5t27 -66.5t-27 -66.5t-66 -26.5z" />
    <glyph glyph-name="eight.dnom" horiz-adv-x="373" 
d="M187 -6q-72 0 -114.5 32.5t-42.5 83.5q0 68 79 102v1q-28 11 -44.5 33.5t-16.5 49.5q0 48 38 78.5t101 30.5q62 0 100.5 -30.5t38.5 -78.5q0 -58 -63 -83v-2q80 -32 80 -100q0 -51 -42.5 -84t-113.5 -33zM186 244q33 0 45.5 25.5t-10.5 45.5q-20 20 -54 8.5t-30 -38.5
q0 -17 14 -29t35 -12zM187 74q26 0 42.5 13.5t16.5 34.5t-16.5 34.5t-43.5 13.5q-37 2 -52 -23t0.5 -50t52.5 -23z" />
    <glyph glyph-name="eight.lf" horiz-adv-x="639" 
d="M320 -12q-126 0 -203 60q-77 62 -77 157q0 63 36.5 114t99.5 73v2q-105 52 -105 160q0 86 68 142q70 56 181 56q110 0 180 -56q69 -55 69 -142q0 -54 -28.5 -95t-78.5 -65v-3q63 -22 100.5 -72.5t37.5 -113.5q0 -95 -78 -157q-76 -60 -202 -60zM320 618
q-45 0 -72.5 -23.5t-27.5 -59.5q0 -35 27 -59q28 -23 72 -23q45 0 71 23q27 22 27 59q0 36 -26.5 59.5t-70.5 23.5zM205 225q0 -41 32 -66.5t83 -25.5t82.5 25.5t31.5 65.5t-31.5 65.5t-82.5 25.5t-83 -25.5t-32 -64.5z" />
    <glyph glyph-name="eight.num" horiz-adv-x="373" 
d="M187 341q-72 0 -114.5 32.5t-42.5 83.5q0 68 79 102v1q-28 11 -44.5 33.5t-16.5 49.5q0 48 38 78.5t101 30.5q62 0 100.5 -30.5t38.5 -78.5q0 -57 -63 -83v-2q80 -32 80 -100q0 -51 -42.5 -84t-113.5 -33zM186 591q33 0 45.5 25.5t-10.5 45.5q-20 20 -54 8.5t-30 -38.5
q0 -17 14 -29t35 -12zM187 421q26 0 42.5 13.5t16.5 34.5t-16.5 34.5t-43.5 13.5q-37 2 -52 -23t0.5 -50t52.5 -23z" />
    <glyph glyph-name="eight.osf" horiz-adv-x="633" 
d="M317 -11q-127 0 -203 58q-77 59 -77 150q0 60 37 108.5t99 69.5v2q-49 21 -77 61t-28 91q0 83 68 136q69 54 181 54q111 0 180 -54q69 -53 69 -136q0 -104 -107 -152v-3q63 -20 100 -68.5t37 -108.5q0 -91 -77 -150q-76 -58 -202 -58zM415 511q0 34 -27 56t-71 22
q-45 0 -73 -22t-28 -56q0 -33 28 -55t72 -22t71.5 22t27.5 55zM317 129q50 0 82 24.5t32 61.5t-31.5 61t-82.5 24q-52 0 -84 -23.5t-32 -60.5q0 -38 32.5 -62.5t83.5 -24.5z" />
    <glyph glyph-name="eight.tf" horiz-adv-x="628" 
d="M314 -12q-126 0 -203 60q-77 62 -77 157q0 63 36.5 114t99.5 73v2q-105 51 -105 160q0 86 68 142q70 56 181 56q110 0 180 -56q69 -55 69 -142q0 -54 -28.5 -95t-78.5 -65v-3q63 -22 100.5 -72.5t37.5 -113.5q0 -95 -78 -157q-76 -60 -202 -60zM314 618
q-45 0 -72.5 -23.5t-27.5 -59.5q0 -35 27 -59q28 -23 72 -23q45 0 71 23q27 22 27 59q0 36 -26.5 59.5t-70.5 23.5zM199 225q0 -41 32 -66.5t83 -25.5t82.5 25.5t31.5 65.5t-31.5 65.5t-82.5 25.5t-83 -25.5t-32 -64.5z" />
    <glyph glyph-name="eight_fraction_nine" horiz-adv-x="882" 
d="M346 458q0 -51 -42.5 -84t-113.5 -33q-72 0 -114.5 32.5t-42.5 83.5q0 68 79 102v1q-28 11 -44.5 33.5t-16.5 49.5q0 48 38 78.5t101 30.5q62 0 100.5 -30.5t38.5 -78.5q0 -57 -63 -83v-2q80 -32 80 -100zM91 0l578 739h124l-577 -739h-125zM140 632q0 -17 14 -29t35 -12
q33 0 45.5 25.5t-10.5 45.5q-20 20 -54 8.5t-30 -38.5zM190 421q26 0 42.5 13.5t16.5 34.5t-16.5 34.5t-43.5 13.5q-37 2 -52 -23t0.5 -50t52.5 -23zM685 405q76 0 117 -52.5t41 -141.5q0 -93 -47 -155t-136 -62q-69 0 -116 35l37 72q38 -23 74 -23q41 0 68 27.5t33 73.5
q-33 -37 -87 -37q-60 0 -96 35t-36 91q0 61 41 99t107 38zM739 270q0 23 -15.5 38.5t-38.5 15.5q-24 0 -40 -15.5t-16 -38.5q0 -22 15.5 -36.5t39.5 -14.5t39.5 14.5t15.5 36.5z" />
    <glyph glyph-name="emdash.case" horiz-adv-x="1048" 
d="M987 293h-925v158h925v-158z" />
    <glyph glyph-name="endash.case" horiz-adv-x="729" 
d="M668 293h-606v158h606v-158z" />
    <glyph glyph-name="exclamdown.case" horiz-adv-x="306" 
d="M171 757q36 0 61 -25.5t25 -63.5q0 -36 -25.5 -61t-60.5 -25q-38 0 -64 25t-26 61q0 38 26 63.5t64 25.5zM88 -14l9 544h143l11 -544h-163z" />
    <glyph glyph-name="five.dnom" horiz-adv-x="339" 
d="M175 257q62 0 99.5 -36t37.5 -93q0 -58 -43 -96t-113 -38q-79 0 -141 44l38 79q52 -34 98 -34q29 0 46.5 14t17.5 35t-16 34t-43 13q-34 0 -66 -26l-48 48l24 192h218v-84h-151l-8 -60q24 8 50 8z" />
    <glyph glyph-name="five.lf" horiz-adv-x="594" 
d="M309 474q106 0 177 -65q72 -65 72 -170q0 -108 -76 -180q-77 -71 -204 -71q-134 0 -252 79l63 132q95 -59 181 -59q58 0 90.5 28t32.5 71q0 41 -32 68.5t-81 27.5q-65 0 -118 -47l-92 81l38 370h400v-152h-278l-13 -128q45 15 92 15z" />
    <glyph glyph-name="five.num" horiz-adv-x="339" 
d="M175 604q62 0 99.5 -36t37.5 -93q0 -58 -43 -96t-113 -38q-79 0 -141 44l38 79q52 -34 98 -34q29 0 46.5 14t17.5 35t-16 34t-43 13q-34 0 -66 -26l-48 48l24 192h218v-84h-151l-8 -60q24 8 50 8z" />
    <glyph glyph-name="five.osf" horiz-adv-x="578" 
d="M302 341q106 0 176 -61q72 -62 72 -159q0 -100 -77 -168q-76 -67 -203 -67q-133 0 -251 73l63 126q96 -54 180 -54q57 0 90 25t33 63q0 36 -32 61.5t-80 25.5q-65 0 -118 -42l-92 79l38 345h399v-143h-277l-13 -119q45 15 92 15z" />
    <glyph glyph-name="five.tf" horiz-adv-x="628" 
d="M321 474q106 0 177 -65q72 -65 72 -170q0 -108 -76 -180q-77 -71 -204 -71q-134 0 -252 79l63 132q95 -59 181 -59q58 0 90.5 28t32.5 71q0 41 -32 68.5t-81 27.5q-65 0 -118 -47l-92 81l38 370h400v-152h-278l-13 -128q45 15 92 15z" />
    <glyph glyph-name="five_fraction_nine" horiz-adv-x="880" 
d="M161 430q29 0 46.5 14t17.5 35t-16 34t-43 13q-34 0 -66 -26l-48 48l24 192h218v-84h-151l-8 -60q24 8 50 8q62 0 99.5 -36t37.5 -93q0 -58 -43 -96t-113 -38q-79 0 -141 44l38 79q52 -34 98 -34zM88 0l578 739h124l-577 -739h-125zM682 405q76 0 117 -52.5t41 -141.5
q0 -93 -47 -155t-136 -62q-69 0 -116 35l37 72q38 -23 74 -23q41 0 68 27.5t33 73.5q-33 -37 -87 -37q-60 0 -96 35t-36 91q0 61 41 99t107 38zM736 270q0 23 -15.5 38.5t-38.5 15.5q-24 0 -40 -15.5t-16 -38.5q0 -22 15.5 -36.5t39.5 -14.5t39.5 14.5t15.5 36.5z" />
    <glyph glyph-name="five_fraction_seven" horiz-adv-x="873" 
d="M165 430q29 0 46.5 14t17.5 35t-16 34t-43 13q-34 0 -66 -26l-48 48l24 192h218v-84h-151l-8 -60q24 8 50 8q62 0 99.5 -36t37.5 -93q0 -58 -43 -96t-113 -38q-79 0 -141 44l38 79q52 -34 98 -34zM85 0l578 739h124l-577 -739h-125zM553 302v93h278v-71l-147 -321h-109
l140 299h-162z" />
    <glyph glyph-name="four.dnom" horiz-adv-x="372" 
d="M300 167h42v-81h-42v-86h-93v86h-175l-21 61l209 249h80v-229zM207 271l-89 -104h89v104z" />
    <glyph glyph-name="four.lf" horiz-adv-x="623" 
d="M507 303h79v-136h-79v-167h-153v167h-319l-32 107l381 465h123v-436zM354 514l-170 -211h170v211z" />
    <glyph glyph-name="four.num" horiz-adv-x="372" 
d="M300 514h42v-81h-42v-86h-93v86h-175l-21 61l209 249h80v-229zM207 618l-89 -104h89v104z" />
    <glyph glyph-name="four.osf" horiz-adv-x="626" 
d="M512 191h79v-132h-79v-159h-152v159h-315l-32 105l377 426h122v-399zM360 377l-162 -186h162v186z" />
    <glyph glyph-name="four.tf" horiz-adv-x="628" 
d="M520 303h79v-136h-79v-167h-153v167h-319l-32 107l381 465h123v-436zM367 514l-170 -211h170v211z" />
    <glyph glyph-name="four_fraction_nine" horiz-adv-x="964" 
d="M315 347h-93v86h-175l-21 61l209 249h80v-229h42v-81h-42v-86zM157 0l578 739h124l-577 -739h-125zM222 618l-89 -104h89v104zM758 405q76 0 117 -52.5t41 -141.5q0 -93 -47 -155t-136 -62q-69 0 -116 35l37 72q38 -23 74 -23q41 0 68 27.5t33 73.5q-33 -37 -87 -37
q-60 0 -96 35t-36 91q0 61 41 99t107 38zM812 270q0 23 -15.5 38.5t-38.5 15.5q-24 0 -40 -15.5t-16 -38.5q0 -22 15.5 -36.5t39.5 -14.5t39.5 14.5t15.5 36.5z" />
    <glyph glyph-name="four_fraction_seven" horiz-adv-x="925" 
d="M315 347h-93v86h-175l-21 61l209 249h80v-229h42v-81h-42v-86zM131 0l578 739h124l-577 -739h-125zM222 618l-89 -104h89v104zM599 302v93h278v-71l-147 -321h-109l140 299h-162z" />
    <glyph glyph-name="grave.case" horiz-adv-x="344" 
d="M222 984l66 -189h-149l-99 189h182z" />
    <glyph glyph-name="guillemotleft.case" horiz-adv-x="618" 
d="M333 171h-165l-134 203l134 203h165l-139 -203zM572 171h-166l-133 203l133 203h166l-139 -203z" />
    <glyph glyph-name="guillemotright.case" horiz-adv-x="618" 
d="M345 374l-132 -203h-167l139 203l-139 203h166zM584 374l-134 -203h-165l139 203l-139 203h165z" />
    <glyph glyph-name="guilsinglleft.case" horiz-adv-x="380" 
d="M333 171h-165l-134 203l134 203h165l-139 -203z" />
    <glyph glyph-name="guilsinglright.case" horiz-adv-x="380" 
d="M346 374l-134 -203h-165l139 203l-139 203h165z" />
    <glyph glyph-name="hungarumlaut.case" horiz-adv-x="574" 
d="M180 795h-135l45 188h171zM401 795h-141l65 188h177z" />
    <glyph glyph-name="hyphen.case" horiz-adv-x="543" 
d="M481 293h-419v158h419v-158z" />
    <glyph glyph-name="i.loclTRK" horiz-adv-x="278" 
d="M143 604q-40 0 -67 26.5t-27 66.5t27 66.5t67 26.5q39 0 66 -26.5t27 -66.5t-27 -66.5t-66 -26.5zM220 548v-548h-157v548h157z" />
    <glyph glyph-name="i_j.loclNLD" horiz-adv-x="605" 
d="M143 604q-40 0 -67 26.5t-27 66.5t27 66.5t67 26.5q39 0 66 -26.5t27 -66.5t-27 -66.5t-66 -26.5zM427 604q-40 0 -67 26.5t-27 66.5t27 66.5t67 26.5q39 0 66 -26.5t27 -66.5t-27 -66.5t-66 -26.5zM220 548v-548h-157v548h157zM285 -234q-89 0 -135 31l30 123
q41 -16 78 -16q90 0 90 106v538h157v-550q0 -113 -59.5 -172.5t-160.5 -59.5z" />
    <glyph glyph-name="iacute_j.loclNLD" horiz-adv-x="566" 
d="M206 628h-140l62 179h172zM500 628h-140l62 179h172zM217 548v-548h-157v548h157zM285 -234q-89 0 -135 31l30 123q41 -16 78 -16q90 0 90 106v538h157v-550q0 -113 -59.5 -172.5t-160.5 -59.5z" />
    <glyph glyph-name="j.loclNLD" horiz-adv-x="302" 
d="M163 604q-40 0 -67 26.5t-27 66.5t27 66.5t67 26.5q39 0 66 -26.5t27 -66.5t-27 -66.5t-66 -26.5zM21 -234q-89 0 -135 31l30 123q41 -16 78 -16q90 0 90 106v538h157v-550q0 -113 -59.5 -172.5t-160.5 -59.5z" />
    <glyph glyph-name="jacute" horiz-adv-x="302" 
d="M226 628h-140l62 179h172zM21 -234q-89 0 -135 31l30 123q41 -16 78 -16q90 0 90 106v538h157v-550q0 -113 -59.5 -172.5t-160.5 -59.5z" />
    <glyph glyph-name="macron.case" horiz-adv-x="481" 
d="M420 814l-378 -2v137h378v-135z" />
    <glyph glyph-name="nine.dnom" horiz-adv-x="362" 
d="M172 405q76 0 117 -52.5t41 -141.5q0 -93 -47 -155t-136 -62q-69 0 -116 35l37 72q38 -23 74 -23q41 0 68 27.5t33 73.5q-33 -37 -87 -37q-60 0 -96 35t-36 91q0 61 41 99t107 38zM226 270q0 23 -15.5 38.5t-38.5 15.5q-24 0 -40 -15.5t-16 -38.5q0 -22 15.5 -36.5
t39.5 -14.5t39.5 14.5t15.5 36.5z" />
    <glyph glyph-name="nine.lf" horiz-adv-x="625" 
d="M306 752q136 0 210 -99q74 -100 74 -257q0 -82 -19.5 -154.5t-58 -129.5t-101 -90.5t-142.5 -33.5q-124 0 -208 66l60 122q64 -43 137 -43q74 0 117.5 49.5t55.5 138.5q-56 -56 -156 -56q-103 0 -170 66q-67 67 -67 170q0 109 74 180q76 71 194 71zM303 402q46 0 76 29.5
t30 74.5q0 46 -30.5 76t-75.5 30q-46 0 -76 -29.5t-30 -76.5q0 -45 30.5 -74.5t75.5 -29.5z" />
    <glyph glyph-name="nine.num" horiz-adv-x="362" 
d="M172 752q76 0 117 -52.5t41 -141.5q0 -93 -47 -155t-136 -62q-69 0 -116 35l37 72q38 -23 74 -23q41 0 68 27.5t33 73.5q-33 -37 -87 -37q-60 0 -96 35t-36 91q0 61 41 99t107 38zM226 617q0 23 -15.5 38.5t-38.5 15.5q-24 0 -40 -15.5t-16 -38.5q0 -22 15.5 -36.5
t39.5 -14.5t39.5 14.5t15.5 36.5z" />
    <glyph glyph-name="nine.osf" horiz-adv-x="612" 
d="M295 612q135 0 207 -95q73 -94 73 -243q0 -106 -33 -192t-106 -141t-177 -55q-121 0 -206 63l60 118q62 -40 135 -40t116.5 46t53.5 129q-55 -53 -153 -53q-101 0 -168 63q-66 64 -66 162q0 103 73 170q74 68 191 68zM293 474q-45 0 -75.5 -28t-30.5 -70t30 -69t75 -27
t75 27q31 27 31 69t-30.5 70t-74.5 28z" />
    <glyph glyph-name="nine.tf" horiz-adv-x="628" 
d="M307 752q137 0 210 -99q74 -100 74 -257q0 -82 -19.5 -154.5t-58 -129.5t-101 -90.5t-142.5 -33.5q-124 0 -208 66l60 122q64 -43 137 -43q74 0 117.5 49.5t55.5 138.5q-56 -56 -156 -56q-102 0 -170 66q-67 67 -67 170q0 109 74 180q76 71 194 71zM304 402q46 0 76 29.5
t30 74.5q0 46 -30.5 76t-75.5 30q-46 0 -76 -29.5t-30 -76.5q0 -45 30.5 -74.5t75.5 -29.5z" />
    <glyph glyph-name="ogonek.case" horiz-adv-x="329" 
d="M246 -137l30 -98q-54 -30 -112 -30t-91 32t-33 84q0 98 126 167l95 -18q-40 -18 -67 -49.5t-27 -60.5q0 -18 10.5 -28t26.5 -10q15 0 42 11z" />
    <glyph glyph-name="one.dnom" horiz-adv-x="281" 
d="M8 285l148 110h75v-395h-101v255l-70 -51z" />
    <glyph glyph-name="one.lf" horiz-adv-x="429" 
d="M-5 555l236 184h120v-739h-161v522l-112 -85z" />
    <glyph glyph-name="one.num" horiz-adv-x="281" 
d="M8 632l147 110h76v-395h-102v254l-69 -50z" />
    <glyph glyph-name="one.numalt" horiz-adv-x="340" 
d="M17 632l148 110h75v-395h-101v255l-70 -51z" />
    <glyph glyph-name="one.osf" horiz-adv-x="517" 
d="M373 594v-458h131v-136h-455v136h167v272l-140 -90l-72 117l243 159h126z" />
    <glyph glyph-name="one.tf" horiz-adv-x="628" 
d="M416 739v-588h150v-152h-467v152h156v371l-112 -85l-83 118l236 184h120z" />
    <glyph glyph-name="parenleft.case" horiz-adv-x="426" 
d="M413 -18l-73 -123q-149 81 -227 213.5t-78 301.5q0 171 79.5 303t231.5 212l68 -126q-207 -139 -207 -389q0 -242 206 -392z" />
    <glyph glyph-name="parenright.case" horiz-adv-x="426" 
d="M85 -141l-72 123q206 150 206 392q0 251 -206 389l67 126q152 -80 231.5 -212t79.5 -303t-78 -302.5t-228 -212.5z" />
    <glyph glyph-name="periodcentered.case" horiz-adv-x="268" 
d="M136 274q-38 0 -63.5 25t-25.5 63q0 37 25.5 62t63.5 25q36 0 61 -25.5t25 -61.5q0 -38 -25 -63t-61 -25z" />
    <glyph glyph-name="questiondown.case" horiz-adv-x="565" 
d="M246 732q26 26 62 26t62 -26q27 -25 27 -62t-26 -62t-63 -25t-62 25t-25 62t25 62zM234 540h152v-63q0 -84 -62 -141q-9 -9 -30.5 -27t-32.5 -29t-25 -27t-20.5 -31.5t-6.5 -32.5q0 -35 25 -57t63 -22q71 0 148 89l97 -108q-102 -129 -257 -129q-109 0 -177 62
q-67 61 -67 155q0 86 68 150l41 36t44.5 41t26 36t13.5 45v53z" />
    <glyph glyph-name="quotedblbase.ss03" horiz-adv-x="517" 
d="M14 -152l83 322h152l-112 -322h-123zM254 -152l83 322h152l-112 -322h-123z" />
    <glyph glyph-name="quotedblleft.ss03" horiz-adv-x="502" 
d="M261 856l-83 -322h-152l112 322h123zM502 856l-83 -322h-152l112 322h123z" />
    <glyph glyph-name="quotedblright.ss03" horiz-adv-x="508" 
d="M23 535l83 322h152l-112 -322h-123zM263 535l83 322h152l-112 -322h-123z" />
    <glyph glyph-name="quoteleft.ss03" horiz-adv-x="257" 
d="M255 856l-83 -322h-152l112 322h123z" />
    <glyph glyph-name="quoteright.ss03" horiz-adv-x="255" 
d="M21 535l83 322h152l-112 -322h-123z" />
    <glyph glyph-name="quotesinglbase.ss03" horiz-adv-x="264" 
d="M-2 -152l83 322h152l-112 -322h-123z" />
    <glyph glyph-name="ring.case" horiz-adv-x="377" 
d="M186 775q-62 0 -103 40q-42 41 -42 99q0 60 42 100q43 41 103 41t103 -42q43 -40 43 -99t-43 -99t-103 -40zM186 862q22 0 37.5 15.5t15.5 38.5q0 22 -15.5 37.5t-37.5 15.5q-23 0 -39 -15.5t-16 -37.5q0 -23 16 -38.5t39 -15.5z" />
    <glyph glyph-name="semicolon.case" horiz-adv-x="311" 
d="M165 431q-39 0 -65.5 26t-26.5 65q0 38 26.5 64t65.5 26q37 0 63 -26t26 -64q0 -39 -26 -65t-63 -26zM160 280q42 0 69 -29.5t27 -73.5q0 -120 -165 -226l-45 60l44 34q44 39 59 65h-3q-31 0 -54 24t-23 57q0 38 27 63.5t64 25.5z" />
    <glyph glyph-name="semicolon.case.ss03" horiz-adv-x="311" 
d="M165 431q-39 0 -65.5 26t-26.5 65q0 38 26.5 64t65.5 26q37 0 63 -26t26 -64q0 -39 -26 -65t-63 -26zM2 -151l83 322h152l-112 -322h-123z" />
    <glyph glyph-name="semicolon.ss03" horiz-adv-x="296" 
d="M156 338q-39 0 -65.5 26t-26.5 65q0 38 26.5 64t65.5 26q37 0 63 -26t26 -64q0 -39 -26 -65t-63 -26zM0 -181l83 322h152l-112 -322h-123z" />
    <glyph glyph-name="seven.dnom" horiz-adv-x="304" 
d="M12 302v93h278v-71l-147 -321h-109l140 299h-162z" />
    <glyph glyph-name="seven.lf" horiz-adv-x="532" 
d="M22 586v153h487v-117l-256 -622h-172l244 586h-303z" />
    <glyph glyph-name="seven.num" horiz-adv-x="304" 
d="M12 649v93h278v-71l-147 -321h-109l140 299h-162z" />
    <glyph glyph-name="seven.osf" horiz-adv-x="519" 
d="M17 439v149h487v-114l-258 -574h-172l243 539h-300z" />
    <glyph glyph-name="seven.tf" horiz-adv-x="628" 
d="M71 591v148h506v-106l-303 -633h-173l288 591h-318z" />
    <glyph glyph-name="seven_fraction_nine" horiz-adv-x="840" 
d="M162 350h-109l140 299h-162v93h278v-71zM33 0l578 739h123l-576 -739h-125zM642 405q76 0 117 -52.5t41 -141.5q0 -93 -47 -155t-136 -62q-69 0 -116 35l37 72q38 -23 74 -23q41 0 68 27.5t33 73.5q-33 -37 -87 -37q-60 0 -96 35t-36 91q0 61 41 99t107 38zM696 270
q0 23 -15.5 38.5t-38.5 15.5q-24 0 -40 -15.5t-16 -38.5q0 -22 15.5 -36.5t39.5 -14.5t39.5 14.5t15.5 36.5z" />
    <glyph glyph-name="six.dnom" horiz-adv-x="356" 
d="M197 257q59 0 96.5 -36t37.5 -92q0 -59 -42 -97q-41 -38 -105 -38q-76 0 -118 53t-42 139q0 94 47 156q48 63 138 63q66 0 116 -35l-39 -72q-35 23 -72 23q-41 0 -68.5 -27t-33.5 -71q30 34 85 34zM183 75q24 0 40 15t16 38q0 22 -16 37t-39 15q-24 0 -39.5 -14.5
t-15.5 -37.5t15.5 -38t38.5 -15z" />
    <glyph glyph-name="six.lf" horiz-adv-x="632" 
d="M359 477q107 0 174 -67q69 -68 69 -169q0 -109 -76 -179q-76 -71 -194 -71q-140 1 -216 101.5t-73 254.5q0 163 78 279q40 59 104.5 92.5t143.5 33.5q116 0 209 -66l-72 -124q-60 42 -129 42q-79 0 -125 -57q-45 -54 -53 -141q53 71 160 71zM439 238q0 44 -30.5 73.5
t-75.5 29.5q-46 0 -77.5 -29t-31.5 -74q0 -46 31 -76.5t77 -30.5t76.5 31t30.5 76z" />
    <glyph glyph-name="six.num" horiz-adv-x="356" 
d="M197 604q59 0 96.5 -36t37.5 -92q0 -60 -42 -97q-41 -38 -105 -38q-76 0 -118 53t-42 139q0 94 47 156q48 63 138 63q66 0 116 -35l-39 -72q-35 23 -72 23q-41 0 -68.5 -27t-33.5 -71q30 34 85 34zM183 422q24 0 40 15t16 38q0 22 -16 37t-39 15q-24 0 -39.5 -14.5
t-15.5 -37.5t15.5 -38t38.5 -15z" />
    <glyph glyph-name="six.osf" horiz-adv-x="621" 
d="M344 455q104 0 172 -65t68 -162q0 -102 -75 -170q-76 -68 -192 -68q-139 0 -212 96q-72 96 -72 244q0 76 19.5 144t58 123t101 87.5t142.5 32.5q113 0 206 -63l-71 -120q-61 40 -127 40q-76 0 -122.5 -52t-53.5 -136q52 69 158 69zM423 226q0 42 -30 69t-75 27
t-75.5 -27.5t-30.5 -69.5q0 -43 30.5 -71t75.5 -28t75 28.5t30 71.5z" />
    <glyph glyph-name="six.tf" horiz-adv-x="628" 
d="M357 477q107 0 174 -67q69 -68 69 -169q0 -109 -76 -179q-76 -71 -194 -71q-140 1 -216 101.5t-73 254.5q0 163 78 279q40 59 104.5 92.5t143.5 33.5q116 0 209 -66l-72 -124q-60 42 -129 42q-79 0 -125 -57q-45 -54 -53 -141q53 71 160 71zM437 238q0 44 -30.5 73.5
t-75.5 29.5q-46 0 -77.5 -29t-31.5 -74q0 -46 31 -76.5t77 -30.5t76.5 31t30.5 76z" />
    <glyph glyph-name="six_fraction_seven" horiz-adv-x="875" 
d="M337 476q0 -60 -42 -97q-41 -38 -105 -38q-76 0 -118 53t-42 139q0 94 47 156q48 63 138 63q66 0 116 -35l-39 -72q-35 23 -72 23q-41 0 -68.5 -27t-33.5 -71q30 34 85 34q59 0 96.5 -36t37.5 -92zM86 0l578 739h124l-577 -739h-125zM189 422q24 0 40 15t16 38
q0 22 -16 37t-39 15q-24 0 -39.5 -14.5t-15.5 -37.5t15.5 -38t38.5 -15zM555 302v93h278v-71l-147 -321h-109l140 299h-162z" />
    <glyph glyph-name="slash.case" horiz-adv-x="614" 
d="M192 0h-173l403 739h175z" />
    <glyph glyph-name="sterling.osf" horiz-adv-x="502" 
d="M440 241h-180q-1 -58 -50 -108h285v-133h-452v109q73 67 73 131v1h-78v104h47q-11 36 -11 63q0 87 64 139q64 53 158 55q66 0 121 -28t86 -77l-95 -86q-35 56 -96 56q-40 0 -64.5 -25t-24.5 -60q0 -19 7 -37h210v-104z" />
    <glyph glyph-name="three.dnom" horiz-adv-x="334" 
d="M147 -6q-72 0 -139 40l40 78q57 -27 94 -27q57 0 57 38q0 16 -15.5 26t-40.5 10h-54v85h47q22 0 38 9t16 27q0 32 -47 32q-33 0 -77 -26l-48 71q58 48 138 48q58 0 97 -30q40 -30 40 -74q0 -32 -19.5 -55.5t-52.5 -33.5v-2q39 -9 61 -34.5t22 -61.5q0 -53 -43.5 -86.5
t-113.5 -33.5z" />
    <glyph glyph-name="three.lf" horiz-adv-x="569" 
d="M256 -12q-128 0 -246 73l68 132q91 -53 167 -53q51 0 80.5 22t29.5 59q0 35 -27.5 56.5t-72.5 21.5h-95v148h77q47 0 74.5 21t27.5 55q0 33 -26 53.5t-66 20.5q-62 0 -142 -55l-78 119q45 42 109 66.5t132 24.5q102 0 169 -55q69 -55 69 -137q0 -56 -34.5 -101t-89.5 -64
v-4q68 -15 106.5 -64.5t38.5 -117.5q0 -99 -76 -160q-74 -61 -195 -61z" />
    <glyph glyph-name="three.num" horiz-adv-x="334" 
d="M147 341q-72 0 -139 40l40 78q57 -27 94 -27q57 0 57 38q0 16 -15.5 26t-40.5 10h-54v85h47q22 0 38 9t16 27q0 32 -47 32q-33 0 -77 -26l-48 71q58 48 138 48q58 0 97 -30q40 -30 40 -74q0 -32 -19.5 -55.5t-52.5 -33.5v-2q39 -9 61 -34.5t22 -61.5q0 -53 -43.5 -86.5
t-113.5 -33.5z" />
    <glyph glyph-name="three.osf" horiz-adv-x="553" 
d="M248 -115q-125 0 -245 69l68 128q89 -49 173 -49q51 0 80.5 20t29.5 53q0 31 -27.5 50t-72.5 19h-101v144h83q47 0 74.5 18.5t27.5 48.5t-26 48.5t-66 18.5q-65 0 -147 -50l-79 115q45 39 109 62t132 23q101 0 168 -52q68 -51 68 -128q0 -54 -34 -95t-89 -59v-4
q68 -14 106.5 -60.5t38.5 -110.5q0 -92 -76 -150q-76 -59 -195 -59z" />
    <glyph glyph-name="three.tf" horiz-adv-x="628" 
d="M281 -12q-128 0 -246 73l68 132q91 -53 167 -53q51 0 80.5 22t29.5 59q0 35 -27.5 56.5t-72.5 21.5h-95v148h77q47 0 74.5 21t27.5 55q0 33 -26 53.5t-66 20.5q-62 0 -142 -55l-78 119q45 42 109 66.5t132 24.5q102 0 169 -55q69 -55 69 -137q0 -56 -34.5 -101t-89.5 -64
v-4q68 -15 106.5 -64.5t38.5 -117.5q0 -99 -76 -160q-74 -61 -195 -61z" />
    <glyph glyph-name="three_fraction_seven" horiz-adv-x="883" 
d="M156 432q57 0 57 38q0 16 -15.5 26t-40.5 10h-54v85h47q22 0 38 9t16 27q0 32 -47 32q-33 0 -77 -26l-48 71q58 48 138 48q58 0 97 -30q40 -30 40 -74q0 -32 -19.5 -55.5t-52.5 -33.5v-2q39 -9 61 -34.5t22 -61.5q0 -53 -43.5 -86.5t-113.5 -33.5q-72 0 -139 40l40 78
q57 -27 94 -27zM91 0l578 739h124l-577 -739h-125zM563 302v93h278v-71l-147 -321h-109l140 299h-162z" />
    <glyph glyph-name="tilde.case" horiz-adv-x="571" 
d="M142 808l-102 51q31 64 68 94.5t90 30.5q34 0 77 -23q43 -22 60 -22t30 11t31 40l102 -49q-50 -125 -147 -125q-32 0 -76 22q-46 23 -65 23q-38 0 -68 -53z" />
    <glyph glyph-name="two.dnom" horiz-adv-x="347" 
d="M254 165l-75 -76h133v-89h-276v81l129 130q42 43 42 68q0 16 -11.5 26t-30.5 10q-38 0 -96 -55l-48 74q65 71 151 71q60 0 99 -35t39 -90q0 -56 -56 -115z" />
    <glyph glyph-name="two.lf" horiz-adv-x="593" 
d="M384 259l-103 -108h259v-152h-489v138l227 236q58 59 71 86q15 27 15 53q0 38 -25.5 61t-65.5 23q-73 0 -162 -81l-89 119q121 118 267 118q105 0 175 -65q70 -64 70 -162q0 -59 -36 -122t-114 -144z" />
    <glyph glyph-name="two.num" horiz-adv-x="347" 
d="M254 512l-75 -76h133v-89h-276v81l129 130q42 44 42 68q0 16 -11.5 26t-30.5 10q-38 0 -96 -55l-48 74q65 71 151 71q60 0 99 -35t39 -90q0 -56 -56 -115z" />
    <glyph glyph-name="two.osf" horiz-adv-x="552" 
d="M335 184l-58 -48h228v-137h-456v125l190 159q30 24 55 47q43 41 43 75q0 25 -19 41t-51 16q-60 0 -165 -84l-80 111q122 113 255 113q101 0 162 -54q62 -54 62 -131q0 -56 -39.5 -109.5t-126.5 -123.5z" />
    <glyph glyph-name="two.tf" horiz-adv-x="628" 
d="M401 259l-103 -108h259v-152h-489v138l227 236q58 59 71 86q15 27 15 53q0 38 -25.5 61t-65.5 23q-74 0 -162 -81l-89 119q121 118 267 118q105 0 175 -65q70 -64 70 -162q0 -59 -36 -122t-114 -144z" />
    <glyph glyph-name="two_fraction_nine" horiz-adv-x="930" 
d="M45 347v81l129 130q42 44 42 68q0 16 -11.5 26t-30.5 10q-38 0 -96 -55l-48 74q65 71 151 71q60 0 99 -35t39 -90q0 -56 -56 -115l-75 -76h133v-89h-276zM133 0l578 739h123l-576 -739h-125zM733 405q76 0 117 -52.5t41 -141.5q0 -93 -47 -155t-136 -62q-69 0 -116 35
l37 72q38 -23 74 -23q41 0 68 27.5t33 73.5q-33 -37 -87 -37q-60 0 -96 35t-36 91q0 61 41 99t107 38zM787 270q0 23 -15.5 38.5t-38.5 15.5q-24 0 -40 -15.5t-16 -38.5q0 -22 15.5 -36.5t39.5 -14.5t39.5 14.5t15.5 36.5z" />
    <glyph glyph-name="two_fraction_seven" horiz-adv-x="917" 
d="M49 347v81l129 130q42 44 42 68q0 16 -11.5 26t-30.5 10q-38 0 -96 -55l-48 74q65 71 151 71q60 0 99 -35t39 -90q0 -56 -56 -115l-75 -76h133v-89h-276zM130 0l578 739h123l-576 -739h-125zM597 302v93h278v-71l-147 -321h-109l140 299h-162z" />
    <glyph glyph-name="uni0414.ss01" horiz-adv-x="793" 
d="M675 739v-585h79v-304h-165v150h-393v-150h-165v304h65q71 129 109 450l16 135h454zM269 154h241v429h-145l-8 -48q-34 -250 -88 -381z" />
    <glyph glyph-name="uni0416.ss01" horiz-adv-x="956" 
d="M683 377l283 -377h-190l-218 297v-297h-160v297l-218 -297h-190l283 377l-267 362h186l206 -295v295h160v-294l206 294h186z" />
    <glyph glyph-name="uni041B.ss01" horiz-adv-x="756" 
d="M79 -10q-21 0 -42 3l-31 140q5 -1 20 -1q66 0 100 57q34 53 51 165q7 44 14 104q7 62 14 139l15 142h458v-739h-166v579h-143l-8 -73l-9 -78q-1 -22 -9 -70q-6 -48 -12 -75l-15 -64q-17 -69 -46 -118q-64 -111 -191 -111z" />
    <glyph glyph-name="uni0424.ss01" horiz-adv-x="981" 
d="M574 41v-121h-167v121q-168 9 -272 95q-102 87 -102 235q0 147 101 234q101 88 273 95v119h167v-119q169 -7 271 -96q103 -87 103 -233t-103 -233q-101 -86 -271 -97zM574 554v-369q96 4 152 54t56 131q0 80 -55.5 129.5t-152.5 54.5zM199 370q0 -82 55 -131.5t153 -53.5
v368q-98 -4 -153 -53t-55 -130z" />
    <glyph glyph-name="uni042A.ss01" horiz-adv-x="762" 
d="M338 492h134q74 0 129.5 -23t83.5 -63q55 -72 55 -161q0 -105 -68 -176q-68 -69 -185 -69h-312v597h-161v142h324v-247zM338 145h121q53 0 82 28t29 74q0 45 -28.5 73t-79.5 28h-124v-203z" />
    <glyph glyph-name="uni042C.ss01" horiz-adv-x="664" 
d="M241 492h134q74 0 129.5 -23t83.5 -63q55 -72 55 -161q0 -105 -68 -176q-67 -69 -185 -69h-312v739h163v-247zM241 145h121q53 0 82 28t29 74q0 45 -28.5 73t-79.5 28h-124v-203z" />
    <glyph glyph-name="uni0431.ss01" horiz-adv-x="683" 
d="M375 540q110 0 193 -74q82 -73 82 -199q0 -119 -81 -201q-81 -81 -211 -81q-66 0 -120 22.5t-90 59.5t-61.5 87t-36.5 103.5t-11 109.5q0 98 26 171q26 71 64.5 112t103.5 73q60 31 115 45q21 5 66 17.5t61 16.5q73 20 120 39v-148q-38 -16 -101 -34l-102 -28
q-177 -42 -211 -176q67 85 194 85zM360 126q58 0 97 41q40 40 40 100q0 56 -40 96q-39 40 -96 40t-98 -39q-40 -37 -40 -97q0 -58 39 -100q39 -41 98 -41z" />
    <glyph glyph-name="uni0432.ss01" horiz-adv-x="589" 
d="M447 303q53 -12 81.5 -49t28.5 -90q0 -73 -54 -118.5t-144 -45.5h-299v548h294q79 0 125 -39t46 -96q0 -83 -78 -110zM336 429h-129v-93h127q26 0 39.5 14t13.5 34q0 19 -13.5 32t-37.5 13zM207 122h138q37 -3 53.5 26t1.5 57.5t-53 25.5h-140v-109z" />
    <glyph glyph-name="uni0433.ss01" horiz-adv-x="457" 
d="M60 548h384v-139h-228v-409h-156v548z" />
    <glyph glyph-name="uni0434.ss01" horiz-adv-x="667" 
d="M572 549v-415h60v-253h-148v119h-312v-119h-147v253h59q60 111 93 340l11 75h384zM318 426l-7 -36q-21 -152 -67 -256h175v292h-101z" />
    <glyph glyph-name="uni0436.ss01" horiz-adv-x="807" 
d="M596 280l220 -280h-175l-164 215v-215h-147v214l-164 -214h-174l219 280l-202 268h171l150 -216v216h147v-216l150 216h171z" />
    <glyph glyph-name="uni0437.ss01" horiz-adv-x="535" 
d="M16 46l50 112q95 -43 186 -43q47 0 72.5 15t25.5 41q0 47 -85 47h-118v117h88q95 0 95 49q0 23 -22.5 36t-61.5 13q-74 0 -152 -42l-65 103q97 68 234 68q98 0 157 -44q60 -44 60 -102q0 -36 -26.5 -66t-73.5 -46v-3q58 -16 90.5 -52.5t32.5 -85.5q0 -71 -67 -123
t-188 -52q-122 0 -232 58z" />
    <glyph glyph-name="uni0438.ss01" horiz-adv-x="654" 
d="M161 0h-101v548h153v-308l279 308h101v-548h-152v304z" />
    <glyph glyph-name="uni0439.ss01" horiz-adv-x="654" 
d="M335 582q-116 0 -202 107l74 77q34 -43 63.5 -60t65.5 -17t65.5 17t64.5 60l75 -77q-89 -107 -206 -107zM161 0h-101v548h153v-308l279 308h101v-548h-152v304z" />
    <glyph glyph-name="uni043A.ss01" horiz-adv-x="584" 
d="M594 0h-183l-160 214l-39 -39v-175h-152v548h152v-193l191 193h185l-235 -233z" />
    <glyph glyph-name="uni043B.ss01" horiz-adv-x="632" 
d="M75 -9q-3 0 -33 2l-39 120q5 -1 17 -1q55 0 85 47q18 26 32 85q15 62 20 106q6 41 19 161l4 37h392v-548h-156v407h-100l-5 -39l-6 -42l-5 -38q-3 -27 -6 -41q-1 -2 -7 -32.5t-10 -42.5q-23 -68 -41 -95q-54 -86 -161 -86z" />
    <glyph glyph-name="uni043F.ss01" horiz-adv-x="625" 
d="M60 548h504v-548h-155v407h-193v-407h-156v548z" />
    <glyph glyph-name="uni0442.ss01" horiz-adv-x="504" 
d="M13 548h478v-135h-161v-413h-156v413h-161v135z" />
    <glyph glyph-name="uni0444.ss01" horiz-adv-x="864" 
d="M830 274q0 -132 -87 -205t-236 -81v-147h-150v147q-147 7 -236 81q-87 75 -87 206q0 130 87 206q89 77 236 81v148h150v-148q146 -4 235 -81q88 -75 88 -207zM187 274q0 -70 45 -111t125 -42v306q-82 -3 -126 -43t-44 -110zM507 427v-306q80 1 125 42.5t45 111.5
t-43.5 109.5t-126.5 42.5z" />
    <glyph glyph-name="uni0446.ss01" horiz-adv-x="680" 
d="M659 -180h-151v180h-448v548h157v-403h196v403h156v-403h90v-325z" />
    <glyph glyph-name="uni0448.ss01" horiz-adv-x="943" 
d="M883 0h-823v548h157v-403h176v403h157v-403h177v403h156v-548z" />
    <glyph glyph-name="uni0449.ss01" horiz-adv-x="994" 
d="M883 548v-403h89v-325h-150v180h-762v548h157v-403h176v403h157v-403h177v403h156z" />
    <glyph glyph-name="uni044A.ss01" horiz-adv-x="626" 
d="M283 385h101q60 0 105.5 -17t69.5 -46t35.5 -61t11.5 -67q0 -84 -57 -140q-57 -54 -159 -54h-256v409h-115v139h264v-163zM282 127h93q51 -3 71 31.5t-0.5 69t-68.5 31.5h-95v-132z" />
    <glyph glyph-name="uni044C.ss01" horiz-adv-x="555" 
d="M209 385h104q60 0 105.5 -17t69.5 -46t35.5 -61t11.5 -67q0 -84 -57 -140q-57 -54 -159 -54h-259v548h150zM208 127h96q51 -3 71 31.5t-0.5 69t-68.5 31.5h-97z" />
    <glyph glyph-name="uni044E.ss01" horiz-adv-x="894" 
d="M565 563q131 0 213 -84q83 -83 83 -205q0 -121 -83 -206q-83 -83 -213 -83q-110 0 -189 62q-77 63 -100 162h-61v-209h-155v548h155v-212h60q21 98 99 163q79 64 191 64zM704 275q0 61 -40 101q-41 41 -99 41q-59 0 -99 -42q-40 -40 -40 -100q0 -62 40 -103
q41 -41 99 -41t99 41q40 41 40 103z" />
    <glyph glyph-name="yen.osf" horiz-adv-x="523" 
d="M382 594h160l-139 -250h72v-100h-128l-9 -16v-15h137v-100h-137v-113h-150v113h-138v100h138v15l-9 16h-129v100h74l-139 250h160l118 -237z" />
    <glyph glyph-name="zero.dnom" horiz-adv-x="391" 
d="M23 200q0 94 45.5 150t127.5 56t127.5 -56t45.5 -150q0 -93 -45.5 -149t-127.5 -56t-127.5 56t-45.5 149zM196 88q67 0 67 112t-67 112q-68 0 -68 -112t68 -112z" />
    <glyph glyph-name="zero.lf" horiz-adv-x="691" 
d="M345 -12q-144 0 -224 107q-78 107 -78 275t78 275q80 107 224 107q147 0 225 -107q79 -106 79 -275t-79 -275q-78 -107 -225 -107zM485 370q0 100 -36 163q-34 64 -103 64q-70 0 -104 -64q-35 -64 -35 -163q0 -105 35.5 -166t103.5 -61t103.5 61t35.5 166z" />
    <glyph glyph-name="zero.num" horiz-adv-x="391" 
d="M23 546q0 94 45.5 150t127.5 56t127.5 -56t45.5 -150q0 -93 -45.5 -149t-127.5 -56t-127.5 56t-45.5 149zM196 434q67 0 67 112t-67 112q-68 0 -68 -112t68 -112z" />
    <glyph glyph-name="zero.osf" horiz-adv-x="631" 
d="M316 -12q-132 0 -203 86q-70 85 -70 222t70 222q71 86 203 86q131 0 202 -86t71 -222t-71 -222t-202 -86zM317 467q-58 0 -89 -45.5t-31 -125.5t31 -125.5t88 -45.5t88 45.5t31 125.5t-30.5 125.5t-87.5 45.5z" />
    <glyph glyph-name="zero.slash" horiz-adv-x="691" 
d="M345 752q147 0 225 -107q79 -106 79 -275t-79 -275q-78 -107 -225 -107q-144 0 -224 107q-78 107 -78 275t78 275q80 107 224 107zM346 615q-74 0 -112 -69q-37 -67 -37 -176q0 -81 19 -135l216 344q-34 36 -86 36zM346 125q73 0 111 68t38 177q0 74 -16 126l-214 -341
q33 -30 81 -30z" />
    <glyph glyph-name="zero.tf" horiz-adv-x="628" 
d="M313 -12q-137 0 -214 107q-75 107 -75 275t75 275q77 107 214 107q139 0 216 -107q76 -106 76 -275t-76 -275q-77 -107 -216 -107zM315 143q62 0 95.5 61.5t33.5 165.5q0 100 -33 163q-33 64 -96 64q-65 0 -98 -64q-33 -63 -33 -163q0 -105 33.5 -166t97.5 -61z" />
    <hkern g1="uni041B"
	g2="uni0414.ss01"</font>
</defs>
</svg>
