<?xml version="1.0" standalone="no"?>
<!DOCTYPE svg PUBLIC "-//W3C//DTD SVG 1.1//EN" "http://www.w3.org/Graphics/SVG/1.1/DTD/svg11.dtd" >
<svg>
<metadata>
Created by FontForge 20090622 at Fri Jul 27 08:57:13 2018
 By deploy user
Copyright &#194;&#169; 2017 by Kastelov. All rights reserved.
</metadata>
<defs>
<font id="Axiforma-Medium" horiz-adv-x="853" >
  <font-face 
    font-family="Axiforma Medium"
    font-weight="500"
    font-stretch="normal"
    units-per-em="1000"
    panose-1="0 0 6 0 0 0 0 0 0 0"
    ascent="771"
    descent="-229"
    x-height="538"
    cap-height="739"
    bbox="-87 -256 1031 1018"
    underline-thickness="50"
    underline-position="-150"
    unicode-range="U+0020-U+00FE"
  />
<missing-glyph horiz-adv-x="364" 
d="M33 0v666h265v-666h-265zM66 33h199v600h-199v-600z" />
    <glyph glyph-name=".notdef" horiz-adv-x="364" 
d="M33 0v666h265v-666h-265zM66 33h199v600h-199v-600z" />
    <glyph glyph-name=".null" horiz-adv-x="0" 
 />
    <glyph glyph-name="nonmarkingreturn" horiz-adv-x="333" 
 />
    <glyph glyph-name="space" unicode=" " horiz-adv-x="247" 
 />
    <glyph glyph-name="exclam" unicode="!" horiz-adv-x="301" 
d="M205 188h-108l-5 557h119zM153 -12q-30 0 -50.5 20t-20.5 50q0 29 20.5 48.5t50.5 19.5q29 0 48.5 -19.5t19.5 -48.5q0 -30 -19.5 -50t-48.5 -20z" />
    <glyph glyph-name="quotedbl" unicode="&#x22;" horiz-adv-x="495" 
d="M146 440h-104l84 298h131zM366 440h-104l84 298h131z" />
    <glyph glyph-name="numbersign" unicode="#" horiz-adv-x="717" 
d="M684 549l-18 -92h-105l-32 -165h106l-17 -91h-106l-38 -201h-105l39 201h-159l-39 -201h-106l40 201h-110l17 91h111l32 165h-112l18 92h112l38 190h103l-37 -190h159l37 190h102l-36 -190h106zM267 292h159l31 165h-159z" />
    <glyph glyph-name="dollar" unicode="$" horiz-adv-x="573" 
d="M533 204q0 -83 -54 -140q-53 -56 -138 -71v-105h-91v102q-71 8 -129 46.5t-91 103.5l83 72q27 -55 73 -84.5t98 -29.5q56 0 89 28.5t33 71.5q0 55 -72 94l-71 34q-60 29 -86 47q-108 70 -108 176q0 79 51 134q53 56 137 66v94h91v-95q102 -18 169 -102l-72 -77
q-64 75 -148 75q-46 0 -76 -24.5t-30 -65.5q0 -50 68 -91q15 -9 80 -42q70 -34 91 -47q103 -64 103 -170z" />
    <glyph glyph-name="percent" unicode="%" horiz-adv-x="888" 
d="M355 440q-56 -53 -133 -53q-78 0 -134 53q-55 54 -55 129t55 129q56 54 134 54t133 -54t55 -129t-55 -129zM225 0h-111l542 739h113zM222 468q42 0 71.5 29t29.5 72t-29.5 72t-71.5 29q-43 0 -72.5 -29t-29.5 -72t29.5 -72t72.5 -29zM666 -12q-78 0 -134 53
q-55 52 -55 128q0 75 55 129q56 54 134 54t133 -54q56 -54 56 -129t-56 -128t-133 -53zM768 169q0 44 -29.5 73t-72.5 29t-72.5 -29t-29.5 -73q0 -42 30 -71t72 -29t72 29t30 71z" />
    <glyph glyph-name="ampersand" unicode="&#x26;" horiz-adv-x="699" 
d="M581 161l115 -101l-61 -70l-116 103q-109 -103 -235 -103q-104 0 -175 63q-70 63 -70 154q0 135 134 215q-43 64 -43 138q0 78 57 134q59 56 142 56q71 0 124 -45q52 -45 52 -112q6 -64 -59 -122q-15 -13 -42 -29q-11 -7 -26 -15l-16 -8q-1 0 -48 -23l21 -20
q21 -19 30 -26l147 -128q37 46 73 104l72 -58q-45 -70 -76 -107zM325 668q-42 0 -70.5 -31t-28.5 -77q0 -53 28 -96l48 22q1 1 38 20q26 14 36 24q29 33 29 61q0 33 -22.5 55t-57.5 22zM294 84q80 0 156 72l-165 147q-24 21 -52 49q-85 -57 -85 -138q0 -55 41 -93
q41 -37 105 -37z" />
    <glyph glyph-name="quotesingle" unicode="'" horiz-adv-x="274" 
d="M145 440h-104l84 298h131z" />
    <glyph glyph-name="parenleft" unicode="(" horiz-adv-x="400" 
d="M393 -136l-49 -84q-147 78 -226 212t-79 302q0 170 79.5 303.5t227.5 211.5l47 -85q-234 -153 -234 -430q0 -273 234 -430z" />
    <glyph glyph-name="parenright" unicode=")" horiz-adv-x="400" 
d="M55 -220l-48 84q234 157 234 430q0 277 -234 430l46 85q149 -79 228.5 -212.5t79.5 -302.5t-79.5 -302.5t-226.5 -211.5z" />
    <glyph glyph-name="asterisk" unicode="*" horiz-adv-x="468" 
d="M235 498l-95 -117l-64 54l94 108l-133 59l36 76l122 -61l-3 144h85l-3 -144l123 61l34 -76l-132 -59l93 -108l-65 -54z" />
    <glyph glyph-name="plus" unicode="+" horiz-adv-x="549" 
d="M327 400h188v-104h-188v-188l-104 -2v190h-190v104h190v189h104v-189z" />
    <glyph glyph-name="comma" unicode="," horiz-adv-x="249" 
d="M123 120q32 0 53.5 -23t21.5 -58q0 -93 -134 -180l-34 47q71 54 86 83h-4q-25 0 -43 18.5t-18 44.5q0 28 21.5 48t50.5 20z" />
    <glyph glyph-name="hyphen" unicode="-" horiz-adv-x="522" 
d="M458 225h-394v104h394v-104z" />
    <glyph glyph-name="period" unicode="." horiz-adv-x="237" 
d="M119 -16q-30 0 -50.5 20t-20.5 50q0 29 20.5 49t50.5 20q29 0 49 -20t20 -49q0 -30 -20 -50t-49 -20z" />
    <glyph glyph-name="slash" unicode="/" horiz-adv-x="627" 
d="M132 -123h-113l475 948h113z" />
    <glyph glyph-name="zero" unicode="0" horiz-adv-x="682" 
d="M475 21q-59 -33 -134 -33t-134 33q-102 59 -142 210q-15 69 -15 139.5t15 137.5t51.5 123t90.5 88q58 33 134 33q75 0 134 -33q105 -58 141 -210q36 -139 0 -278q-36 -152 -141 -210zM341 96q89 0 132 76q44 77 44 198q0 120 -44 197t-132 77t-132 -77q-43 -76 -43 -197
q-2 -120 42.5 -196.5t132.5 -77.5z" />
    <glyph glyph-name="one" unicode="1" horiz-adv-x="396" 
d="M2 561l215 178h89v-739h-114v584l-128 -104z" />
    <glyph glyph-name="two" unicode="2" horiz-adv-x="566" 
d="M394 305l-182 -199h305v-106h-468v96l235 250l56 62q21 24 37.5 59t16.5 63q0 50 -35.5 82.5t-88.5 32.5q-86 0 -175 -83l-63 82q110 108 243 108q102 0 167 -62q66 -62 66 -161q0 -101 -114 -224z" />
    <glyph glyph-name="three" unicode="3" horiz-adv-x="557" 
d="M250 -12q-122 0 -232 73l51 93q95 -60 177 -60q65 0 103 31.5t38 83.5t-39 84.5t-101 32.5h-92v104h88q58 0 94 30t36 79q0 48 -35 77t-88 29q-74 0 -157 -62l-58 81q41 41 101.5 64.5t124.5 23.5q99 0 164 -56t65 -138q0 -59 -35 -104.5t-92 -63.5v-4q68 -16 106 -64.5
t38 -117.5q0 -94 -72 -156q-71 -60 -185 -60z" />
    <glyph glyph-name="four" unicode="4" horiz-adv-x="601" 
d="M479 280h82v-99h-82v-181h-110v181h-338l-23 72l398 486h73v-459zM369 547l-218 -267h218v267z" />
    <glyph glyph-name="five" unicode="5" horiz-adv-x="578" 
d="M291 480q106 0 177 -68t71 -174q0 -110 -75 -180q-73 -70 -192 -70q-132 0 -240 87l51 90q94 -71 185 -71q68 0 112 41q43 40 43 102q0 59 -42 100q-41 40 -106 40q-78 0 -132 -55l-72 48l41 369h377v-104h-289l-22 -180q51 25 113 25z" />
    <glyph glyph-name="six" unicode="6" horiz-adv-x="621" 
d="M345 477q100 0 168 -68q67 -67 67 -170q0 -108 -73 -178q-71 -70 -184 -70q-131 0 -203.5 101.5t-69.5 254.5q0 106 32 196t104 149q74 60 175 60q113 0 193 -63l-49 -86q-64 48 -137 48q-66 0 -116 -45q-89 -82 -91 -231q25 48 73.5 75t110.5 27zM324 92q60 0 101 42
q41 43 41 104q0 60 -41 101q-40 40 -100 40q-62 0 -102 -40q-41 -41 -41 -102q0 -60 41 -103q41 -42 101 -42z" />
    <glyph glyph-name="seven" unicode="7" horiz-adv-x="510" 
d="M21 635v104h470v-73l-280 -666h-122l273 635h-341z" />
    <glyph glyph-name="eight" unicode="8" horiz-adv-x="628" 
d="M315 -12q-119 0 -194 60t-75 152q0 62 39 114.5t104 76.5v2q-52 25 -82 68t-30 96q0 85 66 140q65 55 172 55q106 0 170 -55q66 -55 66 -140q0 -53 -30 -96.5t-83 -67.5v-3q66 -23 105 -75t39 -115q0 -92 -75 -152q-73 -60 -192 -60zM442 546q0 48 -35.5 79t-92.5 31
q-58 0 -94 -31t-36 -79t36 -79t94 -31t93 31t35 79zM315 89q67 0 110 35.5t43 90.5q0 54 -42.5 88t-111.5 34t-111.5 -34t-42.5 -88q0 -55 43 -90.5t112 -35.5z" />
    <glyph glyph-name="nine" unicode="9" horiz-adv-x="617" 
d="M298 752q131 0 200 -99q69 -97 69 -260q0 -82 -18 -153t-53.5 -128.5t-95 -90.5t-137.5 -33q-119 0 -196 63l43 88q70 -50 148 -50q97 0 147 77q49 76 54 194q-27 -43 -76.5 -69t-108.5 -26q-101 0 -167 67q-66 68 -66 171q0 107 72 178q73 71 185 71zM436 505
q0 61 -41 104q-40 43 -99 43q-62 0 -102 -42q-41 -43 -41 -105q0 -61 40 -101.5t101 -40.5t101 40q41 41 41 102z" />
    <glyph glyph-name="colon" unicode=":" horiz-adv-x="266" 
d="M133 350q-30 0 -50.5 20t-20.5 50q0 29 20.5 49t50.5 20q29 0 49 -20t20 -49q0 -30 -20 -50t-49 -20zM133 -16q-30 0 -50.5 20t-20.5 50q0 29 20.5 49t50.5 20q29 0 49 -20t20 -49q0 -30 -20 -50t-49 -20z" />
    <glyph glyph-name="semicolon" unicode=";" horiz-adv-x="291" 
d="M149 349q-30 0 -51 20.5t-21 50.5q0 29 21 49t51 20q29 0 49.5 -20t20.5 -49q0 -30 -20.5 -50.5t-49.5 -20.5zM146 120q32 0 53.5 -23t21.5 -58q0 -93 -134 -180l-34 47q71 54 86 83h-4q-25 0 -43 18.5t-18 44.5q0 28 21.5 48t50.5 20z" />
    <glyph glyph-name="less" unicode="&#x3c;" horiz-adv-x="567" 
d="M497 169v-114l-464 225v98l464 226v-113l-346 -161z" />
    <glyph glyph-name="equal" unicode="=" horiz-adv-x="598" 
d="M530 370h-462v96h462v-96zM530 189h-462v96h462v-96z" />
    <glyph glyph-name="greater" unicode="&#x3e;" horiz-adv-x="545" 
d="M515 280l-454 -236v114l320 161l-320 160v114l454 -237v-76z" />
    <glyph glyph-name="question" unicode="?" horiz-adv-x="524" 
d="M278 176h-105v71q0 74 68 135l24.5 20.5t26 22.5l22.5 21t22.5 24.5t16 24t12 27.5t3.5 29q0 49 -35 80t-88 31q-76 0 -151 -82l-68 77q42 51 102 80t125 29q96 0 162 -60q67 -58 67 -150q0 -87 -72 -152q-11 -10 -35 -30t-37 -32t-29 -29.5t-23.5 -34.5t-7.5 -34v-68z
M228 -12q-30 0 -51 20t-21 50q0 29 21 48.5t51 19.5q28 0 48 -19.5t20 -48.5q0 -30 -20 -50t-48 -20z" />
    <glyph glyph-name="at" unicode="@" horiz-adv-x="971" 
d="M607 441v48h87v-270q0 -32 15 -51t37 -19q42 0 73 51q31 50 31 128q0 137 -103 233q-103 97 -250 96q-151 -1 -256 -109t-105 -262q0 -153 110 -263q109 -109 270 -109q156 0 274 96l44 -69q-54 -47 -142 -78q-86 -33 -183 -32.5t-183 36.5q-126 50 -203 165t-78 253
q0 187 131 321q132 134 319 134q183 0 313 -122q130 -121 130 -289q0 -112 -60 -187q-60 -74 -146 -74q-43 0 -73 21.5t-42 56.5q-55 -78 -156 -78q-86 0 -145 62t-59 155q0 91 59 155q60 64 148 64q92 0 143 -63zM607 284q0 59 -37 99t-92 40q-56 0 -93 -39
q-37 -38 -37 -98q0 -58 36.5 -97.5t91.5 -39.5q56 0 93 39q38 40 38 96z" />
    <glyph glyph-name="A" unicode="A" horiz-adv-x="681" 
d="M670 0h-124l-70 182h-272l-70 -182h-124l294 739h75zM441 288l-100 268l-100 -268h200z" />
    <glyph glyph-name="B" unicode="B" horiz-adv-x="678" 
d="M496 404q66 -18 103 -70t37 -121q0 -86 -62 -150q-62 -63 -169 -63h-315v739h301q97 0 151 -55q55 -55 55 -129q0 -50 -27.5 -92t-73.5 -59zM374 634h-170v-191h166q50 0 80 29t30 70q0 39 -29 65.5t-77 26.5zM204 105h181q59 0 95 34t36 83q0 51 -35.5 85t-98.5 34h-178
v-236z" />
    <glyph glyph-name="C" unicode="C" horiz-adv-x="773" 
d="M424 -11q-161 0 -270 106q-110 107 -110 272q0 168 112 276q112 109 271 109q99 0 185 -44q85 -43 133 -115l-82 -74q-91 121 -233 121q-112 0 -190 -78q-77 -79 -77 -195q0 -117 76 -192q77 -75 190 -75q147 0 238 120l82 -72q-53 -73 -139 -116t-186 -43z" />
    <glyph glyph-name="D" unicode="D" horiz-adv-x="762" 
d="M360 0h-270v739h279q161 0 252 -100q93 -100 93 -271q0 -169 -95 -269q-95 -99 -259 -99zM205 629v-519h160q108 0 168 73q61 73 61 188q0 112 -61 185q-60 73 -167 73h-161z" />
    <glyph glyph-name="E" unicode="E" horiz-adv-x="618" 
d="M563 0h-473v739h472v-109h-357v-201h331v-109h-331v-211h358v-109z" />
    <glyph glyph-name="F" unicode="F" horiz-adv-x="582" 
d="M205 0h-115v739h465v-111h-350v-202h305v-110h-305v-316z" />
    <glyph glyph-name="G" unicode="G" horiz-adv-x="811" 
d="M425 -11q-164 0 -273 107q-108 108 -108 273q0 166 112 274q112 109 274 109q91 0 172.5 -35.5t132.5 -95.5l-79 -78q-88 97 -225 97q-115 0 -192 -77t-77 -194t76 -193t190 -76q63 0 123 25.5t102 70.5v132h-233v104h340v-290q-138 -153 -335 -153z" />
    <glyph glyph-name="H" unicode="H" horiz-adv-x="762" 
d="M205 0h-115v739h115v-307h352v307h115v-739h-115v321h-352v-321z" />
    <glyph glyph-name="I" unicode="I" horiz-adv-x="295" 
d="M90 0v739h115v-739h-115z" />
    <glyph glyph-name="J" unicode="J" horiz-adv-x="567" 
d="M228 -12q-133 0 -218 94l65 86q60 -70 149 -70q66 0 105 42.5t39 116.5v482h116v-487q0 -128 -72 -196q-71 -68 -184 -68z" />
    <glyph glyph-name="K" unicode="K" horiz-adv-x="675" 
d="M687 0h-142l-242 314l-98 -117v-197h-115v739h115v-385l320 385h138l-285 -344z" />
    <glyph glyph-name="L" unicode="L" horiz-adv-x="609" 
d="M595 0h-505v739h115v-628h390v-111z" />
    <glyph glyph-name="M" unicode="M" horiz-adv-x="925" 
d="M204 0h-114v739h63l310 -453l308 453h65v-739h-116v473l-241 -352h-34l-241 352v-473z" />
    <glyph glyph-name="N" unicode="N" horiz-adv-x="785" 
d="M581 234v505h114v-739h-68l-423 501v-501h-114v739h60z" />
    <glyph glyph-name="O" unicode="O" 
d="M423 -12q-162 0 -271 109t-109 269q0 161 112 273q113 113 271 113q160 0 272 -112t112 -271t-112 -270t-275 -111zM426 101q111 0 187 76q77 77 77 191q0 116 -77 193t-187 77q-111 0 -187 -78q-76 -76 -76 -192q0 -114 75 -190q77 -77 188 -77z" />
    <glyph glyph-name="P" unicode="P" horiz-adv-x="618" 
d="M90 739h255q121 0 183 -69q63 -68 63 -165q0 -96 -65 -164q-64 -67 -191 -67h-130v-274h-115v739zM205 380h133q64 0 100 36.5t36 90.5t-33 89t-91 35h-145v-251z" />
    <glyph glyph-name="Q" unicode="Q" 
d="M799 -19l15 -96q-49 -21 -115 -21q-149 0 -257 124h-15q-160 2 -272 112q-112 112 -112 270t112 270t272 112q159 0 271 -112t112 -270q0 -118 -66 -216q-65 -97 -173 -139q59 -51 136 -51q43 0 92 17zM163 368q0 -116 76 -192t188 -76q111 0 187 76q77 77 77 192
q0 116 -77 193q-76 78 -187 78q-112 0 -188 -78q-76 -76 -76 -193z" />
    <glyph glyph-name="R" unicode="R" horiz-adv-x="652" 
d="M622 0h-139l-180 290h-98v-290h-115v739h261q115 0 177 -66q62 -67 62 -159q0 -75 -43.5 -133.5t-121.5 -79.5zM351 630h-146v-233h128q67 0 102.5 32.5t35.5 85.5q0 50 -32 82.5t-88 32.5z" />
    <glyph glyph-name="S" unicode="S" horiz-adv-x="578" 
d="M285 -12q-82 0 -152 38.5t-109 108.5l78 75q30 -55 78.5 -84t104.5 -29t91 29t35 72q0 56 -73 95q-18 9 -75 33q-60 28 -85 42q-112 67 -112 179q0 88 64 146q65 59 168 59q140 0 225 -106l-71 -79q-61 76 -153 76q-49 0 -79.5 -24.5t-30.5 -65.5q0 -53 62 -88
q33 -18 83 -41q58 -25 91 -44q113 -62 113 -176q0 -94 -71 -156q-71 -60 -182 -60z" />
    <glyph glyph-name="T" unicode="T" horiz-adv-x="577" 
d="M230 0v627h-216v112h549v-112h-216v-627h-117z" />
    <glyph glyph-name="U" unicode="U" horiz-adv-x="712" 
d="M356 -13q-121 0 -198 71q-76 70 -76 198v483h115v-468q0 -83 41.5 -127t117.5 -44q74 0 116 45t42 126v468h116v-483q0 -129 -76 -199t-198 -70z" />
    <glyph glyph-name="V" unicode="V" horiz-adv-x="718" 
d="M361 190l220 549h128l-311 -739h-77l-314 739h132z" />
    <glyph glyph-name="W" unicode="W" horiz-adv-x="1041" 
d="M339 0h-79l-251 739h124l169 -527l187 527h61l191 -527l166 527h124l-250 -739h-77l-183 530z" />
    <glyph glyph-name="X" unicode="X" horiz-adv-x="641" 
d="M145 0h-138l243 374l-230 365h134l167 -277l170 277h138l-239 -365l240 -374h-134l-175 282z" />
    <glyph glyph-name="Y" unicode="Y" horiz-adv-x="652" 
d="M507 739h130l-254 -476v-263h-115v263l-251 476h130l179 -358z" />
    <glyph glyph-name="Z" unicode="Z" horiz-adv-x="628" 
d="M593 0h-561v76l391 555h-374v108h533v-78l-384 -553h395v-108z" />
    <glyph glyph-name="bracketleft" unicode="[" horiz-adv-x="382" 
d="M364 -227h-280v1038h280v-94h-167v-850h167v-94z" />
    <glyph glyph-name="backslash" unicode="\" horiz-adv-x="623" 
d="M133 825l471 -948h-112l-472 948h113z" />
    <glyph glyph-name="bracketright" unicode="]" horiz-adv-x="382" 
d="M298 -227h-280v94h167v850h-167v94h280v-1038z" />
    <glyph glyph-name="asciicircum" unicode="^" horiz-adv-x="527" 
d="M148 431h-110l192 318h68l191 -318h-109l-116 204z" />
    <glyph glyph-name="underscore" unicode="_" horiz-adv-x="585" 
d="M585 -177h-585v101h585v-101z" />
    <glyph glyph-name="grave" unicode="`" horiz-adv-x="411" 
d="M170 790l60 -170h-97l-93 170h130z" />
    <glyph glyph-name="a" unicode="a" horiz-adv-x="669" 
d="M492 464v75h106v-539h-106v74q-73 -87 -184 -87q-117 0 -193 82t-76 204q0 121 76 200t193 79q111 0 184 -88zM323 88q75 0 125 53q49 52 49 129q0 76 -49 128q-50 53 -125 53q-77 0 -125 -53q-48 -52 -48 -129t48 -129t125 -52z" />
    <glyph glyph-name="b" unicode="b" horiz-adv-x="671" 
d="M363 552q116 0 192 -82q77 -83 77 -201t-77 -201q-77 -81 -193 -81q-112 0 -182 90v-77h-109v758h110v-297q72 91 182 91zM348 90q77 0 123 52q48 52 48 128t-48 128q-46 52 -123 52t-125 -53q-47 -53 -47 -127q0 -75 47 -128q48 -52 125 -52z" />
    <glyph glyph-name="c" unicode="c" horiz-adv-x="600" 
d="M324 -12q-126 0 -205 79q-80 80 -80 202q0 123 81 203q82 80 208 80q81 0 148.5 -39t99.5 -105l-91 -51q-25 43 -66.5 68.5t-89.5 25.5q-77 0 -128 -52q-51 -53 -51 -130q0 -75 50 -128q49 -52 125 -52q48 0 92 26t65 66l91 -53q-33 -63 -100.5 -101.5t-148.5 -38.5z" />
    <glyph glyph-name="d" unicode="d" horiz-adv-x="670" 
d="M488 464v294h111v-758h-109v75q-70 -88 -181 -88q-117 0 -193 81q-77 83 -77 202q0 118 77 200q76 82 192 82q107 0 180 -88zM496 270q0 76 -48 128q-48 53 -125 53t-125 -53q-48 -52 -48 -128q0 -78 48 -130t125 -52t125 52t48 130z" />
    <glyph glyph-name="e" unicode="e" horiz-adv-x="616" 
d="M579 280q0 -26 -4 -53h-421q12 -65 57.5 -103t121.5 -38q46 0 96.5 16t86.5 42l46 -81q-101 -75 -233 -75q-142 0 -215.5 83t-73.5 200q0 122 76 201q77 80 199 80q117 0 190 -73q74 -74 74 -199zM315 457q-62 0 -105.5 -38.5t-55.5 -101.5h314q-7 63 -49.5 101.5
t-103.5 38.5z" />
    <glyph glyph-name="f" unicode="f" horiz-adv-x="407" 
d="M338 674q-54 0 -82.5 -27.5t-28.5 -78.5v-29h170v-94h-170v-445h-110v445h-90v94h90v31q0 97 56 151t151 54q68 0 131 -33l-35 -89q-49 21 -82 21z" />
    <glyph glyph-name="g" unicode="g" horiz-adv-x="670" 
d="M493 470v69h106v-484q0 -130 -80 -207t-212 -77q-134 0 -241 77l48 85q89 -64 191 -64q85 0 135 47.5t50 123.5v39q-71 -80 -181 -80q-118 0 -194 79t-76 198t79 197q79 79 196 79q107 0 179 -82zM323 97q75 0 124 51q49 50 49 127q0 78 -49 127q-50 50 -124 50
q-73 0 -123 -51q-49 -49 -49 -126q0 -78 49 -128q50 -50 123 -50z" />
    <glyph glyph-name="h" unicode="h" horiz-adv-x="625" 
d="M181 0h-110v758h107v-287q24 38 69.5 60t101.5 22q89 0 150 -58t61 -167v-328h-110v297q0 73 -35 113.5t-94 40.5q-62 0 -101 -43t-39 -112v-296z" />
    <glyph glyph-name="i" unicode="i" horiz-adv-x="253" 
d="M129 610q-32 0 -54 21.5t-22 53.5q0 31 22 52t54 21q31 0 52 -21t21 -52q0 -32 -21 -53.5t-52 -21.5zM182 539v-539h-110v539h110z" />
    <glyph glyph-name="j" unicode="j" horiz-adv-x="277" 
d="M151 610q-32 0 -54 21.5t-22 53.5q0 31 22 52t54 21q31 0 52 -21t21 -52q0 -32 -21 -53.5t-52 -21.5zM18 -230q-68 0 -105 24l22 90q42 -14 68 -14q92 0 92 109v560h110v-558q0 -103 -49.5 -157t-137.5 -54z" />
    <glyph glyph-name="k" unicode="k" horiz-adv-x="557" 
d="M564 0h-142l-194 245l-47 -43v-202h-110v758h110v-427l227 208h145l-248 -224z" />
    <glyph glyph-name="l" unicode="l" horiz-adv-x="252" 
d="M181 758v-758h-110v758h110z" />
    <glyph glyph-name="m" unicode="m" horiz-adv-x="983" 
d="M703 554q97 0 156 -63q60 -61 60 -169v-322h-110v304q0 70 -33 108.5t-90 38.5q-60 0 -97.5 -41t-37.5 -109v-301h-110v302q0 69 -33.5 109t-90.5 40q-60 0 -98 -41.5t-38 -110.5v-299h-110v539h108v-78q24 43 67 68t96 25q55 -1 100 -27t66 -72q28 45 80.5 72t114.5 27z
" />
    <glyph glyph-name="n" unicode="n" horiz-adv-x="626" 
d="M181 0h-110v539h108v-76q24 42 69 66t102 24q89 0 150 -58q62 -59 62 -167v-328h-111v297q0 73 -35 113.5t-94 40.5q-62 0 -101.5 -43.5t-39.5 -112.5v-295z" />
    <glyph glyph-name="o" unicode="o" horiz-adv-x="648" 
d="M39 270q0 117 80 200q81 83 205 83t204 -83q81 -82 81 -200q0 -120 -81 -202q-79 -82 -204 -82q-124 0 -205 82q-80 83 -80 202zM498 270q0 74 -51 127q-49 54 -123 54q-73 0 -124 -54q-50 -53 -50 -127q0 -75 50 -128q51 -53 124 -53t123 53q51 53 51 128z" />
    <glyph glyph-name="p" unicode="p" horiz-adv-x="673" 
d="M366 552q115 0 191 -82q77 -83 77 -201q0 -117 -77 -200q-76 -82 -192 -82q-114 0 -184 88v-297h-110v761h110v-78q73 91 185 91zM523 270q0 76 -48 128q-48 53 -125 53t-125 -53q-47 -53 -47 -128q0 -77 47 -130q48 -52 125 -52t125 52t48 130z" />
    <glyph glyph-name="q" unicode="q" horiz-adv-x="673" 
d="M492 462v77h110v-761h-110v297q-73 -88 -185 -88q-116 0 -192 82t-76 201q0 118 76 200t193 82q109 0 184 -90zM324 88q76 0 124 52t48 130q0 76 -48 128q-48 53 -124 53q-77 0 -125 -53q-48 -52 -48 -128q0 -78 48 -130t125 -52z" />
    <glyph glyph-name="r" unicode="r" horiz-adv-x="399" 
d="M181 0h-110v539h105v-77q48 91 153 91q34 0 64 -9l-10 -107q-27 10 -59 10q-65 0 -104 -44t-39 -127v-276z" />
    <glyph glyph-name="s" unicode="s" horiz-adv-x="468" 
d="M231 -13q-64 0 -119 29t-88 84l71 64q24 -39 61.5 -60.5t76.5 -21.5t64 19.5t25 47.5q0 40 -46 62q-12 7 -65 27q-54 23 -68 31q-86 45 -86 133q0 67 50 111q52 44 134 44q115 0 177 -83l-64 -68q-48 59 -118 59q-33 0 -52.5 -17t-19.5 -42q0 -40 45 -59l55 -23
q53 -22 76 -34q92 -48 92 -136q0 -71 -56 -119t-145 -48z" />
    <glyph glyph-name="t" unicode="t" horiz-adv-x="438" 
d="M397 118l38 -86q-60 -45 -149 -45q-87 0 -132 53t-45 153v252h-93v94h94v191h109v-191h186v-94h-186v-254q0 -103 83 -103q44 0 95 30z" />
    <glyph glyph-name="u" unicode="u" horiz-adv-x="601" 
d="M300 -13q-108 0 -172 63t-64 171v318h110v-317q0 -61 33.5 -97t92.5 -36q60 0 93 35t33 98v317h111v-318q0 -110 -63 -172t-174 -62z" />
    <glyph glyph-name="v" unicode="v" horiz-adv-x="574" 
d="M288 154l154 385h121l-236 -538h-80l-236 538h122z" />
    <glyph glyph-name="w" unicode="w" horiz-adv-x="852" 
d="M288 1h-94l-184 538h116l121 -387l139 387h78l143 -387l117 387h116l-181 -538h-94l-140 382z" />
    <glyph glyph-name="x" unicode="x" horiz-adv-x="522" 
d="M329 272l181 -272h-128l-121 194l-124 -194h-131l186 278l-167 261h128l110 -182l114 182h128z" />
    <glyph glyph-name="y" unicode="y" horiz-adv-x="569" 
d="M297 150l138 389h121l-223 -588q-36 -95 -84 -137.5t-117 -42.5q-57 0 -92 23l16 95q39 -17 67 -17q65 0 106 92l17 40l-234 535h127z" />
    <glyph glyph-name="z" unicode="z" horiz-adv-x="518" 
d="M475 469l-294 -375h303v-94h-453v73l295 371h-279v94h428v-69z" />
    <glyph glyph-name="braceleft" unicode="{" horiz-adv-x="383" 
d="M140 292v-4q46 -15 75.5 -50t29.5 -83q0 -37 -4 -100t-4 -100q0 -89 90 -89h31v-97h-51q-179 0 -179 180q0 45 4 106t4 93q0 54 -37 76q-24 15 -78 26v80q52 10 78 26q37 22 37 76q0 31 -4 94t-4 108q0 177 182 177h48v-97h-31q-90 0 -90 -89q0 -38 4 -101t4 -99
q0 -48 -30 -83.5t-75 -49.5z" />
    <glyph glyph-name="bar" unicode="|" horiz-adv-x="271" 
d="M187 -179h-103v1026h103v-1026z" />
    <glyph glyph-name="braceright" unicode="}" horiz-adv-x="383" 
d="M243 288v4q-45 13 -75.5 49t-30.5 84q0 36 4 99q5 78 5 101q0 89 -90 89h-31v97h49q181 0 181 -177q0 -45 -4 -108t-4 -94q0 -36 18 -58q17 -20 37 -28t60 -16v-80q-54 -11 -79 -26q-36 -22 -36 -76q0 -32 4 -93t4 -106q0 -180 -179 -180h-51v97h31q90 0 90 89
q0 22 -5 100q-4 63 -4 100q0 48 30 83t76 50z" />
    <glyph glyph-name="asciitilde" unicode="~" horiz-adv-x="678" 
d="M444 244q-52 0 -119 33q-67 34 -96 34t-50.5 -13.5t-49.5 -47.5l-70 53q60 105 176 105q51 0 119 -33t96 -33q30 0 51.5 13.5t48.5 48.5l72 -54q-64 -106 -178 -106z" />
    <glyph glyph-name="exclamdown" unicode="&#xa1;" horiz-adv-x="266" 
d="M147 526q29 0 48.5 -20t19.5 -50q0 -29 -19.5 -48.5t-48.5 -19.5q-30 0 -50.5 19.5t-20.5 48.5q0 30 20.5 50t50.5 20zM86 -231l5 557h108l6 -557h-119z" />
    <glyph glyph-name="cent" unicode="&#xa2;" horiz-adv-x="613" 
d="M365 448v-355q38 8 71 32t50 56l91 -53q-29 -56 -86 -93t-126 -45v-79h-71v79q-110 10 -182 88q-69 77 -69 191q0 115 69 191q71 78 182 90v81h71v-81q73 -8 129.5 -45t85.5 -97l-91 -51q-45 76 -124 91zM294 92v355q-62 -13 -101 -62t-39 -116t39 -116t101 -61z" />
    <glyph glyph-name="sterling" unicode="&#xa3;" horiz-adv-x="576" 
d="M185 106h349v-106h-480v91q42 33 68 86q27 53 27 103q0 23 -6 47h-90v92h59q-25 72 -25 117q2 92 67 153q68 62 164 63q67 1 124.5 -30.5t90.5 -86.5l-80 -64q-21 34 -54.5 54t-71.5 20q-54 0 -88.5 -35t-34.5 -88q0 -37 23 -103h237v-92h-208q6 -31 5 -58
q-1 -96 -76 -163z" />
    <glyph glyph-name="currency" unicode="&#xa4;" horiz-adv-x="639" 
d="M547 367q0 -68 -38 -124l73 -72l-58 -57l-71 70q-61 -43 -136 -43q-73 0 -132 42l-71 -69l-56 57l70 69q-39 58 -39 127q0 75 44 136l-75 74l56 57l77 -76q58 38 126 38q71 0 129 -39l78 77l58 -57l-78 -77q43 -58 43 -133zM317 227q57 0 98 41q40 41 40 101t-40 100
q-41 41 -98 41q-56 0 -97 -41q-39 -41 -39 -100t39 -101q41 -41 97 -41z" />
    <glyph glyph-name="yen" unicode="&#xa5;" horiz-adv-x="657" 
d="M503 739h125l-190 -359h120v-85h-165l-7 -13v-40h172v-86h-172v-156h-115v156h-175v86h175v40l-7 13h-168v85h123l-189 359h126l173 -343z" />
    <glyph glyph-name="brokenbar" unicode="&#xa6;" horiz-adv-x="271" 
d="M187 434h-103v413h103v-413zM84 234h103v-413h-103v413z" />
    <glyph glyph-name="section" unicode="&#xa7;" horiz-adv-x="580" 
d="M543 213q0 -86 -74 -133q29 -46 29 -100q0 -86 -62 -142q-62 -57 -163 -57q-145 0 -230 112l75 74q66 -81 154 -81q48 0 78 26.5t30 66.5q0 47 -48 80q-21 16 -45 29q-52 28 -58 31q-45 23 -68 36q-21 12 -56 39q-60 49 -60 122q0 87 73 133q-30 43 -30 101q0 89 62 145
q64 56 162 56q130 0 210 -102l-78 -70q-55 67 -127 67q-50 0 -81 -26.5t-31 -66.5q0 -45 46 -80q28 -20 45 -29l57 -30l16 -8q76 -39 117 -74q57 -47 57 -119zM279 214q83 -41 117 -65q30 20 30 53q0 31 -25.5 54.5t-85.5 53.5q-104 54 -127 71q-30 -21 -30 -54
q0 -23 19 -45q19 -21 39 -34q14 -9 63 -34z" />
    <glyph glyph-name="dieresis" unicode="&#xa8;" horiz-adv-x="500" 
d="M122 628q-32 0 -53 21t-21 53q0 31 21 51.5t53 20.5q31 0 52 -20.5t21 -51.5q0 -32 -21 -53t-52 -21zM327 628q-32 0 -53 21t-21 53q0 31 21 51.5t53 20.5q30 0 51 -20.5t21 -51.5q0 -32 -21 -53t-51 -21z" />
    <glyph glyph-name="copyright" unicode="&#xa9;" horiz-adv-x="857" 
d="M43 369q0 157 113 270t272 113t272 -113t113 -270q0 -156 -113 -269q-112 -112 -272 -112t-272 112q-113 113 -113 269zM428 60q129 0 220 91t91 218q0 128 -91 219t-220 91t-220 -91t-91 -219q0 -127 91 -218t220 -91zM432 164q-88 0 -147 59t-59 146q0 89 58 147
q59 59 147 59q105 0 162 -80l-56 -42q-43 51 -105 51q-56 0 -92.5 -38t-36.5 -97t36.5 -96.5t92.5 -37.5q66 0 107 48l53 -46q-26 -34 -68.5 -53.5t-91.5 -19.5z" />
    <glyph glyph-name="ordfeminine" unicode="&#xaa;" horiz-adv-x="411" 
d="M195 736q70 0 112 -41.5t42 -115.5v-188h-67v36q-39 -45 -112 -45q-57 0 -91.5 31.5t-34.5 80.5q0 48 37.5 75t103.5 27q40 0 96 -7q-6 80 -92 80q-57 0 -100 -27l-25 56q53 38 131 38zM180 448q43 0 69 23t31 64q-39 7 -89 7q-36 0 -55.5 -12.5t-19.5 -33.5
q0 -22 17.5 -35t46.5 -13z" />
    <glyph glyph-name="guillemotleft" unicode="&#xab;" horiz-adv-x="539" 
d="M290 88h-112l-140 203l140 203h112l-142 -203zM488 88h-113l-138 203l138 203h113l-141 -203z" />
    <glyph glyph-name="logicalnot" unicode="&#xac;" horiz-adv-x="606" 
d="M435 266h-367v103h466v-221h-99v118z" />
    <glyph glyph-name="uni00AD" unicode="&#xad;" horiz-adv-x="508" 
d="M445 277h-382v102h382v-102z" />
    <glyph glyph-name="registered" unicode="&#xae;" horiz-adv-x="576" 
d="M115 696q72 72 173 72t173 -72q73 -72 73 -173t-73 -173q-72 -72 -173 -72t-173 72t-72 173t72 173zM153 387q56 -56 135 -56t135 56q56 58 56 136q0 79 -56 135q-55 57 -135 57t-135 -57q-56 -56 -56 -135q0 -78 56 -136zM386 566q0 -53 -46 -72l52 -89h-57l-45 81h-38
v-81h-51v241h101q36 0 60 -22.5t24 -57.5zM290 604h-38v-77h38q45 0 45 40q0 37 -45 37z" />
    <glyph glyph-name="overscore" unicode="&#xaf;" horiz-adv-x="466" 
d="M354 644l-314 -1v98h314v-97z" />
    <glyph glyph-name="degree" unicode="&#xb0;" horiz-adv-x="364" 
d="M183 538q-60 0 -104 41q-43 40 -43 100q0 61 43 101q44 42 104 42t102 -42q43 -40 43 -101q0 -60 -43 -100q-43 -41 -102 -41zM183 605q30 0 52 21.5t22 52.5q0 32 -22 54t-52 22q-31 0 -53 -22t-22 -54q0 -31 22 -52.5t53 -21.5z" />
    <glyph glyph-name="plusminus" unicode="&#xb1;" horiz-adv-x="605" 
d="M355 676v-189h188v-104h-188v-187l-103 -2v189h-190v104h190v189h103zM543 72h-481v100h481v-100z" />
    <glyph glyph-name="uni00B2" unicode="&#xb2;" horiz-adv-x="345" 
d="M246 677l-95 -99h153v-71h-265v63l130 132q52 53 52 87q0 22 -16 36.5t-41 14.5q-44 0 -94 -47l-40 58q61 61 139 61q58 0 95 -34t37 -88q0 -58 -55 -113z" />
    <glyph glyph-name="uni00B3" unicode="&#xb3;" horiz-adv-x="332" 
d="M147 501q-67 0 -132 39l32 61q56 -30 97 -30q32 0 51 14.5t19 38.5q0 23 -19.5 38t-50.5 15h-52v67h48q27 0 46.5 13.5t19.5 35.5t-17 35t-43 13q-40 0 -83 -31l-38 55q53 47 130 47q56 0 93.5 -30.5t37.5 -74.5q0 -32 -19.5 -56t-52.5 -34v-2q38 -8 59.5 -34.5
t21.5 -62.5q0 -52 -41.5 -84.5t-106.5 -32.5z" />
    <glyph glyph-name="acute" unicode="&#xb4;" horiz-adv-x="435" 
d="M137 620h-97l60 170h130z" />
    <glyph glyph-name="paragraph" unicode="&#xb6;" horiz-adv-x="693" 
d="M255 734h387v-105h-71v-832h-109v832h-74v-832h-109v500h-29q-93 0 -158 62q-63 61 -63 157q0 95 64 156q65 62 162 62z" />
    <glyph glyph-name="middot" unicode="&#xb7;" horiz-adv-x="259" 
d="M130 -16q-30 0 -50.5 20t-20.5 50q0 29 20.5 49t50.5 20q29 0 49 -20t20 -49q0 -30 -20 -50t-49 -20z" />
    <glyph glyph-name="cedilla" unicode="&#xb8;" horiz-adv-x="324" 
d="M183 -48h3q46 0 76 -25.5t30 -69.5q0 -48 -36 -80.5t-99 -32.5q-53 0 -117 29l27 69q43 -21 81 -21q26 0 41 11.5t15 30.5q0 36 -53 36h-56l-8 23l39 98l84 -2z" />
    <glyph glyph-name="uni00B9" unicode="&#xb9;" horiz-adv-x="269" 
d="M15 793l136 107h60v-393h-80v283l-74 -58z" />
    <glyph glyph-name="ordmasculine" unicode="&#xba;" horiz-adv-x="436" 
d="M40 557q0 76 51 127t127 51t127 -51q52 -51 52 -127q0 -75 -52 -126q-52 -50 -127 -50t-127 50q-51 51 -51 126zM217 449q47 0 78 31t31 78t-31.5 78.5t-77.5 31.5t-76.5 -31.5t-30.5 -78.5t31 -78t76 -31z" />
    <glyph glyph-name="guillemotright" unicode="&#xbb;" horiz-adv-x="539" 
d="M302 291l-138 -203h-113l141 203l-141 203h113zM501 291l-140 -203h-112l142 203l-142 203h112z" />
    <glyph glyph-name="onequarter" unicode="&#xbc;" horiz-adv-x="866" 
d="M228 346h-79v284l-74 -58l-42 61l136 107h59v-394zM106 0l578 739h93l-576 -739h-95zM781 158h43v-63h-43v-95h-70v95h-183l-16 46l213 255h56v-238zM711 288l-109 -130h109v130z" />
    <glyph glyph-name="onehalf" unicode="&#xbd;" horiz-adv-x="847" 
d="M229 346h-79v284l-74 -58l-42 61l136 107h59v-394zM83 0l578 739h93l-576 -739h-95zM747 170l-95 -99h153v-71h-265v63l130 132q52 53 52 87q0 22 -16 36.5t-41 14.5q-44 0 -94 -47l-40 58q61 61 139 61q58 0 95 -34t37 -88q0 -58 -55 -113z" />
    <glyph glyph-name="threequarters" unicode="&#xbe;" horiz-adv-x="843" 
d="M150 411q32 0 51 14.5t19 38.5q0 23 -19.5 38t-50.5 15h-52v67h48q27 0 46.5 13.5t19.5 35.5t-17 35t-43 13q-40 0 -83 -31l-38 55q53 47 130 47q56 0 93.5 -30.5t37.5 -74.5q0 -32 -19.5 -56t-52.5 -34v-2q38 -8 59.5 -34.5t21.5 -62.5q0 -52 -41.5 -84.5t-106.5 -32.5
q-67 0 -132 39l32 61q55 -30 97 -30zM127 0l578 739h93l-576 -739h-95zM687 396h56v-238h43v-63h-43v-95h-70v95h-183l-16 46zM673 288l-109 -130h109v130z" />
    <glyph glyph-name="questiondown" unicode="&#xbf;" horiz-adv-x="516" 
d="M290 527q30 0 51 -20t21 -50q0 -29 -21 -48.5t-51 -19.5q-28 0 -48 19.5t-20 48.5q0 30 20 50t48 20zM240 339h105v-71q0 -77 -69 -135l-27.5 -24l-30 -26.5t-25.5 -25.5t-23.5 -29.5t-13.5 -29.5t-6 -34q0 -49 35 -80t88 -31q76 0 151 82l68 -77q-42 -51 -102 -80
t-125 -29q-95 0 -163 60q-66 59 -66 150q0 87 72 152q11 10 35 30t37 32t29 29.5t23.5 34.5t7.5 34v68z" />
    <glyph glyph-name="Agrave" unicode="&#xc0;" horiz-adv-x="681" 
d="M332 967l61 -173h-100l-95 173h134zM670 0h-124l-70 182h-272l-70 -182h-124l294 739h75zM441 288l-100 268l-100 -268h200z" />
    <glyph glyph-name="Aacute" unicode="&#xc1;" horiz-adv-x="681" 
d="M362 966h132l-95 -173h-98zM670 0h-124l-70 182h-272l-70 -182h-124l294 739h75zM441 288l-100 268l-100 -268h200z" />
    <glyph glyph-name="Acircumflex" unicode="&#xc2;" horiz-adv-x="681" 
d="M411 793l-71 90l-71 -90h-113l145 171h81l145 -171h-116zM670 0h-124l-70 182h-272l-70 -182h-124l294 739h75zM441 288l-100 268l-100 -268h200z" />
    <glyph glyph-name="Atilde" unicode="&#xc3;" horiz-adv-x="681" 
d="M271 846q-38 0 -62 -49l-72 35q36 103 129 103q32 0 76 -23q43 -22 62 -22q36 0 59 47l70 -34q-16 -48 -49 -75.5t-75 -27.5q-31 0 -75 23t-63 23zM670 0h-124l-70 182h-272l-70 -182h-124l294 739h75zM441 288l-100 268l-100 -268h200z" />
    <glyph glyph-name="Adieresis" unicode="&#xc4;" horiz-adv-x="681" 
d="M176 872q0 28 20 47.5t49 19.5t48.5 -19.5t19.5 -47.5q0 -30 -19.5 -49.5t-48.5 -19.5t-49 19.5t-20 49.5zM367 872q0 29 19.5 48t48.5 19t48 -19.5t19 -47.5q0 -30 -19 -49.5t-48 -19.5t-48.5 19.5t-19.5 49.5zM670 0h-124l-70 182h-272l-70 -182h-124l294 739h75z
M441 288l-100 268l-100 -268h200z" />
    <glyph glyph-name="Aring" unicode="&#xc5;" horiz-adv-x="681" 
d="M432 814q-34 -34 -87 -34t-88 34q-36 34 -36 84t36 85q37 35 88 35q52 0 87 -35q36 -35 36 -85t-36 -84zM345 953q-23 0 -39 -15.5t-16 -37.5q0 -23 16 -39t39 -16q21 0 37 16t16 39q0 22 -16 37.5t-37 15.5zM670 0h-124l-70 182h-272l-70 -182h-124l294 739h75zM441 288
l-100 268l-100 -268h200z" />
    <glyph glyph-name="AE" unicode="&#xc6;" horiz-adv-x="1026" 
d="M971 739v-109h-365v-201h336v-109h-336v-211h365v-109h-481v204h-255l-122 -204h-129l458 739h529zM490 631l-192 -321h192v321z" />
    <glyph glyph-name="Ccedilla" unicode="&#xc7;" horiz-adv-x="772" 
d="M667 220l82 -72q-48 -67 -124.5 -109t-166.5 -49l-16 -38h3q46 0 76 -25.5t30 -69.5q0 -48 -36 -80.5t-99 -32.5q-53 0 -117 29l27 69q44 -21 81 -21q26 0 41 11.5t15 30.5q0 36 -53 36h-56l-8 23l28 70q-142 16 -237 119q-93 104 -93 256q0 168 112 276q112 109 271 109
q99 0 185 -44q85 -43 133 -115l-82 -74q-91 121 -233 121q-112 0 -190 -78q-77 -79 -77 -195q0 -117 76 -192q77 -75 190 -75q147 0 238 120z" />
    <glyph glyph-name="Egrave" unicode="&#xc8;" horiz-adv-x="618" 
d="M327 967l61 -173h-100l-95 173h134zM563 0h-473v739h472v-109h-357v-201h331v-109h-331v-211h358v-109z" />
    <glyph glyph-name="Eacute" unicode="&#xc9;" horiz-adv-x="618" 
d="M368 793h-98l61 173h132zM563 0h-473v739h472v-109h-357v-201h331v-109h-331v-211h358v-109z" />
    <glyph glyph-name="Ecircumflex" unicode="&#xca;" horiz-adv-x="618" 
d="M255 793h-113l145 171h81l145 -171h-116l-71 90zM563 0h-473v739h472v-109h-357v-201h331v-109h-331v-211h358v-109z" />
    <glyph glyph-name="Edieresis" unicode="&#xcb;" horiz-adv-x="618" 
d="M164 872q0 28 20 47.5t49 19.5t48.5 -19.5t19.5 -47.5q0 -30 -19.5 -49.5t-48.5 -19.5t-49 19.5t-20 49.5zM355 872q0 29 19.5 48t48.5 19t48 -19.5t19 -47.5q0 -30 -19 -49.5t-48 -19.5t-48.5 19.5t-19.5 49.5zM563 0h-473v739h472v-109h-357v-201h331v-109h-331v-211
h358v-109z" />
    <glyph glyph-name="Igrave" unicode="&#xcc;" horiz-adv-x="295" 
d="M140 968l61 -173h-100l-95 173h134zM92 0v739h115v-739h-115z" />
    <glyph glyph-name="Iacute" unicode="&#xcd;" horiz-adv-x="292" 
d="M193 795h-98l61 173h132zM90 0v739h115v-739h-115z" />
    <glyph glyph-name="Icircumflex" unicode="&#xce;" horiz-adv-x="295" 
d="M78 795h-113l145 171h81l145 -171h-116l-71 90zM92 0v739h115v-739h-115z" />
    <glyph glyph-name="Idieresis" unicode="&#xcf;" horiz-adv-x="295" 
d="M51 800q-31 0 -51 20t-20 51q0 30 20 50t51 20q30 0 50.5 -20t20.5 -50q0 -31 -20.5 -51t-50.5 -20zM178 871q0 30 20.5 50t50.5 20q29 0 49.5 -20t20.5 -50q0 -31 -20 -51t-50 -20t-50.5 20t-20.5 51zM92 0v739h115v-739h-115z" />
    <glyph glyph-name="Eth" unicode="&#xd0;" horiz-adv-x="780" 
d="M108 739h279q161 0 252 -100q93 -100 93 -271q0 -169 -95 -269q-95 -99 -259 -99h-270v321h-94v98h94v320zM223 110h160q108 0 168 73q61 73 61 188q0 112 -61 185q-60 73 -167 73h-161v-210h206v-98h-206v-211z" />
    <glyph glyph-name="Ntilde" unicode="&#xd1;" horiz-adv-x="785" 
d="M268 798l-72 35q36 103 129 103q32 0 76 -23q43 -22 62 -22q36 0 59 47l70 -34q-16 -48 -49 -75.5t-75 -27.5q-31 0 -75 23t-63 23q-38 0 -62 -49zM581 234v505h114v-739h-68l-423 501v-501h-114v739h60z" />
    <glyph glyph-name="Ograve" unicode="&#xd2;" 
d="M429 967l61 -173h-100l-95 173h134zM423 -12q-162 0 -271 109t-109 269q0 161 112 273q113 113 271 113q160 0 272 -112t112 -271t-112 -270t-275 -111zM426 101q111 0 187 76q77 77 77 191q0 116 -77 193t-187 77q-111 0 -187 -78q-76 -76 -76 -192q0 -114 75 -190
q77 -77 188 -77z" />
    <glyph glyph-name="Oacute" unicode="&#xd3;" 
d="M473 793h-98l61 173h132zM423 -12q-162 0 -271 109t-109 269q0 161 112 273q113 113 271 113q160 0 272 -112t112 -271t-112 -270t-275 -111zM426 101q111 0 187 76q77 77 77 191q0 116 -77 193t-187 77q-111 0 -187 -78q-76 -76 -76 -192q0 -114 75 -190q77 -77 188 -77
z" />
    <glyph glyph-name="Ocircumflex" unicode="&#xd4;" 
d="M354 793h-113l145 171h81l145 -171h-116l-71 90zM423 -12q-162 0 -271 109t-109 269q0 161 112 273q113 113 271 113q160 0 272 -112t112 -271t-112 -270t-275 -111zM426 101q111 0 187 76q77 77 77 191q0 116 -77 193t-187 77q-111 0 -187 -78q-76 -76 -76 -192
q0 -114 75 -190q77 -77 188 -77z" />
    <glyph glyph-name="Otilde" unicode="&#xd5;" 
d="M304 797l-72 35q36 103 129 103q32 0 76 -23q43 -22 62 -22q36 0 59 47l70 -34q-16 -48 -49 -75.5t-75 -27.5q-31 0 -75 23t-63 23q-38 0 -62 -49zM423 -12q-162 0 -271 109t-109 269q0 161 112 273q113 113 271 113q160 0 272 -112t112 -271t-112 -270t-275 -111z
M426 101q111 0 187 76q77 77 77 191q0 116 -77 193t-187 77q-111 0 -187 -78q-76 -76 -76 -192q0 -114 75 -190q77 -77 188 -77z" />
    <glyph glyph-name="Odieresis" unicode="&#xd6;" 
d="M268 872q0 28 20 47.5t49 19.5t48.5 -19.5t19.5 -47.5q0 -30 -19.5 -49.5t-48.5 -19.5t-49 19.5t-20 49.5zM459 872q0 29 19.5 48t48.5 19t48 -19.5t19 -47.5q0 -30 -19 -49.5t-48 -19.5t-48.5 19.5t-19.5 49.5zM423 -12q-162 0 -271 109t-109 269q0 161 112 273
q113 113 271 113q160 0 272 -112t112 -271t-112 -270t-275 -111zM426 101q111 0 187 76q77 77 77 191q0 116 -77 193t-187 77q-111 0 -187 -78q-76 -76 -76 -192q0 -114 75 -190q77 -77 188 -77z" />
    <glyph glyph-name="multiply" unicode="&#xd7;" horiz-adv-x="531" 
d="M412 554l68 -66l-148 -149l148 -148l-66 -69l-149 150l-149 -150l-66 69l148 148l-147 147l65 68l148 -148z" />
    <glyph glyph-name="Oslash" unicode="&#xd8;" 
d="M747 740l-62 -88q125 -114 125 -283q0 -159 -112 -270t-275 -111q-92 0 -176 41l-57 -80l-72 49l56 79q-62 52 -96.5 127.5t-34.5 161.5q0 161 112 273q113 113 271 113q101 0 189 -49l61 86zM163 368q0 -118 79 -194l307 435q-61 29 -123 29q-111 0 -187 -78
q-76 -76 -76 -192zM426 101q111 0 187 76q77 77 77 191q0 113 -72 188l-304 -431q54 -24 112 -24z" />
    <glyph glyph-name="Ugrave" unicode="&#xd9;" horiz-adv-x="712" 
d="M354 967l61 -173h-100l-95 173h134zM356 -13q-121 0 -198 71q-76 70 -76 198v483h115v-468q0 -83 41.5 -127t117.5 -44q74 0 116 45t42 126v468h116v-483q0 -129 -76 -199t-198 -70z" />
    <glyph glyph-name="Uacute" unicode="&#xda;" horiz-adv-x="712" 
d="M401 793h-98l61 173h132zM356 -13q-121 0 -198 71q-76 70 -76 198v483h115v-468q0 -83 41.5 -127t117.5 -44q74 0 116 45t42 126v468h116v-483q0 -129 -76 -199t-198 -70z" />
    <glyph glyph-name="Ucircumflex" unicode="&#xdb;" horiz-adv-x="712" 
d="M284 793h-113l145 171h81l145 -171h-116l-71 90zM356 -13q-121 0 -198 71q-76 70 -76 198v483h115v-468q0 -83 41.5 -127t117.5 -44q74 0 116 45t42 126v468h116v-483q0 -129 -76 -199t-198 -70z" />
    <glyph glyph-name="Udieresis" unicode="&#xdc;" horiz-adv-x="712" 
d="M192 872q0 28 20 47.5t49 19.5t48.5 -19.5t19.5 -47.5q0 -30 -19.5 -49.5t-48.5 -19.5t-49 19.5t-20 49.5zM383 872q0 29 19.5 48t48.5 19t48 -19.5t19 -47.5q0 -30 -19 -49.5t-48 -19.5t-48.5 19.5t-19.5 49.5zM356 -13q-121 0 -198 71q-76 70 -76 198v483h115v-468
q0 -83 41.5 -127t117.5 -44q74 0 116 45t42 126v468h116v-483q0 -129 -76 -199t-198 -70z" />
    <glyph glyph-name="Yacute" unicode="&#xdd;" horiz-adv-x="652" 
d="M368 793h-98l61 173h132zM507 739h130l-254 -476v-263h-115v263l-251 476h130l179 -358z" />
    <glyph glyph-name="Thorn" unicode="&#xde;" horiz-adv-x="631" 
d="M205 612h143q120 0 181 -69q63 -68 63 -163q0 -97 -65 -165q-64 -67 -189 -67h-133v-148h-115v739h115v-127zM205 256h135q64 0 99.5 36t35.5 90q0 52 -33 86.5t-91 34.5h-146v-247z" />
    <glyph glyph-name="germandbls" unicode="&#xdf;" horiz-adv-x="651" 
d="M482 396q59 -21 94.5 -73t35.5 -118q0 -97 -73 -161q-73 -63 -181 -63q-62 0 -122 23l25 96q33 -16 91 -16q66 0 107 38q41 39 41 92q0 57 -50 92t-129 35v91q62 0 102.5 36.5t40.5 90.5q0 52 -35.5 84t-91.5 32q-72 0 -113 -55t-41 -155v-642h-112v665q0 143 79 216
q80 74 191 74q104 0 170 -60q66 -58 66 -150q0 -55 -25 -100.5t-70 -71.5z" />
    <glyph glyph-name="agrave" unicode="&#xe0;" horiz-adv-x="669" 
d="M322 794l60 -170h-97l-93 170h130zM492 464v75h106v-539h-106v74q-73 -87 -184 -87q-117 0 -193 82t-76 204q0 121 76 200t193 79q111 0 184 -88zM323 88q75 0 125 53q49 52 49 129q0 76 -49 128q-50 53 -125 53q-77 0 -125 -53q-48 -52 -48 -129t48 -129t125 -52z" />
    <glyph glyph-name="aacute" unicode="&#xe1;" horiz-adv-x="669" 
d="M342 794h130l-93 -170h-97zM492 464v75h106v-539h-106v74q-73 -87 -184 -87q-117 0 -193 82t-76 204q0 121 76 200t193 79q111 0 184 -88zM323 88q75 0 125 53q49 52 49 129q0 76 -49 128q-50 53 -125 53q-77 0 -125 -53q-48 -52 -48 -129t48 -129t125 -52z" />
    <glyph glyph-name="acircumflex" unicode="&#xe2;" horiz-adv-x="669" 
d="M400 623l-69 89l-70 -89h-112l143 168h80l143 -168h-115zM492 464v75h106v-539h-106v74q-73 -87 -184 -87q-117 0 -193 82t-76 204q0 121 76 200t193 79q111 0 184 -88zM323 88q75 0 125 53q49 52 49 129q0 76 -49 128q-50 53 -125 53q-77 0 -125 -53q-48 -52 -48 -129
t48 -129t125 -52z" />
    <glyph glyph-name="atilde" unicode="&#xe3;" horiz-adv-x="669" 
d="M269 676q-37 0 -61 -48l-71 34q35 102 127 102q32 0 75 -22t62 -22q37 0 58 46l70 -33q-16 -48 -48.5 -75t-74.5 -27q-31 0 -74 22q-44 23 -63 23zM492 464v75h106v-539h-106v74q-73 -87 -184 -87q-117 0 -193 82t-76 204q0 121 76 200t193 79q111 0 184 -88zM323 88
q75 0 125 53q49 52 49 129q0 76 -49 128q-50 53 -125 53q-77 0 -125 -53q-48 -52 -48 -129t48 -129t125 -52z" />
    <glyph glyph-name="adieresis" unicode="&#xe4;" horiz-adv-x="669" 
d="M232 618q-32 0 -53 21t-21 53q0 31 21 51.5t53 20.5q31 0 52 -20.5t21 -51.5q0 -32 -21 -53t-52 -21zM437 618q-32 0 -53 21t-21 53q0 31 21 51.5t53 20.5q30 0 51 -20.5t21 -51.5q0 -32 -21 -53t-51 -21zM492 464v75h106v-539h-106v74q-73 -87 -184 -87q-117 0 -193 82
t-76 204q0 121 76 200t193 79q111 0 184 -88zM323 88q75 0 125 53q49 52 49 129q0 76 -49 128q-50 53 -125 53q-77 0 -125 -53q-48 -52 -48 -129t48 -129t125 -52z" />
    <glyph glyph-name="aring" unicode="&#xe5;" horiz-adv-x="669" 
d="M419 637q-35 -33 -86 -33t-87 33q-35 35 -35 83t35 83q37 35 87 35q51 0 86 -35q36 -34 36 -83q0 -48 -36 -83zM333 774q-23 0 -38.5 -15t-15.5 -37q0 -23 15.5 -38.5t38.5 -15.5q21 0 37 15.5t16 38.5q0 21 -16 36.5t-37 15.5zM492 464v75h106v-539h-106v74
q-73 -87 -184 -87q-117 0 -193 82t-76 204q0 121 76 200t193 79q111 0 184 -88zM323 88q75 0 125 53q49 52 49 129q0 76 -49 128q-50 53 -125 53q-77 0 -125 -53q-48 -52 -48 -129t48 -129t125 -52z" />
    <glyph glyph-name="ae" unicode="&#xe6;" horiz-adv-x="990" 
d="M954 290q0 -29 -4 -54l-418 1q10 -68 56 -110t117 -42q44 0 92.5 16t85.5 43l48 -82q-41 -32 -104 -53t-127 -21q-159 0 -234 120q-35 -59 -95.5 -90t-133.5 -31q-96 0 -151 49q-56 50 -56 126q0 47 23.5 81.5t63.5 50.5q69 28 151 28h150q-22 133 -154 133
q-101 0 -165 -49l-46 82q40 28 100.5 46t115.5 18q66 0 122 -27t87 -77q77 104 220 104q112 0 184 -69q72 -67 72 -193zM697 456q-63 0 -106.5 -36.5t-56.5 -97.5h314q-6 63 -47 98.5t-104 35.5zM246 85q68 0 115.5 41.5t57.5 110.5h-150q-132 0 -132 -76q0 -34 30.5 -55
t78.5 -21z" />
    <glyph glyph-name="ccedilla" unicode="&#xe7;" horiz-adv-x="600" 
d="M325 89q48 0 92 26t65 66l91 -53q-30 -58 -89 -95t-132 -44l-15 -37h3q46 0 76 -25.5t30 -69.5q0 -48 -36 -80.5t-99 -32.5q-53 0 -117 29l27 69q43 -21 81 -21q26 0 41 11.5t15 30.5q0 36 -53 36h-56l-8 23l28 70q-102 16 -167 93q-63 77 -63 184q0 123 81 203
q82 80 208 80q81 0 148.5 -39t99.5 -105l-91 -51q-25 43 -66.5 68.5t-89.5 25.5q-77 0 -128 -52q-51 -53 -51 -130q0 -75 50 -128q49 -52 125 -52z" />
    <glyph glyph-name="egrave" unicode="&#xe8;" horiz-adv-x="616" 
d="M308 792l60 -170h-97l-93 170h130zM579 280q0 -26 -4 -53h-421q12 -65 57.5 -103t121.5 -38q46 0 96.5 16t86.5 42l46 -81q-101 -75 -233 -75q-142 0 -215.5 83t-73.5 200q0 122 76 201q77 80 199 80q117 0 190 -73q74 -74 74 -199zM315 457q-62 0 -105.5 -38.5
t-55.5 -101.5h314q-7 63 -49.5 101.5t-103.5 38.5z" />
    <glyph glyph-name="eacute" unicode="&#xe9;" horiz-adv-x="616" 
d="M324 794h130l-93 -170h-97zM579 280q0 -26 -4 -53h-421q12 -65 57.5 -103t121.5 -38q46 0 96.5 16t86.5 42l46 -81q-101 -75 -233 -75q-142 0 -215.5 83t-73.5 200q0 122 76 201q77 80 199 80q117 0 190 -73q74 -74 74 -199zM315 457q-62 0 -105.5 -38.5t-55.5 -101.5
h314q-7 63 -49.5 101.5t-103.5 38.5z" />
    <glyph glyph-name="ecircumflex" unicode="&#xea;" horiz-adv-x="616" 
d="M386 625l-69 89l-70 -89h-112l143 168h80l143 -168h-115zM579 280q0 -26 -4 -53h-421q12 -65 57.5 -103t121.5 -38q46 0 96.5 16t86.5 42l46 -81q-101 -75 -233 -75q-142 0 -215.5 83t-73.5 200q0 122 76 201q77 80 199 80q117 0 190 -73q74 -74 74 -199zM315 457
q-62 0 -105.5 -38.5t-55.5 -101.5h314q-7 63 -49.5 101.5t-103.5 38.5z" />
    <glyph glyph-name="edieresis" unicode="&#xeb;" horiz-adv-x="616" 
d="M225 613q-32 0 -53 21t-21 53q0 31 21 51.5t53 20.5q31 0 52 -20.5t21 -51.5q0 -32 -21 -53t-52 -21zM430 613q-32 0 -53 21t-21 53q0 31 21 51.5t53 20.5q30 0 51 -20.5t21 -51.5q0 -32 -21 -53t-51 -21zM579 280q0 -26 -4 -53h-421q12 -65 57.5 -103t121.5 -38
q46 0 96.5 16t86.5 42l46 -81q-101 -75 -233 -75q-142 0 -215.5 83t-73.5 200q0 122 76 201q77 80 199 80q117 0 190 -73q74 -74 74 -199zM315 457q-62 0 -105.5 -38.5t-55.5 -101.5h314q-7 63 -49.5 101.5t-103.5 38.5z" />
    <glyph glyph-name="igrave" unicode="&#xec;" horiz-adv-x="254" 
d="M118 792l60 -170h-97l-93 170h130zM182 539v-539h-110v539h110z" />
    <glyph glyph-name="iacute" unicode="&#xed;" horiz-adv-x="252" 
d="M174 624h-97l60 170h130zM181 539v-539h-110v539h110z" />
    <glyph glyph-name="icircumflex" unicode="&#xee;" horiz-adv-x="253" 
d="M56 622h-112l143 168h80l143 -168h-115l-69 89zM182 539v-539h-110v539h110z" />
    <glyph glyph-name="idieresis" unicode="&#xef;" horiz-adv-x="253" 
d="M25 616q-32 0 -53 21t-21 53q0 31 21 51.5t53 20.5q31 0 52 -20.5t21 -51.5q0 -32 -21 -53t-52 -21zM230 616q-32 0 -53 21t-21 53q0 31 21 51.5t53 20.5q30 0 51 -20.5t21 -51.5q0 -32 -21 -53t-51 -21zM182 539v-539h-110v539h110z" />
    <glyph glyph-name="eth" unicode="&#xf0;" horiz-adv-x="656" 
d="M572 750l-87 -60q126 -160 126 -343q0 -154 -86 -258q-85 -102 -218 -102q-115 0 -192 75q-75 75 -75 187t74 186q76 74 183 74q66 0 120 -32t83 -87q-10 112 -88 220l-15 20l-95 -66l-45 60l91 62q-48 49 -105 91l77 74q64 -49 116 -105l93 64zM311 86q69 0 116 48
q48 50 48 120q0 68 -48 115q-47 47 -114 47q-71 0 -117 -48q-46 -47 -46 -118q0 -69 45 -117q47 -47 116 -47z" />
    <glyph glyph-name="ntilde" unicode="&#xf1;" horiz-adv-x="626" 
d="M193 625l-71 34q34 102 127 102q32 0 75 -22t62 -22q37 0 58 46l70 -33q-16 -48 -48.5 -75t-74.5 -27q-31 0 -74 22q-44 23 -63 23q-37 0 -61 -48zM181 0h-110v539h108v-76q24 42 69 66t102 24q89 0 150 -58q62 -59 62 -167v-328h-111v297q0 73 -35 113.5t-94 40.5
q-62 0 -101.5 -43.5t-39.5 -112.5v-295z" />
    <glyph glyph-name="ograve" unicode="&#xf2;" horiz-adv-x="648" 
d="M317 792l60 -170h-97l-93 170h130zM39 270q0 117 80 200q81 83 205 83t204 -83q81 -82 81 -200q0 -120 -81 -202q-79 -82 -204 -82q-124 0 -205 82q-80 83 -80 202zM498 270q0 74 -51 127q-49 54 -123 54q-73 0 -124 -54q-50 -53 -50 -127q0 -75 50 -128q51 -53 124 -53
t123 53q51 53 51 128z" />
    <glyph glyph-name="oacute" unicode="&#xf3;" horiz-adv-x="648" 
d="M364 624h-97l60 170h130zM39 270q0 117 80 200q81 83 205 83t204 -83q81 -82 81 -200q0 -120 -81 -202q-79 -82 -204 -82q-124 0 -205 82q-80 83 -80 202zM498 270q0 74 -51 127q-49 54 -123 54q-73 0 -124 -54q-50 -53 -50 -127q0 -75 50 -128q51 -53 124 -53t123 53
q51 53 51 128z" />
    <glyph glyph-name="ocircumflex" unicode="&#xf4;" horiz-adv-x="648" 
d="M254 626h-112l143 168h80l143 -168h-115l-69 89zM39 270q0 117 80 200q81 83 205 83t204 -83q81 -82 81 -200q0 -120 -81 -202q-79 -82 -204 -82q-124 0 -205 82q-80 83 -80 202zM498 270q0 74 -51 127q-49 54 -123 54q-73 0 -124 -54q-50 -53 -50 -127q0 -75 50 -128
q51 -53 124 -53t123 53q51 53 51 128z" />
    <glyph glyph-name="otilde" unicode="&#xf5;" horiz-adv-x="648" 
d="M201 627l-71 34q34 102 127 102q32 0 75 -22t62 -22q37 0 58 46l70 -33q-16 -48 -48.5 -75t-74.5 -27q-31 0 -74 22q-44 23 -63 23q-37 0 -61 -48zM39 270q0 117 80 200q81 83 205 83t204 -83q81 -82 81 -200q0 -120 -81 -202q-79 -82 -204 -82q-124 0 -205 82
q-80 83 -80 202zM498 270q0 74 -51 127q-49 54 -123 54q-73 0 -124 -54q-50 -53 -50 -127q0 -75 50 -128q51 -53 124 -53t123 53q51 53 51 128z" />
    <glyph glyph-name="odieresis" unicode="&#xf6;" horiz-adv-x="648" 
d="M224 616q-32 0 -53 21t-21 53q0 31 21 51.5t53 20.5q31 0 52 -20.5t21 -51.5q0 -32 -21 -53t-52 -21zM429 616q-32 0 -53 21t-21 53q0 31 21 51.5t53 20.5q30 0 51 -20.5t21 -51.5q0 -32 -21 -53t-51 -21zM39 270q0 117 80 200q81 83 205 83t204 -83q81 -82 81 -200
q0 -120 -81 -202q-79 -82 -204 -82q-124 0 -205 82q-80 83 -80 202zM498 270q0 74 -51 127q-49 54 -123 54q-73 0 -124 -54q-50 -53 -50 -127q0 -75 50 -128q51 -53 124 -53t123 53q51 53 51 128z" />
    <glyph glyph-name="divide" unicode="&#xf7;" horiz-adv-x="551" 
d="M275 443q-30 0 -50 20t-20 49t20 48.5t50 19.5q28 0 47.5 -20t19.5 -48q0 -29 -19.5 -49t-47.5 -20zM503 285h-454v96h454v-96zM276 88q-30 0 -50 20t-20 49t20 48.5t50 19.5q28 0 47.5 -20t19.5 -48q0 -29 -19.5 -49t-47.5 -20z" />
    <glyph glyph-name="oslash" unicode="&#xf8;" horiz-adv-x="648" 
d="M566 558l-51 -74q94 -82 94 -214q0 -120 -81 -202q-79 -82 -204 -82q-72 0 -133 30l-54 -78l-57 39l54 78q-95 83 -95 215q0 117 80 200q81 83 205 83q70 0 132 -30l50 73zM150 270q0 -72 46 -124l199 289q-33 16 -71 16q-73 0 -124 -54q-50 -53 -50 -127zM324 89
q73 0 123 53q51 53 51 128q0 71 -46 123l-200 -288q33 -16 72 -16z" />
    <glyph glyph-name="ugrave" unicode="&#xf9;" horiz-adv-x="601" 
d="M298 794l60 -170h-97l-93 170h130zM300 -13q-108 0 -172 63t-64 171v318h110v-317q0 -61 33.5 -97t92.5 -36q60 0 93 35t33 98v317h111v-318q0 -110 -63 -172t-174 -62z" />
    <glyph glyph-name="uacute" unicode="&#xfa;" horiz-adv-x="601" 
d="M345 624h-97l60 170h130zM300 -13q-108 0 -172 63t-64 171v318h110v-317q0 -61 33.5 -97t92.5 -36q60 0 93 35t33 98v317h111v-318q0 -110 -63 -172t-174 -62z" />
    <glyph glyph-name="ucircumflex" unicode="&#xfb;" horiz-adv-x="601" 
d="M231 622h-112l143 168h80l143 -168h-115l-69 89zM300 -13q-108 0 -172 63t-64 171v318h110v-317q0 -61 33.5 -97t92.5 -36q60 0 93 35t33 98v317h111v-318q0 -110 -63 -172t-174 -62z" />
    <glyph glyph-name="udieresis" unicode="&#xfc;" horiz-adv-x="601" 
d="M199 616q-32 0 -53 21t-21 53q0 31 21 51.5t53 20.5q31 0 52 -20.5t21 -51.5q0 -32 -21 -53t-52 -21zM404 616q-32 0 -53 21t-21 53q0 31 21 51.5t53 20.5q30 0 51 -20.5t21 -51.5q0 -32 -21 -53t-51 -21zM300 -13q-108 0 -172 63t-64 171v318h110v-317q0 -61 33.5 -97
t92.5 -36q60 0 93 35t33 98v317h111v-318q0 -110 -63 -172t-174 -62z" />
    <glyph glyph-name="yacute" unicode="&#xfd;" horiz-adv-x="569" 
d="M292 792h130l-93 -170h-97zM297 150l138 389h121l-223 -588q-36 -95 -84 -137.5t-117 -42.5q-57 0 -92 23l16 95q39 -17 67 -17q65 0 106 92l17 40l-234 535h127z" />
    <glyph glyph-name="thorn" unicode="&#xfe;" horiz-adv-x="672" 
d="M361 552q119 0 195 -82q77 -82 77 -200t-78 -201q-76 -82 -194 -82q-105 0 -180 87v-296h-110v980h110v-294q76 88 180 88zM349 88q76 0 124 52t48 130q0 76 -48 128q-48 53 -124 53q-77 0 -125 -53q-48 -52 -48 -128q0 -77 47 -130q48 -52 126 -52z" />
    </font>
</defs>
</svg>
