<?xml version="1.0" standalone="no"?>
<!DOCTYPE svg PUBLIC "-//W3C//DTD SVG 1.1//EN" "http://www.w3.org/Graphics/SVG/1.1/DTD/svg11.dtd" >
<svg xmlns="http://www.w3.org/2000/svg" xmlns:xlink="http://www.w3.org/1999/xlink" version="1.1">
<metadata>
Created by FontForge 20170731 at Mon Oct 19 10:14:53 2020
 By Aleksey,,,
Generated in 2013 by FontLab Studio. Copyright info pending.
</metadata>
<defs>
<font id="CircularStd-Bold" horiz-adv-x="1183" >
  <font-face 
    font-family="Circular Std Bold"
    font-weight="700"
    font-stretch="normal"
    units-per-em="2048"
    panose-1="2 11 8 4 2 1 1 1 1 2"
    ascent="1657"
    descent="-391"
    x-height="1008"
    cap-height="1452"
    bbox="-113 -516 3170 2042"
    underline-thickness="163"
    underline-position="-562"
    unicode-range="U+000D-FEFF"
  />
<missing-glyph horiz-adv-x="1196" 
d="M145 0v1452h906v-1452h-906zM369 223h458v1006h-458v-1006z" />
    <glyph glyph-name="f_f" unicode="ff" horiz-adv-x="1392" 
d="M1133 1118v-110h227v-234h-227v-774h-273v774h-389v-774h-274v774h-168v234h168v114q0 171 99.5 273t266.5 102q89 0 135 -20v-230q-35 10 -86 10q-56 0 -98.5 -31.5t-42.5 -107.5v-110h389v114q0 170 100 272.5t267 102.5q89 0 135 -20v-230q-35 10 -86 10
q-34 0 -63.5 -10t-54 -43t-25.5 -86z" />
    <glyph glyph-name="f_f_i" unicode="ffi" horiz-adv-x="1959" 
d="M1509 1339q0 71 48.5 120.5t117.5 49.5q71 0 120.5 -49.5t49.5 -120.5q0 -69 -49.5 -117t-120.5 -48q-69 0 -117.5 48t-48.5 117zM860 1008v118q0 169 99.5 270t265.5 101q89 0 135 -20v-230q-35 10 -86 10q-56 0 -98.5 -31.5t-42.5 -107.5v-110h679v-1008h-272v774h-407
v-774h-273v774h-389v-774h-274v774h-168v234h168v114q0 171 99.5 273t266.5 102q89 0 135 -20v-230q-35 10 -86 10q-56 0 -98.5 -31.5t-42.5 -107.5v-110h389z" />
    <glyph glyph-name="f_f_l" unicode="ffl" horiz-adv-x="1959" 
d="M860 1122q0 171 99.5 273t265.5 102q89 0 135 -20v-230q-35 10 -86 10q-56 0 -98.5 -31.5t-42.5 -107.5v-110h409v475h273v-1483h-273v774h-409v-774h-273v774h-389v-774h-274v774h-168v234h168v114q0 171 99.5 273t266.5 102q89 0 135 -20v-230q-35 10 -86 10
q-56 0 -98.5 -31.5t-42.5 -107.5v-110h389v114z" />
    <glyph glyph-name="f_i" unicode="fi" horiz-adv-x="1292" 
d="M874 774h-403v-774h-274v774h-168v234h168v114q0 171 99.5 273t266.5 102q89 0 135 -20v-230q-35 10 -86 10q-56 0 -98.5 -31.5t-42.5 -107.5v-110h674v-1008h-271v774zM842 1339q0 70 49.5 120t118.5 50t118.5 -50t49.5 -120q0 -69 -49.5 -117t-118.5 -48t-118.5 48
t-49.5 117z" />
    <glyph glyph-name="f_l" unicode="fl" horiz-adv-x="1290" 
d="M612 1257q-56 0 -98.5 -31.5t-42.5 -107.5v-110h401v475h273v-1483h-273v774h-401v-774h-274v774h-168v234h168v114q0 171 99.5 273t266.5 102q89 0 135 -20v-230q-35 10 -86 10z" />
    <glyph glyph-name=".notdef" horiz-adv-x="1196" 
d="M145 0v1452h906v-1452h-906zM369 223h458v1006h-458v-1006z" />
    <glyph glyph-name=".null" horiz-adv-x="0" 
 />
    <glyph glyph-name=".null" horiz-adv-x="0" 
 />
    <glyph glyph-name="uni000D" unicode="&#xd;" horiz-adv-x="505" 
 />
    <glyph glyph-name="space" unicode=" " horiz-adv-x="505" 
 />
    <glyph glyph-name="exclam" unicode="!" horiz-adv-x="684" 
d="M506 1452l-66 -1010h-198l-66 1010h330zM180 145q0 68 47 116t113 48q68 0 116 -48.5t48 -115.5t-48 -114t-116 -47q-66 0 -113 47t-47 114z" />
    <glyph glyph-name="quotedbl" unicode="&#x22;" horiz-adv-x="823" 
d="M70 1196q0 67 43.5 111.5t109.5 44.5t109 -44t43 -112q0 -29 -8 -53l-97 -375h-96l-96 375q-8 40 -8 53zM449 1196q0 67 43.5 111.5t109.5 44.5t109 -44t43 -112q0 -26 -9 -53l-96 -375h-96l-96 375q-8 40 -8 53z" />
    <glyph glyph-name="numbersign" unicode="#" horiz-adv-x="1519" 
d="M186 811v197h293l70 319h215l-70 -319h269l69 319h213l-69 -319h260v-197h-301l-62 -287h260v-194h-303l-69 -330h-213l69 330h-268l-70 -330h-215l70 330h-250v194h293l61 287h-252zM653 811l-61 -287h268l62 287h-269z" />
    <glyph glyph-name="dollar" unicode="$" horiz-adv-x="1220" 
d="M737 -240h-209v220q-102 14 -185 57t-135 102.5t-81.5 125.5t-36.5 134l254 62q10 -106 82.5 -177t204.5 -71q98 0 154.5 42.5t56.5 111.5q0 53 -39 90.5t-115 54.5l-188 41q-168 37 -263.5 138t-95.5 247q0 159 109.5 272t277.5 140v219h209v-226q85 -15 152 -51.5
t109.5 -86t68 -100.5t37.5 -106l-252 -71q-5 31 -18.5 60.5t-39 60.5t-71.5 50t-105 19q-94 0 -148 -46.5t-54 -113.5q0 -49 35.5 -85.5t105.5 -51.5l186 -43q187 -41 281 -146t94 -249q0 -147 -101.5 -260t-279.5 -141v-222z" />
    <glyph glyph-name="percent" unicode="%" horiz-adv-x="1748" 
d="M295 1016q0 -64 38.5 -104t96.5 -40q59 0 97 40.5t38 103.5t-38 102t-97 39q-58 0 -96.5 -39.5t-38.5 -101.5zM90 1016q0 140 100.5 238t239.5 98t240.5 -98t101.5 -238q0 -141 -101 -237.5t-241 -96.5t-240 97.5t-100 236.5zM1190 311q0 -64 38.5 -103.5t96.5 -39.5
q59 0 97 40t38 103t-38 102.5t-97 39.5q-58 0 -96.5 -40t-38.5 -102zM985 311q0 140 100.5 238t239.5 98t240.5 -98t101.5 -238q0 -141 -101 -237.5t-241 -96.5t-240 97.5t-100 236.5zM528 0h-237l938 1329h237z" />
    <glyph glyph-name="ampersand" unicode="&#x26;" horiz-adv-x="1468" 
d="M1116 0l-149 158q-182 -185 -389 -185q-103 0 -188.5 33t-139.5 88.5t-83.5 124.5t-29.5 143q0 87 32 159t82.5 124.5t133.5 114.5l10 6l-22 25q-160 169 -160 315q0 88 35 161.5t92 120t128 72t146 25.5q175 0 289.5 -103t114.5 -264q0 -178 -205 -332l-55 -41l219 -231
l366 383v-340l-202 -213l327 -344h-352zM582 211q62 0 112.5 30t108.5 91l-248 262l-31 -23q-57 -42 -86.5 -86.5t-29.5 -105.5q0 -66 49 -117t125 -51zM471 1114q0 -72 86 -158l39 -43l72 54q92 66 92 153q0 59 -42 99.5t-106 40.5q-56 0 -98.5 -38.5t-42.5 -107.5z" />
    <glyph glyph-name="quotesingle" unicode="'" horiz-adv-x="444" 
d="M70 1196q0 67 43.5 111.5t109.5 44.5t109 -44t43 -112q0 -29 -8 -53l-97 -375h-96l-96 375q-8 40 -8 53z" />
    <glyph glyph-name="parenleft" unicode="(" horiz-adv-x="675" 
d="M88 659q0 170 32.5 322t93.5 276.5t134.5 225t169.5 194.5l158 -145q-174 -186 -266.5 -397.5t-92.5 -475.5t92.5 -476.5t266.5 -397.5l-158 -143q-430 417 -430 1017z" />
    <glyph glyph-name="parenright" unicode=")" horiz-adv-x="675" 
d="M588 659q0 -600 -430 -1017l-158 143q174 185 266 397t92 477t-92 476.5t-266 396.5l158 145q96 -94 169.5 -194.5t134.5 -225t93.5 -276.5t32.5 -322z" />
    <glyph glyph-name="asterisk" unicode="*" horiz-adv-x="931" 
d="M575 1452v-260l238 80l68 -201l-242 -78l152 -205l-170 -124l-156 206l-152 -206l-170 127l150 202l-242 78l66 201l239 -80v260h219z" />
    <glyph glyph-name="plus" unicode="+" horiz-adv-x="1206" 
d="M100 715h387v399h230v-399h389v-223h-389v-402h-230v402h-387v223z" />
    <glyph glyph-name="comma" unicode="," horiz-adv-x="638" 
d="M125 164q0 74 53.5 123t132.5 49q93 0 148 -67t55 -169q0 -87 -23 -160t-59.5 -122t-85 -85.5t-96.5 -54.5t-96 -24v131q74 16 132.5 78t61.5 143q-16 -12 -53 -12q-75 0 -122.5 48t-47.5 122z" />
    <glyph glyph-name="hyphen" unicode="-" horiz-adv-x="778" 
d="M686 487h-594v242h594v-242z" />
    <glyph glyph-name="period" unicode="." horiz-adv-x="636" 
d="M131 172q0 76 54.5 131t131.5 55q78 0 133.5 -54.5t55.5 -131.5t-55.5 -131.5t-133.5 -54.5q-77 0 -131.5 55t-54.5 131z" />
    <glyph glyph-name="slash" unicode="/" horiz-adv-x="972" 
d="M973 1470l-727 -1488h-246l725 1488h248z" />
    <glyph glyph-name="zero" unicode="0" horiz-adv-x="1277" 
d="M367 664q0 -227 71 -338q68 -109 201 -109q131 0 199 109q73 110 73 338q0 227 -73 337q-68 109 -199 109q-133 0 -201 -109q-71 -111 -71 -337zM84 664q0 295 117 473q150 223 438 223q149 0 258.5 -59.5t177.5 -163.5q119 -181 119 -473q0 -293 -119 -474
q-68 -104 -177.5 -163.5t-258.5 -59.5q-288 0 -438 223q-117 178 -117 474z" />
    <glyph glyph-name="one" unicode="1" horiz-adv-x="811" 
d="M664 0h-281v889h-320v190q143 1 239.5 72t117.5 178h244v-1329z" />
    <glyph glyph-name="two" unicode="2" horiz-adv-x="1112" 
d="M354 815l-268 8q-10 45 -10 92q0 88 33 168t93 142t153.5 98.5t205.5 36.5q216 0 347.5 -124.5t131.5 -303.5q0 -255 -258 -412l-256 -155q-89 -58 -114 -121h637v-244h-983q2 187 72.5 326t240.5 241l219 131q84 50 121 105t37 125q0 77 -53 129.5t-148 52.5
q-102 0 -156.5 -61.5t-54.5 -159.5q0 -36 10 -74z" />
    <glyph glyph-name="three" unicode="3" horiz-adv-x="1124" 
d="M438 590l-125 196l349 299h-582v244h940v-227l-344 -287q158 -6 271.5 -117.5t113.5 -287.5q0 -86 -35 -165.5t-98.5 -141t-161.5 -98t-215 -36.5q-222 0 -361.5 124t-152.5 300l272 53q5 -102 72 -167.5t170 -65.5t164 57.5t61 143.5q0 92 -60 144t-157 52
q-63 0 -121 -20z" />
    <glyph glyph-name="four" unicode="4" horiz-adv-x="1222" 
d="M66 285v295l559 749h348v-803h219v-241h-219v-285h-279v285h-628zM694 526v508l-379 -508h379z" />
    <glyph glyph-name="five" unicode="5" horiz-adv-x="1134" 
d="M59 373l265 59q5 -95 71.5 -159t169.5 -64q98 0 164 60t66 157q0 108 -68.5 165.5t-167.5 57.5q-126 0 -205 -90q-26 10 -132.5 46.5t-125.5 41.5l158 682h750v-244h-558l-65 -292q42 39 107 60t133 21q204 0 329 -117.5t125 -326.5q0 -93 -35.5 -177t-99.5 -147.5
t-161.5 -101t-213.5 -37.5q-105 0 -198 34t-158 90.5t-104.5 130t-45.5 151.5z" />
    <glyph glyph-name="six" unicode="6" horiz-adv-x="1191" 
d="M1102 1298l-78 -229q-107 47 -219 47q-175 0 -296 -99.5t-144 -281.5q41 62 123.5 105t191.5 43q206 0 332.5 -121.5t126.5 -325.5q0 -203 -146.5 -335t-367.5 -132q-110 0 -207 40t-171.5 114.5t-117.5 192.5t-43 264q0 355 203 567.5t534 212.5q176 0 279 -62zM389 430
q0 -98 69 -160.5t165 -62.5q100 0 167.5 61.5t67.5 161.5t-67.5 160.5t-167.5 60.5q-99 0 -166.5 -60.5t-67.5 -160.5z" />
    <glyph glyph-name="seven" unicode="7" horiz-adv-x="1030" 
d="M1020 1329v-235q-31 -27 -58.5 -53t-79.5 -84t-95.5 -119t-95.5 -153.5t-90.5 -190t-70 -227t-43.5 -267.5h-292q11 146 44.5 284.5t78.5 243.5t96.5 198.5t100.5 157.5t89.5 110.5t65.5 68.5l24 22h-684v244h1010z" />
    <glyph glyph-name="eight" unicode="8" horiz-adv-x="1163" 
d="M582 784q91 1 143.5 51t52.5 123q0 70 -53 119t-143 49q-89 0 -142 -49.5t-53 -118.5q0 -73 52.5 -123t142.5 -51zM582 203q105 0 165 54.5t60 129.5q0 78 -59 133t-166 55t-165.5 -55t-58.5 -133q0 -75 60 -129.5t164 -54.5zM582 -31q-226 0 -364 108t-138 281
q0 107 64.5 195.5t170.5 128.5q-96 35 -152.5 119.5t-56.5 177.5q0 167 134.5 274t341.5 107t341 -107t134 -274q0 -92 -55.5 -177t-151.5 -120q104 -38 168.5 -127.5t64.5 -196.5q0 -173 -137.5 -281t-363.5 -108z" />
    <glyph glyph-name="nine" unicode="9" horiz-adv-x="1193" 
d="M109 43l69 227q39 -22 105 -39.5t131 -17.5q184 0 296.5 98t125.5 279q-42 -65 -124 -104.5t-184 -39.5q-125 0 -228.5 53.5t-166.5 157t-63 236.5q0 204 144 335.5t366 131.5q110 0 205 -39.5t168 -115.5t115 -197.5t42 -276.5q0 -363 -178 -562.5t-516 -199.5
q-84 0 -169 20.5t-138 53.5zM799 901q0 96 -67 157.5t-163 61.5q-95 0 -161 -61.5t-66 -157.5q0 -98 65.5 -158.5t161.5 -60.5t163 61.5t67 157.5z" />
    <glyph glyph-name="colon" unicode=":" horiz-adv-x="638" 
d="M137 168q0 76 53.5 130t128.5 54q77 0 132 -54t55 -130q0 -75 -55 -128.5t-132 -53.5q-75 0 -128.5 53.5t-53.5 128.5zM135 838q0 76 53.5 130t128.5 54q77 0 132 -54t55 -130q0 -75 -55 -129t-132 -54q-75 0 -128.5 54t-53.5 129z" />
    <glyph glyph-name="semicolon" unicode=";" horiz-adv-x="643" 
d="M139 154q0 70 50.5 116.5t125.5 46.5q89 0 141 -63.5t52 -159.5q0 -102 -32.5 -184t-85 -131t-109.5 -76.5t-115 -34.5v125q71 16 127 75.5t57 135.5q-12 -12 -49 -12q-72 0 -117 45.5t-45 116.5zM137 838q0 76 53.5 130t128.5 54q77 0 132 -54t55 -130q0 -75 -55 -129
t-132 -54q-75 0 -128.5 54t-53.5 129z" />
    <glyph glyph-name="less" unicode="&#x3c;" horiz-adv-x="1017" 
d="M72 500v207l880 444v-252l-606 -293l606 -293v-256z" />
    <glyph glyph-name="equal" unicode="=" horiz-adv-x="1234" 
d="M1114 698h-993v220h993v-220zM1114 291h-993v221h993v-221z" />
    <glyph glyph-name="greater" unicode="&#x3e;" horiz-adv-x="1017" 
d="M946 707v-205l-880 -445v252l606 293l-606 293v256z" />
    <glyph glyph-name="question" unicode="?" horiz-adv-x="1083" 
d="M621 442h-222q-8 54 -8 84q0 175 162 297l98 74q88 65 88 162q0 76 -53.5 130t-150.5 54q-102 0 -155.5 -68t-53.5 -163q0 -42 8 -66l-258 10q-10 36 -10 93q0 84 31.5 161.5t89 138.5t148 97.5t200.5 36.5q115 0 208.5 -34.5t152.5 -92t90.5 -130t31.5 -151.5
q0 -218 -203 -362l-84 -60q-110 -78 -110 -198v-13zM352 145q0 68 47.5 116t114.5 48q68 0 116 -48.5t48 -115.5t-48 -114t-116 -47t-115 47t-47 114z" />
    <glyph glyph-name="at" unicode="@" horiz-adv-x="1693" 
d="M1206 285q-81 0 -132.5 35.5t-65.5 89.5q-37 -61 -102 -95t-136 -34q-134 0 -222.5 99t-88.5 255q0 131 55.5 237.5t147.5 165t200 58.5q64 0 120.5 -30t78.5 -87l16 90h195l-107 -502q-4 -20 -4 -37q0 -28 17.5 -47.5t48.5 -19.5q78 0 139 100.5t61 245.5
q0 217 -150.5 353t-389.5 136q-170 0 -306.5 -76.5t-215 -217.5t-78.5 -322q0 -127 42.5 -236.5t120 -190t194.5 -126t259 -45.5q215 0 377 121l98 -139q-81 -73 -216 -118.5t-259 -45.5q-178 0 -330.5 56.5t-261 157t-170 245.5t-61.5 317q0 175 64 326.5t173 256.5
t256.5 164.5t311.5 59.5q156 0 293 -51.5t234.5 -140.5t153.5 -214.5t56 -267.5q0 -113 -35.5 -212t-93.5 -166.5t-133 -107t-154 -40.5zM1016 750q0 75 -36 118t-103 43q-90 0 -148.5 -76t-58.5 -182q0 -87 35.5 -137.5t109.5 -50.5q85 0 141.5 81t59.5 204z" />
    <glyph glyph-name="A" unicode="A" horiz-adv-x="1478" 
d="M1151 0l-121 332h-590l-121 -332h-299l558 1452h327l553 -1452h-307zM735 1139l-200 -549h401z" />
    <glyph glyph-name="B" unicode="B" horiz-adv-x="1249" 
d="M166 1452h522q207 0 324.5 -109t117.5 -282q0 -110 -58.5 -195t-151.5 -116q110 -27 183 -120t73 -224q0 -179 -123.5 -292.5t-325.5 -113.5h-561v1452zM444 852h201q96 0 151.5 49t55.5 133q0 85 -54 132.5t-155 47.5h-199v-362zM444 236h230q103 0 161 50t58 138
q0 89 -56 141.5t-159 52.5h-234v-382z" />
    <glyph glyph-name="C" unicode="C" horiz-adv-x="1564" 
d="M823 -31q-152 0 -287.5 53.5t-236.5 150t-160 240t-59 312.5t61 313t163 240.5t235.5 150.5t279.5 54q144 0 264 -41.5t199.5 -112t130 -153t72.5 -175.5l-266 -83q-14 56 -42.5 105t-75 92.5t-119.5 69t-163 25.5q-84 0 -162 -30t-142 -88t-103 -153t-39 -214
q0 -112 37.5 -204.5t100.5 -151.5t143.5 -91t168.5 -32q72 0 134 18t106 47.5t79 69t56 79.5t33 83l264 -80q-17 -70 -51.5 -137t-92 -133t-131 -115t-176.5 -79t-221 -30z" />
    <glyph glyph-name="D" unicode="D" horiz-adv-x="1482" 
d="M449 262h225q91 0 169 28.5t138 84t94.5 145.5t34.5 205t-34 205t-94 146t-137.5 85t-168.5 29h-227v-928zM684 0h-518v1452h520q155 0 286.5 -49.5t227 -141t149.5 -229.5t54 -307q0 -224 -94 -390t-255.5 -250.5t-369.5 -84.5z" />
    <glyph glyph-name="E" unicode="E" horiz-adv-x="1191" 
d="M1075 0h-909v1452h909v-266h-626v-332h567v-252h-567v-336h626v-266z" />
    <glyph glyph-name="F" unicode="F" horiz-adv-x="1150" 
d="M451 0h-285v1452h917v-268h-634v-359h565v-260h-563v-565z" />
    <glyph glyph-name="G" unicode="G" horiz-adv-x="1599" 
d="M1481 0h-230l-18 166q-56 -83 -166 -140t-262 -57q-147 0 -278.5 53t-230.5 148.5t-157.5 239.5t-58.5 315t61 315.5t163.5 240t236.5 149t282 53.5q137 0 253 -38t196 -102.5t133.5 -141.5t81.5 -165l-270 -96q-15 52 -45 99t-76.5 88.5t-117 66.5t-155.5 25t-164 -29.5
t-145.5 -87.5t-106.5 -155.5t-40 -221.5q0 -119 37 -215.5t100.5 -157t145.5 -93t175 -32.5q95 0 170.5 29t119.5 75t68 91t31 88h-458v246h725v-756z" />
    <glyph glyph-name="H" unicode="H" horiz-adv-x="1531" 
d="M1366 0h-285v602h-632v-602h-283v1452h283v-584h632v584h285v-1452z" />
    <glyph glyph-name="I" unicode="I" horiz-adv-x="618" 
d="M453 0h-287v1452h287v-1452z" />
    <glyph glyph-name="J" unicode="J" horiz-adv-x="1140" 
d="M41 442v97l272 49v-133q1 -108 56 -162.5t145 -54.5q89 0 141 57.5t52 153.5v1003h282v-1003q0 -131 -58.5 -240t-167.5 -174.5t-247 -65.5q-215 0 -345 129.5t-130 343.5z" />
    <glyph glyph-name="K" unicode="K" horiz-adv-x="1429" 
d="M1051 0l-422 602l-180 -199v-403h-283v1452h283v-657l581 657h371l-576 -633l580 -819h-354z" />
    <glyph glyph-name="L" unicode="L" horiz-adv-x="1146" 
d="M1096 0h-930v1452h283v-1182h647v-270z" />
    <glyph glyph-name="M" unicode="M" horiz-adv-x="1951" 
d="M1786 0h-279v1018l-417 -1018h-236l-418 1010v-1010h-270v1452h373l436 -1049l426 1049h385v-1452z" />
    <glyph glyph-name="N" unicode="N" horiz-adv-x="1570" 
d="M1405 0h-297l-659 1030v-1030h-283v1452h352l604 -960v960h283v-1452z" />
    <glyph glyph-name="O" unicode="O" horiz-adv-x="1652" 
d="M373 727q0 -118 39 -213t104 -152.5t144 -87.5t165 -30q69 0 134 18.5t123.5 57.5t102 95t69.5 136.5t26 175.5t-26 175.5t-69.5 136.5t-102 95t-123.5 57.5t-134 18.5q-86 0 -165 -30t-144 -87.5t-104 -152.5t-39 -213zM80 725q0 171 61 315.5t164 240t237.5 149
t282.5 53.5t283.5 -53.5t238.5 -149t164.5 -240t61.5 -315.5q0 -170 -61.5 -314t-164.5 -239.5t-238.5 -149t-283.5 -53.5t-282.5 53.5t-237.5 149t-164 239.5t-61 314z" />
    <glyph glyph-name="P" unicode="P" horiz-adv-x="1241" 
d="M451 791h223q105 0 166 56t61 150q0 97 -60.5 153t-166.5 56h-223v-415zM709 547h-260v-547h-283v1452h543q213 0 345 -127.5t132 -325.5q0 -199 -131.5 -325.5t-345.5 -126.5z" />
    <glyph glyph-name="Q" unicode="Q" horiz-adv-x="1652" 
d="M80 725q0 171 61 315.5t164 240t237.5 149t282.5 53.5t283.5 -53.5t238.5 -149t164.5 -240t61.5 -315.5q0 -298 -178 -502l174 -192l-187 -160l-178 197q-178 -99 -379 -99q-148 0 -282.5 53.5t-237.5 149t-164 239.5t-61 314zM373 727q0 -118 39 -213t104 -152.5
t144 -87.5t165 -30q103 0 187 37l-228 249l189 162l227 -254q80 121 80 289q0 95 -26 175.5t-69.5 136.5t-102 95t-123.5 57.5t-134 18.5q-86 0 -165 -30t-144 -87.5t-104 -152.5t-39 -213z" />
    <glyph glyph-name="R" unicode="R" horiz-adv-x="1280" 
d="M883 0l-285 559h-147v-559h-285v1452h567q209 0 336 -126.5t127 -319.5q0 -151 -83 -261t-226 -151l311 -594h-315zM451 803h229q106 0 166.5 55t60.5 146q0 93 -60.5 147.5t-166.5 54.5h-229v-403z" />
    <glyph glyph-name="S" unicode="S" horiz-adv-x="1236" 
d="M1143 1106l-254 -78q-6 34 -22 66.5t-45.5 65.5t-80.5 53t-116 20q-100 0 -164 -54.5t-64 -129.5q0 -62 40.5 -105.5t117.5 -58.5l203 -39q193 -37 299 -153.5t106 -274.5q0 -85 -35 -164.5t-99.5 -143.5t-166 -102.5t-223.5 -38.5q-111 0 -205 27.5t-158.5 72.5
t-111.5 105.5t-71.5 122.5t-31.5 127l263 70q10 -116 91 -194.5t226 -78.5q111 0 173.5 49.5t62.5 128.5q0 64 -46.5 109.5t-130.5 62.5l-202 41q-176 36 -278.5 145t-102.5 271q0 126 69 231t185 164.5t252 59.5q125 0 223.5 -35t157.5 -93t92 -119.5t47 -129.5z" />
    <glyph glyph-name="T" unicode="T" horiz-adv-x="1267" 
d="M1235 1184h-459v-1184h-284v1184h-459v268h1202v-268z" />
    <glyph glyph-name="U" unicode="U" horiz-adv-x="1419" 
d="M709 -33q-117 0 -217.5 36t-176.5 103.5t-119.5 172.5t-43.5 235v938h282v-917q0 -140 73.5 -215.5t201.5 -75.5q131 0 203.5 75t72.5 216v917h283v-938q0 -173 -75.5 -298.5t-200.5 -187t-283 -61.5z" />
    <glyph glyph-name="V" unicode="V" horiz-adv-x="1406" 
d="M709 373l378 1079h299l-538 -1452h-291l-537 1452h310z" />
    <glyph glyph-name="W" unicode="W" horiz-adv-x="2103" 
d="M1528 449l262 1003h289l-402 -1452h-291l-331 1034l-332 -1034h-295l-403 1452h299l266 -999l321 999h293z" />
    <glyph glyph-name="X" unicode="X" horiz-adv-x="1370" 
d="M1333 1452l-475 -727l477 -725h-342l-313 502l-315 -502h-332l477 727l-475 725h340l311 -502l318 502h329z" />
    <glyph glyph-name="Y" unicode="Y" horiz-adv-x="1341" 
d="M526 610l-506 842h332l326 -575l326 575h317l-512 -842v-610h-283v610z" />
    <glyph glyph-name="Z" unicode="Z" horiz-adv-x="1310" 
d="M1223 0h-1143v274l756 910h-730v268h1106v-264l-768 -918h779v-270z" />
    <glyph glyph-name="bracketleft" unicode="[" horiz-adv-x="649" 
d="M639 -336h-473v1995h473v-207h-246v-1577h246v-211z" />
    <glyph glyph-name="backslash" unicode="\" horiz-adv-x="974" 
d="M725 -18l-725 1488h252l723 -1488h-250z" />
    <glyph glyph-name="bracketright" unicode="]" horiz-adv-x="649" 
d="M483 -336h-473v211h244v1577h-244v207h473v-1995z" />
    <glyph glyph-name="asciicircum" unicode="^" horiz-adv-x="1085" 
d="M1053 719h-256l-252 473l-252 -473h-260l405 733h209z" />
    <glyph glyph-name="underscore" unicode="_" horiz-adv-x="1071" 
d="M1059 -223h-1047v223h1047v-223z" />
    <glyph glyph-name="grave" unicode="`" horiz-adv-x="606" 
d="M332 1128l-279 308h316l184 -308h-221z" />
    <glyph glyph-name="a" unicode="a" horiz-adv-x="1103" 
d="M84 274q0 129 83.5 207.5t217.5 98.5l248 36q76 11 76 72q0 57 -43.5 94t-126.5 37q-85 0 -136 -47t-57 -117l-242 52q6 61 37 118.5t83.5 106t134 77.5t178.5 29q116 0 202.5 -31t136.5 -85t74.5 -121t24.5 -146v-495q0 -90 12 -160h-250q-10 45 -10 121
q-42 -66 -117 -108t-180 -42q-155 0 -250.5 89.5t-95.5 213.5zM487 174q97 0 159.5 55t62.5 179v45l-228 -35q-56 -8 -90.5 -39.5t-34.5 -87.5q0 -48 34.5 -82.5t96.5 -34.5z" />
    <glyph glyph-name="b" unicode="b" horiz-adv-x="1253" 
d="M410 0h-265v1483h269v-586q36 58 117 97.5t188 39.5q144 0 250.5 -69.5t160.5 -187.5t54 -269q0 -152 -58.5 -273t-167 -190.5t-249.5 -69.5q-101 0 -179.5 40.5t-119.5 107.5v-123zM911 506q0 134 -70.5 209.5t-178.5 75.5q-107 0 -179.5 -76t-72.5 -209
q0 -132 72.5 -209.5t179.5 -77.5q108 0 178.5 76.5t70.5 210.5z" />
    <glyph glyph-name="c" unicode="c" horiz-adv-x="1126" 
d="M598 786q-109 0 -182.5 -75t-73.5 -207t74.5 -208.5t183.5 -76.5q95 0 153 50.5t78 119.5l240 -80q-17 -65 -55.5 -124t-95.5 -108.5t-140 -78.5t-180 -29q-224 0 -377 152.5t-153 382.5q0 231 150 382.5t372 151.5q99 0 183 -29t141 -78t94.5 -108t54.5 -125l-244 -82
q-22 73 -76 121.5t-147 48.5z" />
    <glyph glyph-name="d" unicode="d" horiz-adv-x="1255" 
d="M1106 1483v-1301q0 -100 8 -182h-260q-10 50 -10 117q-35 -63 -110 -102.5t-173 -39.5q-214 0 -352.5 150.5t-138.5 380.5q0 224 136 375t347 151q117 0 187.5 -37.5t97.5 -87.5v576h268zM344 506q0 -132 70 -209.5t180 -77.5q107 0 177.5 78t70.5 211q0 131 -70 205.5
t-178 74.5t-179 -75.5t-71 -206.5z" />
    <glyph glyph-name="e" unicode="e" horiz-adv-x="1132" 
d="M344 618h451q-3 83 -60 141t-166 58q-99 0 -159.5 -61t-65.5 -138zM821 356l228 -67q-41 -139 -161 -229.5t-298 -90.5q-104 0 -198 37t-165.5 104.5t-114 170.5t-42.5 227q0 117 41 218t109.5 168.5t158 105.5t186.5 38q233 0 365.5 -139.5t132.5 -382.5q0 -17 -1 -37
t-2 -33t-1 -14h-721q4 -99 78 -164t176 -65q173 0 229 153z" />
    <glyph glyph-name="f" unicode="f" horiz-adv-x="729" 
d="M612 1257q-57 0 -99 -31.5t-42 -107.5v-110h227v-234h-227v-774h-274v774h-168v234h168v114q0 171 99.5 273t266.5 102q89 0 135 -20v-230q-35 10 -86 10z" />
    <glyph glyph-name="g" unicode="g" horiz-adv-x="1222" 
d="M74 -55l245 65q14 -85 77.5 -137.5t158.5 -52.5q268 0 268 280v74q-34 -55 -106 -92t-174 -37q-202 0 -335.5 139t-133.5 351q0 133 59 245t167 179t243 67q111 0 183.5 -39.5t102.5 -97.5v119h263v-899q0 -85 -18.5 -161t-59 -144t-101 -117.5t-150.5 -78t-200 -28.5
q-199 0 -332.5 106.5t-156.5 258.5zM590 279q105 0 171 70t66 186q0 114 -68 183.5t-169 69.5q-104 0 -173 -69.5t-69 -183.5q0 -117 67.5 -186.5t174.5 -69.5z" />
    <glyph glyph-name="h" unicode="h" horiz-adv-x="1196" 
d="M418 592v-592h-273v1483h273v-559q47 55 120.5 82.5t151.5 27.5q124 0 210 -54.5t125.5 -142.5t39.5 -202v-635h-272v588q0 90 -46.5 145t-140.5 55q-84 0 -133.5 -55t-54.5 -141z" />
    <glyph glyph-name="i" unicode="i" horiz-adv-x="563" 
d="M418 0h-273v1008h273v-1008zM113 1337q0 70 49.5 120t118.5 50q70 0 119 -49.5t49 -120.5q0 -68 -49 -117t-119 -49q-69 0 -118.5 49t-49.5 117z" />
    <glyph glyph-name="j" unicode="j" horiz-adv-x="563" 
d="M145 -61v1069h273v-1096q0 -148 -85.5 -240t-230.5 -92q-99 0 -153 23v227q45 -10 84 -10q112 0 112 119zM113 1339q0 70 49.5 120t118.5 50q70 0 119 -49.5t49 -120.5q0 -69 -49 -117t-119 -48q-69 0 -118.5 48t-49.5 117z" />
    <glyph glyph-name="k" unicode="k" horiz-adv-x="1144" 
d="M1122 1008l-403 -424l411 -584h-333l-267 385l-112 -119v-266h-273v1483h273v-850l348 375h356z" />
    <glyph glyph-name="l" unicode="l" horiz-adv-x="563" 
d="M418 0h-273v1483h273v-1483z" />
    <glyph glyph-name="m" unicode="m" horiz-adv-x="1814" 
d="M418 0h-273v1008h261v-123q40 70 123 110.5t171 40.5q104 0 182.5 -43.5t116.5 -124.5q109 168 320 168q72 0 135.5 -22.5t115.5 -67t82.5 -120t30.5 -173.5v-653h-264v598q0 86 -44 138t-134 52q-85 0 -135.5 -56.5t-50.5 -141.5v-590h-271v598q0 86 -44.5 138
t-133.5 52q-87 0 -137.5 -56t-50.5 -142v-590z" />
    <glyph glyph-name="n" unicode="n" horiz-adv-x="1196" 
d="M418 580v-580h-273v1008h265v-125q44 74 123.5 112.5t166.5 38.5q179 0 272 -111.5t93 -287.5v-635h-272v588q0 90 -46.5 145t-140.5 55q-87 0 -137.5 -59t-50.5 -149z" />
    <glyph glyph-name="o" unicode="o" horiz-adv-x="1196" 
d="M598 217q107 0 181.5 75.5t74.5 211.5t-74.5 211.5t-181.5 75.5t-181.5 -75.5t-74.5 -211.5q0 -134 75 -210.5t181 -76.5zM598 1038q227 0 377.5 -151t150.5 -383q0 -231 -151 -383t-377 -152t-377 152t-151 383q0 232 150.5 383t377.5 151z" />
    <glyph glyph-name="p" unicode="p" horiz-adv-x="1253" 
d="M418 -389h-273v1397h265v-123q36 62 118 103.5t191 41.5q216 0 340.5 -147t124.5 -377q0 -231 -131.5 -381t-343.5 -150q-100 0 -176 34.5t-115 88.5v-487zM915 504q0 130 -70.5 206t-178.5 76t-180 -76t-72 -206t72 -207.5t180 -77.5t178.5 77t70.5 208z" />
    <glyph glyph-name="q" unicode="q" horiz-adv-x="1245" 
d="M1108 -389h-266v489q-36 -58 -109.5 -91.5t-171.5 -33.5q-214 0 -352.5 151t-138.5 380q0 147 59 266.5t170 189.5t254 70q119 0 193.5 -43.5t101.5 -97.5v117h260v-1397zM344 506q0 -131 71.5 -209t178.5 -78t178.5 78t71.5 209t-71 206.5t-179 75.5t-179 -75.5
t-71 -206.5z" />
    <glyph glyph-name="r" unicode="r" horiz-adv-x="800" 
d="M760 1012v-275q-41 8 -82 8q-55 0 -99.5 -14.5t-82 -46t-58 -88t-20.5 -135.5v-461h-273v1008h265v-150q22 47 57.5 80.5t77 49t78 22t73.5 6.5q24 0 64 -4z" />
    <glyph glyph-name="s" unicode="s" horiz-adv-x="944" 
d="M59 281l234 51q5 -65 52.5 -109.5t131.5 -44.5q64 0 98.5 29t34.5 72q0 76 -108 98l-133 31q-141 31 -212 111t-71 190q0 137 108 233t269 96q82 0 149.5 -20t110.5 -50.5t73 -70.5t44 -76.5t18 -72.5l-227 -52q-7 54 -47.5 94.5t-118.5 40.5q-54 0 -91.5 -28.5
t-37.5 -71.5q0 -36 25 -59t67 -31l143 -31q145 -30 222 -112.5t77 -196.5q0 -63 -24.5 -121.5t-71.5 -106t-123.5 -76t-171.5 -28.5q-87 0 -158.5 21.5t-117 55t-78 76.5t-47.5 82.5t-19 76.5z" />
    <glyph glyph-name="t" unicode="t" horiz-adv-x="763" 
d="M481 1309v-301h203v-242h-203v-422q0 -64 29 -90.5t90 -26.5q52 0 84 9v-226q-60 -24 -154 -24q-148 0 -233.5 82.5t-85.5 228.5v469h-182v242h51q76 0 116 44t40 115v142h245z" />
    <glyph glyph-name="u" unicode="u" horiz-adv-x="1200" 
d="M805 0q-8 40 -8 109q-39 -67 -116 -101.5t-163 -34.5q-177 0 -280 113.5t-103 284.5v637h273v-582q0 -90 46.5 -146.5t137.5 -56.5q89 0 139.5 54.5t50.5 144.5v586h273v-826q0 -94 10 -182h-260z" />
    <glyph glyph-name="v" unicode="v" horiz-adv-x="1116" 
d="M1096 1008l-391 -1008h-273l-412 1008h299l250 -676l240 676h287z" />
    <glyph glyph-name="w" unicode="w" horiz-adv-x="1701" 
d="M717 1008h287l217 -650l186 650h270l-315 -1008h-272l-236 688l-231 -688h-277l-321 1008h286l187 -648z" />
    <glyph glyph-name="x" unicode="x" horiz-adv-x="1089" 
d="M25 0l358 506l-358 502h323q18 -28 101 -150t100 -149l199 299h309l-352 -494l364 -514h-319l-211 309q-192 -285 -207 -309h-307z" />
    <glyph glyph-name="y" unicode="y" horiz-adv-x="1146" 
d="M494 -397h-289l237 524l-428 881h305l269 -590l248 590h290z" />
    <glyph glyph-name="z" unicode="z" horiz-adv-x="985" 
d="M909 0h-833v240l477 532h-465v236h813v-228l-491 -542h499v-238z" />
    <glyph glyph-name="braceleft" unicode="{" horiz-adv-x="768" 
d="M92 555v227q94 0 149.5 46t55.5 145v291q0 197 104 296t293 99h64v-207h-62q-170 0 -170 -182v-344q0 -97 -54.5 -164.5t-152.5 -93.5q98 -25 152.5 -92.5t54.5 -165.5v-342q0 -185 170 -185h62v-207h-64q-189 0 -293 100.5t-104 297.5v291q0 99 -55.5 144.5t-149.5 45.5
z" />
    <glyph glyph-name="bar" unicode="|" horiz-adv-x="559" 
d="M393 -324h-227v1983h227v-1983z" />
    <glyph glyph-name="braceright" unicode="}" horiz-adv-x="768" 
d="M676 782v-227q-95 0 -151 -45.5t-56 -144.5v-291q0 -197 -104 -297.5t-291 -100.5h-64v207h60q172 0 172 185v342q0 98 53.5 165.5t150.5 92.5q-98 26 -151 93.5t-53 164.5v344q0 182 -172 182h-60v207h64q188 0 291.5 -99t103.5 -296v-291q0 -99 56.5 -145t150.5 -46z
" />
    <glyph glyph-name="asciitilde" unicode="~" horiz-adv-x="1193" 
d="M586 477l-97 53q-53 27 -102 27q-111 0 -182 -106l-152 120q57 104 145.5 159.5t194.5 55.5q108 0 213 -57l96 -53q51 -29 109 -29q113 0 180 105l150 -121q-56 -103 -144.5 -158t-193.5 -55q-113 0 -217 59z" />
    <glyph glyph-name="uni00A0" unicode="&#xa0;" horiz-adv-x="505" 
 />
    <glyph glyph-name="exclamdown" unicode="&#xa1;" horiz-adv-x="618" 
d="M410 580l63 -1010h-328l66 1010h199zM147 877q0 66 47.5 113.5t114.5 47.5q66 0 114 -47.5t48 -113.5q0 -67 -48 -115.5t-114 -48.5q-67 0 -114.5 48t-47.5 116z" />
    <glyph glyph-name="cent" unicode="&#xa2;" horiz-adv-x="1124" 
d="M680 0h-207v178q-171 37 -280 169t-109 312q0 185 109 317.5t280 166.5v186h207v-184q143 -23 233.5 -108t120.5 -197l-231 -76q-51 158 -213 158q-105 0 -175.5 -70t-70.5 -193q0 -121 71.5 -191.5t176.5 -70.5q90 0 146 47t73 111l229 -74q-32 -112 -125 -199
t-235 -110v-172z" />
    <glyph glyph-name="sterling" unicode="&#xa3;" horiz-adv-x="1212" 
d="M129 768h125q-37 105 -37 195q0 78 31 149.5t86 126.5t138 88t181 33q93 0 168 -24t122.5 -63t79.5 -90.5t45.5 -103.5t14.5 -106l-245 -37q-2 92 -49 143t-132 51q-74 0 -125 -44.5t-51 -127.5q0 -77 45 -190h375v-209h-309q0 -7 1 -21.5t1 -21.5q0 -87 -37.5 -160
t-110.5 -118h318q75 0 120.5 48.5t45.5 123.5l244 -21q0 -170 -101.5 -279.5t-265.5 -109.5h-686v227q100 36 158.5 104t58.5 156q0 26 -8 72h-201v209z" />
    <glyph glyph-name="currency" unicode="&#xa4;" horiz-adv-x="1202" 
d="M160 502q0 122 61 221l-147 149l164 164l151 -153q104 55 215 55q116 0 211 -53l150 151l163 -164l-145 -145q64 -103 64 -225q0 -118 -62 -223l143 -146l-163 -164l-148 150q-95 -53 -213 -53q-121 0 -219 55l-147 -152l-164 164l145 148q-59 105 -59 221zM389 502
q0 -94 60.5 -154.5t154.5 -60.5t154.5 60.5t60.5 154.5t-60.5 154.5t-154.5 60.5t-154.5 -60.5t-60.5 -154.5z" />
    <glyph glyph-name="yen" unicode="&#xa5;" horiz-adv-x="1257" 
d="M1133 276h-369v-276h-266v276h-355v193h355v143h-355v191h219l-317 526h309l283 -502l278 502h297l-315 -526h236v-191h-369v-143h369v-193z" />
    <glyph glyph-name="brokenbar" unicode="&#xa6;" horiz-adv-x="559" 
d="M166 1659h227v-815h-227v815zM166 492h227v-816h-227v816z" />
    <glyph glyph-name="section" unicode="&#xa7;" horiz-adv-x="1148" 
d="M1006 514q0 -89 -44.5 -153.5t-113.5 -102.5q77 -57 117.5 -132.5t40.5 -160.5q0 -87 -36.5 -162t-97.5 -125t-139 -78t-162 -28q-197 0 -311.5 104t-122.5 279l256 43q0 -95 48 -145t132 -50q69 0 113.5 40t44.5 104q0 80 -90 127l-209 108q-65 34 -110.5 64t-89.5 73
t-66.5 98.5t-22.5 123.5q0 87 45 152.5t113 103.5q-77 56 -117.5 132.5t-40.5 160.5q0 87 36.5 162t97.5 125t140 78t163 28q194 0 310 -106t122 -277l-258 -43q0 96 -47 145t-129 49q-72 0 -116 -40t-44 -103q0 -39 23.5 -73t66.5 -54l207 -107q67 -35 112 -65t89.5 -73.5
t67 -98.5t22.5 -123zM668 598l-209 111q-66 -52 -66 -117q0 -90 88 -135l209 -111q66 52 66 117q0 88 -88 135z" />
    <glyph glyph-name="dieresis" unicode="&#xa8;" horiz-adv-x="829" 
d="M55 1286q0 60 42 103t102 43t102.5 -43t42.5 -103t-42.5 -101.5t-102.5 -41.5t-102 41.5t-42 101.5zM485 1286q0 61 41.5 103.5t102.5 42.5q60 0 102.5 -43t42.5 -103t-42.5 -101.5t-102.5 -41.5q-61 0 -102.5 41.5t-41.5 101.5z" />
    <glyph glyph-name="copyright" unicode="&#xa9;" horiz-adv-x="1671" 
d="M254 725q0 -165 76.5 -301.5t210 -215.5t293.5 -79t293.5 79t209.5 215.5t76 301.5q0 124 -45 235t-122 190.5t-184.5 126t-227.5 46.5q-161 0 -294 -79t-209.5 -216.5t-76.5 -302.5zM80 725q0 154 59.5 294.5t160.5 242.5t240.5 162.5t293.5 60.5t294 -60.5
t241.5 -162.5t161.5 -242.5t60 -294.5q0 -205 -101.5 -379.5t-276 -276.5t-379.5 -102q-154 0 -294 60.5t-240.5 162t-160 242t-59.5 293.5zM842 938q-82 0 -138.5 -57.5t-56.5 -157.5q0 -99 57 -158t140 -59q73 0 117.5 39.5t58.5 91.5l182 -62q-29 -106 -122 -182
t-236 -76q-170 0 -287 115.5t-117 290.5q0 177 114.5 292t283.5 115q146 0 239.5 -75.5t120.5 -182.5l-186 -63q-16 55 -57 92t-113 37z" />
    <glyph glyph-name="ordfeminine" unicode="&#xaa;" horiz-adv-x="866" 
d="M113 813q0 89 55.5 143.5t155.5 69.5l170 29q51 8 51 49q0 34 -28.5 57t-80.5 23q-57 0 -90.5 -31.5t-36.5 -75.5l-182 37q3 41 23.5 81t57 75.5t96 57.5t132.5 22q160 0 236 -77t76 -196v-348q0 -61 10 -111h-191q-6 30 -6 82q-67 -102 -205 -102q-111 0 -177 63.5
t-66 151.5zM406 750q60 0 99.5 34.5t39.5 114.5v33l-144 -23q-82 -10 -82 -84q0 -30 22.5 -52.5t64.5 -22.5z" />
    <glyph glyph-name="guillemotleft" unicode="&#xab;" horiz-adv-x="1073" 
d="M594 207h-258l-281 397l283 404h256l-279 -406zM1036 207h-258l-278 397l280 404h258l-280 -406z" />
    <glyph glyph-name="logicalnot" unicode="&#xac;" horiz-adv-x="1208" 
d="M1094 279h-234v399h-768v225h1002v-624z" />
    <glyph glyph-name="uni00AD" unicode="&#xad;" horiz-adv-x="778" 
d="M686 487h-594v242h594v-242z" />
    <glyph glyph-name="registered" unicode="&#xae;" horiz-adv-x="1671" 
d="M80 725q0 154 59.5 294.5t160.5 242.5t240.5 162.5t293.5 60.5t294 -60.5t241.5 -162.5t161.5 -242.5t60 -294.5q0 -205 -101.5 -379.5t-276 -276.5t-379.5 -102q-154 0 -294 60.5t-240.5 162t-160 242t-59.5 293.5zM254 725q0 -165 76.5 -301.5t210 -215.5t293.5 -79
t293.5 79t209.5 215.5t76 301.5q0 124 -45 235t-122 190.5t-184.5 126t-227.5 46.5q-161 0 -294 -79t-209.5 -216.5t-76.5 -302.5zM956 322l-141 284h-59v-284h-195v819h324q118 0 199 -78t81 -189q0 -80 -42.5 -143t-114.5 -94l163 -315h-215zM756 766h94q56 0 87.5 28.5
t31.5 77.5q0 51 -31.5 80t-87.5 29h-94v-215z" />
    <glyph glyph-name="macron" unicode="&#xaf;" horiz-adv-x="686" 
d="M631 1182h-576v198h576v-198z" />
    <glyph glyph-name="degree" unicode="&#xb0;" horiz-adv-x="763" 
d="M246 1022q0 -64 38.5 -103.5t96.5 -39.5q59 0 97 40t38 103t-38 102t-97 39q-58 0 -96.5 -39.5t-38.5 -101.5zM41 1022q0 140 100.5 238t239.5 98t240.5 -98t101.5 -238q0 -141 -101 -237.5t-241 -96.5t-240 97.5t-100 236.5z" />
    <glyph glyph-name="plusminus" unicode="&#xb1;" horiz-adv-x="1212" 
d="M127 862h365v252h229v-252h364v-221h-364v-252h-229v252h-365v221zM127 313h958v-223h-958v223z" />
    <glyph glyph-name="twosuperior" unicode="&#xb2;" horiz-adv-x="806" 
d="M305 1157l-186 -2q-8 28 -8 59q0 110 77.5 182t217.5 72q133 0 211.5 -72t78.5 -177q0 -134 -161 -230l-144 -86q-24 -14 -24 -31h335v-174h-596v25q0 213 183 321l123 72q77 47 77 105q0 31 -23 55t-63 24q-48 0 -76 -28t-28 -78q0 -19 6 -37z" />
    <glyph glyph-name="threesuperior" unicode="&#xb3;" horiz-adv-x="841" 
d="M104 918l187 43q5 -47 39.5 -78t85.5 -31q50 0 80 25.5t30 64.5q0 46 -31 69t-77 23q-38 0 -66 -12l-67 139l178 121h-330v170h582v-168l-185 -125q94 -12 150.5 -69.5t56.5 -151.5q0 -107 -88 -181.5t-233 -74.5q-131 0 -215 69.5t-97 166.5z" />
    <glyph glyph-name="acute" unicode="&#xb4;" horiz-adv-x="604" 
d="M551 1436l-279 -308h-219l187 308h311z" />
    <glyph glyph-name="mu" unicode="&#xb5;" horiz-adv-x="1216" 
d="M817 0q-8 40 -8 109q-39 -67 -116 -101.5t-163 -34.5q-60 0 -110 15v-377h-273v1397h273v-582q0 -90 46.5 -146.5t137.5 -56.5q89 0 140 55t51 144v586h272v-826q0 -114 10 -182h-260z" />
    <glyph glyph-name="paragraph" unicode="&#xb6;" horiz-adv-x="1363" 
d="M719 1243v-1640h-213v1013h-35q-172 0 -295 119t-123 291q0 133 67 231t176 146.5t243 48.5h792v-209h-198v-1640h-218v1640h-196z" />
    <glyph glyph-name="periodcentered" unicode="&#xb7;" horiz-adv-x="589" 
d="M125 633q0 73 51 123.5t125 50.5t125 -50.5t51 -123.5t-51 -122.5t-125 -49.5t-125 49.5t-51 122.5z" />
    <glyph glyph-name="cedilla" unicode="&#xb8;" horiz-adv-x="610" 
d="M244 -221l-74 92l98 156h170l-80 -125q88 -2 143.5 -51t55.5 -125q0 -80 -65 -137.5t-197 -57.5q-79 0 -144.5 32.5t-99.5 74.5l88 110q76 -76 154 -76q38 0 61 15.5t23 42.5q0 24 -21 40.5t-57 16.5q-34 0 -55 -8z" />
    <glyph glyph-name="onesuperior" unicode="&#xb9;" horiz-adv-x="620" 
d="M475 700h-211v457h-186v135q89 0 144 48.5t67 111.5h186v-752z" />
    <glyph glyph-name="ordmasculine" unicode="&#xba;" horiz-adv-x="987" 
d="M496 788q69 0 117.5 49t48.5 138q0 88 -48.5 136t-117.5 48t-117.5 -48t-48.5 -136q0 -89 48.5 -138t117.5 -49zM496 1350q160 0 267 -106t107 -269q0 -164 -107 -270.5t-267 -106.5q-161 0 -269 106.5t-108 270.5q0 163 108 269t269 106z" />
    <glyph glyph-name="guillemotright" unicode="&#xbb;" horiz-adv-x="1073" 
d="M737 207h-258l279 395l-279 406h256l283 -404zM295 207h-258l276 395l-278 406h256l282 -404z" />
    <glyph glyph-name="onequarter" unicode="&#xbc;" horiz-adv-x="1654" 
d="M492 578h-211v456h-187v135q89 0 144 48.5t67 111.5h187v-751zM879 145v203l346 406h223v-447h125v-162h-125v-145h-205v145h-364zM1243 307v234l-199 -234h199zM436 0h-237l938 1329h237z" />
    <glyph glyph-name="onehalf" unicode="&#xbd;" horiz-adv-x="1691" 
d="M492 578h-211v456h-187v135q89 0 144 48.5t67 111.5h187v-751zM434 0h-237l938 1329h237zM1200 459l-186 -2q-8 28 -8 59q0 111 77 182.5t217 71.5q133 0 212 -72.5t79 -177.5q0 -133 -161 -229l-144 -86q-24 -14 -24 -31h335v-174h-596v25q0 213 183 321l123 72
q77 47 77 104q0 31 -23 55.5t-63 24.5q-48 0 -76 -28t-28 -78q0 -19 6 -37z" />
    <glyph glyph-name="threequarters" unicode="&#xbe;" horiz-adv-x="1810" 
d="M102 795l187 43q5 -47 39.5 -78t85.5 -31q50 0 80 25.5t30 64.5q0 46 -31 69t-77 23q-38 0 -66 -12l-67 139l178 121h-330v170h582v-168l-185 -125q94 -12 150.5 -69.5t56.5 -151.5q0 -107 -88 -181.5t-233 -74.5q-131 0 -215 69.5t-97 166.5zM1034 145v203l346 406h224
v-447h125v-162h-125v-145h-205v145h-365zM1399 307v234l-199 -234h199zM606 0h-237l938 1329h237z" />
    <glyph glyph-name="questiondown" unicode="&#xbf;" horiz-adv-x="1009" 
d="M422 582h221q6 -41 6 -84q0 -186 -157 -299l-99 -72q-86 -63 -86 -162q0 -76 53 -129t150 -53q101 0 156 63.5t55 153.5q0 50 -12 84l262 -25q10 -48 10 -90q0 -84 -31.5 -160.5t-89 -137t-148.5 -96.5t-202 -36q-115 0 -208.5 34.5t-151.5 92.5t-89.5 130.5t-31.5 150.5
q0 224 198 364l84 60q111 78 111 198v13zM367 877q0 67 47.5 114t115.5 47t115 -47t47 -114t-47 -114.5t-115 -47.5t-115.5 47.5t-47.5 114.5z" />
    <glyph glyph-name="Agrave" unicode="&#xc0;" horiz-adv-x="1478" 
d="M1151 0l-121 332h-590l-121 -332h-299l558 1452h327l553 -1452h-307zM735 1139l-200 -549h401zM635 1554l-297 261h334l213 -261h-250z" />
    <glyph glyph-name="Aacute" unicode="&#xc1;" horiz-adv-x="1478" 
d="M1151 0l-121 332h-590l-121 -332h-299l558 1452h327l553 -1452h-307zM735 1139l-200 -549h401zM1143 1815l-297 -261h-250l211 261h336z" />
    <glyph glyph-name="Acircumflex" unicode="&#xc2;" horiz-adv-x="1478" 
d="M1151 0l-121 332h-590l-121 -332h-299l558 1452h327l553 -1452h-307zM735 1139l-200 -549h401zM596 1554h-248l246 261h278l250 -261h-256l-137 134z" />
    <glyph glyph-name="Atilde" unicode="&#xc3;" horiz-adv-x="1478" 
d="M1151 0l-121 332h-590l-121 -332h-299l558 1452h327l553 -1452h-307zM735 1139l-200 -549h401zM1075 1823v-58q0 -108 -59 -166.5t-148 -58.5q-79 0 -153 49l-13 8q-66 41 -98 41q-59 0 -59 -88h-164v56q0 108 59 165.5t148 57.5q74 0 155 -47l13 -8q9 -4 26 -13
t26 -13.5t21.5 -8.5t22.5 -4q27 0 43 15.5t16 47.5v25h164z" />
    <glyph glyph-name="Adieresis" unicode="&#xc4;" horiz-adv-x="1478" 
d="M262 1686q0 62 41.5 104.5t104.5 42.5t106 -42.5t43 -104.5q0 -63 -43 -105.5t-106 -42.5t-104.5 42.5t-41.5 105.5zM913 1686q0 62 42.5 104.5t105.5 42.5t106 -42.5t43 -104.5q0 -63 -43 -105.5t-106 -42.5t-105.5 42.5t-42.5 105.5zM1151 0l-121 332h-590l-121 -332
h-299l558 1452h327l553 -1452h-307zM735 1139l-200 -549h401z" />
    <glyph glyph-name="Aring" unicode="&#xc5;" horiz-adv-x="1478" 
d="M838 1554q0 46 -30.5 75.5t-72.5 29.5q-43 0 -72.5 -29.5t-29.5 -75.5q0 -45 29.5 -73.5t72.5 -28.5q42 0 72.5 28.5t30.5 73.5zM735 1139l-200 -549h401zM1151 0l-121 332h-590l-121 -332h-299l523 1360q-86 80 -86 194q0 116 82.5 193.5t195.5 77.5t196 -77.5
t83 -193.5q0 -108 -78 -186l522 -1368h-307z" />
    <glyph glyph-name="AE" unicode="&#xc6;" horiz-adv-x="2170" 
d="M2054 0h-911v342h-561l-220 -342h-346l963 1452h1073v-266h-625v-332h566v-252h-566v-336h627v-266zM733 580h410v639z" />
    <glyph glyph-name="Ccedilla" unicode="&#xc7;" horiz-adv-x="1564" 
d="M758 -221l-74 92l66 102q-139 12 -261 71t-213 154t-143.5 231.5t-52.5 295.5q0 169 61 313t163 240.5t235.5 150.5t279.5 54q144 0 264 -41.5t199.5 -112t130 -153t72.5 -175.5l-266 -83q-14 56 -42.5 105t-75 92.5t-119.5 69t-163 25.5q-84 0 -162 -30t-142 -88
t-103 -153t-39 -214q0 -112 37.5 -204.5t100.5 -151.5t143.5 -91t168.5 -32q72 0 134 18t106 47.5t79 69t56 79.5t33 83l264 -80q-20 -81 -63.5 -158t-112 -148t-172 -120t-227.5 -62l-48 -73q88 -2 143.5 -51t55.5 -125q0 -80 -65 -137.5t-197 -57.5q-79 0 -144.5 32.5
t-99.5 74.5l88 110q76 -76 154 -76q38 0 61 15.5t23 42.5q0 24 -21 40.5t-57 16.5t-55 -8z" />
    <glyph glyph-name="Egrave" unicode="&#xc8;" horiz-adv-x="1191" 
d="M559 1554l-297 261h334l213 -261h-250zM1075 0h-909v1452h909v-266h-626v-332h567v-252h-567v-336h626v-266z" />
    <glyph glyph-name="Eacute" unicode="&#xc9;" horiz-adv-x="1191" 
d="M1006 1815l-297 -261h-250l211 261h336zM1075 0h-909v1452h909v-266h-626v-332h567v-252h-567v-336h626v-266z" />
    <glyph glyph-name="Ecircumflex" unicode="&#xca;" horiz-adv-x="1191" 
d="M477 1554h-248l246 261h279l250 -261h-256l-138 134zM1075 0h-909v1452h909v-266h-626v-332h567v-252h-567v-336h626v-266z" />
    <glyph glyph-name="Edieresis" unicode="&#xcb;" horiz-adv-x="1191" 
d="M248 1686q0 62 41.5 104.5t103.5 42.5q63 0 106.5 -42.5t43.5 -104.5q0 -63 -43.5 -105.5t-106.5 -42.5t-104 42.5t-41 105.5zM709 1686q0 62 41.5 104.5t103.5 42.5q63 0 106.5 -42.5t43.5 -104.5q0 -63 -43.5 -105.5t-106.5 -42.5t-104 42.5t-41 105.5zM1075 0h-909
v1452h909v-266h-626v-332h567v-252h-567v-336h626v-266z" />
    <glyph glyph-name="Igrave" unicode="&#xcc;" horiz-adv-x="618" 
d="M453 0h-287v1452h287v-1452zM199 1554l-297 261h334l213 -261h-250z" />
    <glyph glyph-name="Iacute" unicode="&#xcd;" horiz-adv-x="618" 
d="M453 0h-287v1452h287v-1452zM717 1815l-297 -261h-250l211 261h336z" />
    <glyph glyph-name="Icircumflex" unicode="&#xce;" horiz-adv-x="618" 
d="M453 0h-287v1452h287v-1452zM178 1554h-248l246 261h279l250 -261h-256l-138 134z" />
    <glyph glyph-name="Idieresis" unicode="&#xcf;" horiz-adv-x="618" 
d="M-25 1686q0 60 40.5 101.5t101.5 41.5q60 0 102.5 -41.5t42.5 -101.5q0 -61 -42.5 -102.5t-102.5 -41.5q-61 0 -101.5 41t-40.5 103zM362 1686q0 60 41 101.5t101 41.5q61 0 103 -41.5t42 -101.5q0 -61 -41.5 -102.5t-103.5 -41.5q-60 0 -101 41.5t-41 102.5zM453 0h-287
v1452h287v-1452z" />
    <glyph glyph-name="Eth" unicode="&#xd0;" horiz-adv-x="1529" 
d="M731 0h-518v645h-180v209h180v598h520q155 0 286.5 -49.5t227 -141t149.5 -229.5t54 -307q0 -224 -94 -390t-255.5 -250.5t-369.5 -84.5zM496 262h225q91 0 169 28.5t138 84t94.5 145.5t34.5 205t-34 205t-94 146t-137.5 85t-168.5 29h-227v-336h280v-209h-280v-383z" />
    <glyph glyph-name="Ntilde" unicode="&#xd1;" horiz-adv-x="1570" 
d="M1137 1823v-58q0 -108 -59 -166.5t-148 -58.5q-80 0 -154 49l-12 8q-66 41 -98 41q-60 0 -60 -88h-164v56q0 108 59 165.5t148 57.5q75 0 156 -47l12 -8q9 -4 26 -13t26 -13.5t21.5 -8.5t22.5 -4q27 0 43.5 15.5t16.5 47.5v25h164zM1405 0h-297l-659 1030v-1030h-283
v1452h352l604 -960v960h283v-1452z" />
    <glyph glyph-name="Ograve" unicode="&#xd2;" horiz-adv-x="1652" 
d="M709 1554l-297 261h333l213 -261h-249zM373 727q0 -118 39 -213t104 -152.5t144 -87.5t165 -30q69 0 134 18.5t123.5 57.5t102 95t69.5 136.5t26 175.5t-26 175.5t-69.5 136.5t-102 95t-123.5 57.5t-134 18.5q-86 0 -165 -30t-144 -87.5t-104 -152.5t-39 -213zM80 725
q0 171 61 315.5t164 240t237.5 149t282.5 53.5t283.5 -53.5t238.5 -149t164.5 -240t61.5 -315.5q0 -170 -61.5 -314t-164.5 -239.5t-238.5 -149t-283.5 -53.5t-282.5 53.5t-237.5 149t-164 239.5t-61 314z" />
    <glyph glyph-name="Oacute" unicode="&#xd3;" horiz-adv-x="1652" 
d="M1229 1815l-297 -261h-250l211 261h336zM373 727q0 -118 39 -213t104 -152.5t144 -87.5t165 -30q69 0 134 18.5t123.5 57.5t102 95t69.5 136.5t26 175.5t-26 175.5t-69.5 136.5t-102 95t-123.5 57.5t-134 18.5q-86 0 -165 -30t-144 -87.5t-104 -152.5t-39 -213zM80 725
q0 171 61 315.5t164 240t237.5 149t282.5 53.5t283.5 -53.5t238.5 -149t164.5 -240t61.5 -315.5q0 -170 -61.5 -314t-164.5 -239.5t-238.5 -149t-283.5 -53.5t-282.5 53.5t-237.5 149t-164 239.5t-61 314z" />
    <glyph glyph-name="Ocircumflex" unicode="&#xd4;" horiz-adv-x="1652" 
d="M688 1554h-248l246 261h279l249 -261h-256l-137 134zM373 727q0 -118 39 -213t104 -152.5t144 -87.5t165 -30q69 0 134 18.5t123.5 57.5t102 95t69.5 136.5t26 175.5t-26 175.5t-69.5 136.5t-102 95t-123.5 57.5t-134 18.5q-86 0 -165 -30t-144 -87.5t-104 -152.5
t-39 -213zM80 725q0 171 61 315.5t164 240t237.5 149t282.5 53.5t283.5 -53.5t238.5 -149t164.5 -240t61.5 -315.5q0 -170 -61.5 -314t-164.5 -239.5t-238.5 -149t-283.5 -53.5t-282.5 53.5t-237.5 149t-164 239.5t-61 314z" />
    <glyph glyph-name="Otilde" unicode="&#xd5;" horiz-adv-x="1652" 
d="M1169 1823v-58q0 -108 -58.5 -166.5t-147.5 -58.5q-80 0 -154 49l-12 8q-66 41 -99 41q-59 0 -59 -88h-164v56q0 108 59 165.5t148 57.5q75 0 156 -47l12 -8q9 -4 26 -13t26 -13.5t21.5 -8.5t22.5 -4q27 0 43.5 15.5t16.5 47.5v25h163zM373 727q0 -118 39 -213
t104 -152.5t144 -87.5t165 -30q69 0 134 18.5t123.5 57.5t102 95t69.5 136.5t26 175.5t-26 175.5t-69.5 136.5t-102 95t-123.5 57.5t-134 18.5q-86 0 -165 -30t-144 -87.5t-104 -152.5t-39 -213zM80 725q0 171 61 315.5t164 240t237.5 149t282.5 53.5t283.5 -53.5
t238.5 -149t164.5 -240t61.5 -315.5q0 -170 -61.5 -314t-164.5 -239.5t-238.5 -149t-283.5 -53.5t-282.5 53.5t-237.5 149t-164 239.5t-61 314z" />
    <glyph glyph-name="Odieresis" unicode="&#xd6;" horiz-adv-x="1652" 
d="M338 1686q0 62 42 104.5t105 42.5t106.5 -42.5t43.5 -104.5q0 -63 -43.5 -105.5t-106.5 -42.5t-105 42.5t-42 105.5zM1020 1686q0 62 42 104.5t105 42.5q62 0 105 -43t43 -104q0 -63 -43 -105.5t-105 -42.5q-63 0 -105 42.5t-42 105.5zM373 727q0 -118 39 -213
t104 -152.5t144 -87.5t165 -30q69 0 134 18.5t123.5 57.5t102 95t69.5 136.5t26 175.5t-26 175.5t-69.5 136.5t-102 95t-123.5 57.5t-134 18.5q-86 0 -165 -30t-144 -87.5t-104 -152.5t-39 -213zM80 725q0 171 61 315.5t164 240t237.5 149t282.5 53.5t283.5 -53.5
t238.5 -149t164.5 -240t61.5 -315.5q0 -170 -61.5 -314t-164.5 -239.5t-238.5 -149t-283.5 -53.5t-282.5 53.5t-237.5 149t-164 239.5t-61 314z" />
    <glyph glyph-name="multiply" unicode="&#xd7;" horiz-adv-x="1153" 
d="M915 96l-340 344l-337 -342l-162 162l338 344l-338 344l164 162l335 -342l338 342l164 -160l-340 -346l340 -344z" />
    <glyph glyph-name="Oslash" unicode="&#xd8;" horiz-adv-x="1652" 
d="M80 725q0 171 61 315.5t164 240t237.5 149t282.5 53.5q200 0 371 -94l143 184l181 -135l-144 -187q197 -210 197 -526q0 -170 -61.5 -314t-164.5 -239.5t-238.5 -149t-283.5 -53.5q-197 0 -370 92l-140 -180l-184 133l145 187q-196 209 -196 524zM373 727q0 -176 82 -295
l569 735q-90 43 -199 43q-86 0 -165 -30t-144 -87.5t-104 -152.5t-39 -213zM1280 727q0 176 -82 295l-569 -735q90 -43 196 -43q69 0 134 18.5t123.5 57.5t102 95t69.5 136.5t26 175.5z" />
    <glyph glyph-name="Ugrave" unicode="&#xd9;" horiz-adv-x="1419" 
d="M621 1554l-297 261h333l213 -261h-249zM709 -33q-117 0 -217.5 36t-176.5 103.5t-119.5 172.5t-43.5 235v938h282v-917q0 -140 73.5 -215.5t201.5 -75.5q131 0 203.5 75t72.5 216v917h283v-938q0 -173 -75.5 -298.5t-200.5 -187t-283 -61.5z" />
    <glyph glyph-name="Uacute" unicode="&#xda;" horiz-adv-x="1419" 
d="M1081 1815l-297 -261h-249l210 261h336zM709 -33q-117 0 -217.5 36t-176.5 103.5t-119.5 172.5t-43.5 235v938h282v-917q0 -140 73.5 -215.5t201.5 -75.5q131 0 203.5 75t72.5 216v917h283v-938q0 -173 -75.5 -298.5t-200.5 -187t-283 -61.5z" />
    <glyph glyph-name="Ucircumflex" unicode="&#xdb;" horiz-adv-x="1419" 
d="M571 1554h-247l245 261h279l250 -261h-256l-137 134zM709 -33q-117 0 -217.5 36t-176.5 103.5t-119.5 172.5t-43.5 235v938h282v-917q0 -140 73.5 -215.5t201.5 -75.5q131 0 203.5 75t72.5 216v917h283v-938q0 -173 -75.5 -298.5t-200.5 -187t-283 -61.5z" />
    <glyph glyph-name="Udieresis" unicode="&#xdc;" horiz-adv-x="1419" 
d="M317 1686q0 62 42.5 104.5t105.5 42.5q61 0 104 -42.5t43 -104.5q0 -63 -42.5 -105.5t-104.5 -42.5q-63 0 -105.5 42.5t-42.5 105.5zM809 1686q0 62 42 104.5t105 42.5q62 0 105 -43t43 -104q0 -63 -43 -105.5t-105 -42.5q-63 0 -105 42.5t-42 105.5zM709 -33
q-117 0 -217.5 36t-176.5 103.5t-119.5 172.5t-43.5 235v938h282v-917q0 -140 73.5 -215.5t201.5 -75.5q131 0 203.5 75t72.5 216v917h283v-938q0 -173 -75.5 -298.5t-200.5 -187t-283 -61.5z" />
    <glyph glyph-name="Yacute" unicode="&#xdd;" horiz-adv-x="1341" 
d="M526 610l-506 842h332l326 -575l326 575h317l-512 -842v-610h-283v610zM1057 1815l-297 -261h-250l211 261h336z" />
    <glyph glyph-name="Thorn" unicode="&#xde;" horiz-adv-x="1236" 
d="M451 526h223q105 0 166 56.5t61 150.5q0 97 -61 154t-166 57h-223v-418zM700 285h-251v-285h-283v1452h283v-264h249q209 0 348.5 -129.5t139.5 -323.5q0 -193 -139.5 -321.5t-346.5 -128.5z" />
    <glyph glyph-name="germandbls" unicode="&#xdf;" horiz-adv-x="1220" 
d="M821 702q1 -27 17.5 -40.5t58.5 -30.5l61 -27q105 -42 167.5 -125t62.5 -190q0 -55 -21.5 -109t-63.5 -102.5t-115 -78.5t-165 -30q-88 0 -157.5 28.5t-108.5 74t-58.5 94t-19.5 96.5l219 43q0 -48 31.5 -88.5t95.5 -40.5q50 0 79.5 28.5t29.5 65.5q0 39 -23 66t-75 49
l-62 25q-45 19 -80 39.5t-70.5 52.5t-55 78.5t-19.5 103.5q0 149 137 238l41 26q100 62 100 148q0 61 -49 104t-143 43q-95 0 -158 -66.5t-63 -199.5v-977h-269v995q0 121 40 216t108.5 153.5t155.5 88.5t186 30q207 0 335 -108.5t128 -266.5q0 -110 -48.5 -181.5
t-131.5 -125.5l-41 -25q-30 -20 -43 -35t-13 -39z" />
    <glyph glyph-name="agrave" unicode="&#xe0;" horiz-adv-x="1103" 
d="M84 274q0 129 83.5 207.5t217.5 98.5l248 36q76 11 76 72q0 57 -43.5 94t-126.5 37q-85 0 -136 -47t-57 -117l-242 52q6 61 37 118.5t83.5 106t134 77.5t178.5 29q116 0 202.5 -31t136.5 -85t74.5 -121t24.5 -146v-495q0 -90 12 -160h-250q-10 45 -10 121
q-42 -66 -117 -108t-180 -42q-155 0 -250.5 89.5t-95.5 213.5zM487 174q97 0 159.5 55t62.5 179v45l-228 -35q-56 -8 -90.5 -39.5t-34.5 -87.5q0 -48 34.5 -82.5t96.5 -34.5zM465 1128l-279 308h316l184 -308h-221z" />
    <glyph glyph-name="aacute" unicode="&#xe1;" horiz-adv-x="1103" 
d="M84 274q0 129 83.5 207.5t217.5 98.5l248 36q76 11 76 72q0 57 -43.5 94t-126.5 37q-85 0 -136 -47t-57 -117l-242 52q6 61 37 118.5t83.5 106t134 77.5t178.5 29q116 0 202.5 -31t136.5 -85t74.5 -121t24.5 -146v-495q0 -90 12 -160h-250q-10 45 -10 121
q-42 -66 -117 -108t-180 -42q-155 0 -250.5 89.5t-95.5 213.5zM487 174q97 0 159.5 55t62.5 179v45l-228 -35q-56 -8 -90.5 -39.5t-34.5 -87.5q0 -48 34.5 -82.5t96.5 -34.5zM907 1436l-278 -308h-219l186 308h311z" />
    <glyph glyph-name="acircumflex" unicode="&#xe2;" horiz-adv-x="1103" 
d="M84 274q0 129 83.5 207.5t217.5 98.5l248 36q76 11 76 72q0 57 -43.5 94t-126.5 37q-85 0 -136 -47t-57 -117l-242 52q6 61 37 118.5t83.5 106t134 77.5t178.5 29q116 0 202.5 -31t136.5 -85t74.5 -121t24.5 -146v-495q0 -90 12 -160h-250q-10 45 -10 121
q-42 -66 -117 -108t-180 -42q-155 0 -250.5 89.5t-95.5 213.5zM487 174q97 0 159.5 55t62.5 179v45l-228 -35q-56 -8 -90.5 -39.5t-34.5 -87.5q0 -48 34.5 -82.5t96.5 -34.5zM395 1130h-213l226 302h270l225 -302h-219l-145 154z" />
    <glyph glyph-name="atilde" unicode="&#xe3;" horiz-adv-x="1103" 
d="M84 274q0 129 83.5 207.5t217.5 98.5l248 36q76 11 76 72q0 57 -43.5 94t-126.5 37q-85 0 -136 -47t-57 -117l-242 52q6 61 37 118.5t83.5 106t134 77.5t178.5 29q116 0 202.5 -31t136.5 -85t74.5 -121t24.5 -146v-495q0 -90 12 -160h-250q-10 45 -10 121
q-42 -66 -117 -108t-180 -42q-155 0 -250.5 89.5t-95.5 213.5zM487 174q97 0 159.5 55t62.5 179v45l-228 -35q-56 -8 -90.5 -39.5t-34.5 -87.5q0 -48 34.5 -82.5t96.5 -34.5zM907 1425v-36q0 -123 -60 -187.5t-159 -64.5q-80 0 -145 45l-13 8q-4 2 -18.5 12t-22 13.5
t-23 7.5t-32.5 4q-69 0 -72 -88h-167v43q0 120 62.5 184t160.5 64q61 0 147 -46l13 -8q68 -39 98 -39q67 0 67 88h164z" />
    <glyph glyph-name="adieresis" unicode="&#xe4;" horiz-adv-x="1103" 
d="M84 274q0 129 83.5 207.5t217.5 98.5l248 36q76 11 76 72q0 57 -43.5 94t-126.5 37q-85 0 -136 -47t-57 -117l-242 52q6 61 37 118.5t83.5 106t134 77.5t178.5 29q116 0 202.5 -31t136.5 -85t74.5 -121t24.5 -146v-495q0 -90 12 -160h-250q-10 45 -10 121
q-42 -66 -117 -108t-180 -42q-155 0 -250.5 89.5t-95.5 213.5zM487 174q97 0 159.5 55t62.5 179v45l-228 -35q-56 -8 -90.5 -39.5t-34.5 -87.5q0 -48 34.5 -82.5t96.5 -34.5zM186 1286q0 60 42 103t102 43t102.5 -43t42.5 -103t-42.5 -101.5t-102.5 -41.5t-102 41.5
t-42 101.5zM616 1286q0 61 41.5 103.5t102.5 42.5q60 0 102.5 -43t42.5 -103t-42.5 -101.5t-102.5 -41.5q-61 0 -102.5 41.5t-41.5 101.5z" />
    <glyph glyph-name="aring" unicode="&#xe5;" horiz-adv-x="1103" 
d="M84 274q0 129 83.5 207.5t217.5 98.5l248 36q76 11 76 72q0 57 -43.5 94t-126.5 37q-85 0 -136 -47t-57 -117l-242 52q6 61 37 118.5t83.5 106t134 77.5t178.5 29q116 0 202.5 -31t136.5 -85t74.5 -121t24.5 -146v-495q0 -90 12 -160h-250q-10 45 -10 121
q-42 -66 -117 -108t-180 -42q-155 0 -250.5 89.5t-95.5 213.5zM487 174q97 0 159.5 55t62.5 179v45l-228 -35q-56 -8 -90.5 -39.5t-34.5 -87.5q0 -48 34.5 -82.5t96.5 -34.5zM768 1337q0 -96 -70 -160.5t-166 -64.5t-165.5 64.5t-69.5 160.5q0 98 69.5 164t165.5 66t166 -66
t70 -164zM614 1337q0 38 -24 62t-60 24q-35 0 -58 -24t-23 -62q0 -37 23 -60.5t58 -23.5q36 0 60 24t24 60z" />
    <glyph glyph-name="ae" unicode="&#xe6;" horiz-adv-x="1783" 
d="M1464 360l230 -71q-40 -137 -163.5 -228.5t-299.5 -91.5q-118 0 -219.5 47t-171.5 134q-135 -181 -383 -181q-172 0 -272.5 89.5t-100.5 215.5q0 129 83.5 207.5t217.5 98.5l258 36q76 10 76 72q0 57 -45.5 95t-130.5 38q-87 0 -141 -48t-60 -116l-238 50q5 62 38 120.5
t88 105.5t137.5 76t177.5 29q234 0 342 -131q140 131 332 131q230 0 359.5 -139t129.5 -383q0 -72 -6 -84h-723q4 -102 77.5 -166.5t176.5 -64.5q177 0 231 159zM496 174q42 0 80 12t71 37.5t52.5 72.5t19.5 110v47l-238 -35q-58 -8 -93.5 -39.5t-35.5 -87.5
q0 -46 38.5 -81.5t105.5 -35.5zM985 618h455q-3 83 -60.5 141t-169.5 58q-100 0 -160 -61t-65 -138z" />
    <glyph glyph-name="ccedilla" unicode="&#xe7;" horiz-adv-x="1126" 
d="M528 -221l-73 92l65 104q-196 27 -323 173.5t-127 355.5q0 231 150 382.5t372 151.5q99 0 183 -29t141 -78t94.5 -108t54.5 -125l-244 -82q-22 73 -76 121.5t-147 48.5q-109 0 -182.5 -75t-73.5 -207t74.5 -208.5t183.5 -76.5q95 0 153 50.5t78 119.5l240 -80
q-34 -121 -132.5 -216t-248.5 -118l-47 -73q88 -2 143.5 -51t55.5 -125q0 -80 -65 -137.5t-197 -57.5q-79 0 -144.5 32.5t-99.5 74.5l88 110q76 -76 154 -76q38 0 61 15.5t23 42.5q0 24 -21 40.5t-57 16.5q-37 0 -56 -8z" />
    <glyph glyph-name="egrave" unicode="&#xe8;" horiz-adv-x="1132" 
d="M344 618h451q-3 83 -60 141t-166 58q-99 0 -159.5 -61t-65.5 -138zM821 356l228 -67q-41 -139 -161 -229.5t-298 -90.5q-104 0 -198 37t-165.5 104.5t-114 170.5t-42.5 227q0 117 41 218t109.5 168.5t158 105.5t186.5 38q233 0 365.5 -139.5t132.5 -382.5q0 -17 -1 -37
t-2 -33t-1 -14h-721q4 -99 78 -164t176 -65q173 0 229 153zM492 1128l-279 308h315l185 -308h-221z" />
    <glyph glyph-name="eacute" unicode="&#xe9;" horiz-adv-x="1132" 
d="M938 1436l-279 -308h-219l187 308h311zM344 618h451q-3 83 -60 141t-166 58q-99 0 -159.5 -61t-65.5 -138zM821 356l228 -67q-41 -139 -161 -229.5t-298 -90.5q-104 0 -198 37t-165.5 104.5t-114 170.5t-42.5 227q0 117 41 218t109.5 168.5t158 105.5t186.5 38
q233 0 365.5 -139.5t132.5 -382.5q0 -17 -1 -37t-2 -33t-1 -14h-721q4 -99 78 -164t176 -65q173 0 229 153z" />
    <glyph glyph-name="ecircumflex" unicode="&#xea;" horiz-adv-x="1132" 
d="M430 1130h-213l225 302h271l225 -302h-219l-146 154zM344 618h451q-3 83 -60 141t-166 58q-99 0 -159.5 -61t-65.5 -138zM821 356l228 -67q-41 -139 -161 -229.5t-298 -90.5q-104 0 -198 37t-165.5 104.5t-114 170.5t-42.5 227q0 117 41 218t109.5 168.5t158 105.5
t186.5 38q233 0 365.5 -139.5t132.5 -382.5q0 -17 -1 -37t-2 -33t-1 -14h-721q4 -99 78 -164t176 -65q173 0 229 153z" />
    <glyph glyph-name="edieresis" unicode="&#xeb;" horiz-adv-x="1132" 
d="M219 1286q0 60 41.5 103t101.5 43t103 -43t43 -103t-43 -101.5t-103 -41.5t-101.5 41.5t-41.5 101.5zM649 1286q0 61 41.5 103.5t102.5 42.5q60 0 102.5 -43t42.5 -103t-42.5 -101.5t-102.5 -41.5q-61 0 -102.5 41.5t-41.5 101.5zM344 618h451q-3 83 -60 141t-166 58
q-99 0 -159.5 -61t-65.5 -138zM821 356l228 -67q-41 -139 -161 -229.5t-298 -90.5q-104 0 -198 37t-165.5 104.5t-114 170.5t-42.5 227q0 117 41 218t109.5 168.5t158 105.5t186.5 38q233 0 365.5 -139.5t132.5 -382.5q0 -17 -1 -37t-2 -33t-1 -14h-721q4 -99 78 -164
t176 -65q173 0 229 153z" />
    <glyph glyph-name="igrave" unicode="&#xec;" horiz-adv-x="563" 
d="M418 0h-273v1008h273v-1008zM193 1128l-279 308h315l185 -308h-221z" />
    <glyph glyph-name="iacute" unicode="&#xed;" horiz-adv-x="563" 
d="M657 1436l-278 -308h-219l186 308h311zM418 0h-273v1008h273v-1008z" />
    <glyph glyph-name="icircumflex" unicode="&#xee;" horiz-adv-x="563" 
d="M135 1130h-213l225 302h271l225 -302h-219l-145 154zM418 0h-273v1008h273v-1008z" />
    <glyph glyph-name="idieresis" unicode="&#xef;" horiz-adv-x="563" 
d="M-43 1286q0 60 40 100.5t99 40.5t100.5 -40.5t41.5 -100.5q0 -58 -41.5 -98.5t-100.5 -40.5q-58 0 -98.5 40.5t-40.5 98.5zM324 1286q0 60 40 100.5t99 40.5q60 0 100.5 -40.5t40.5 -100.5q0 -59 -40.5 -99t-100.5 -40q-59 0 -99 40.5t-40 98.5zM418 0h-273v1008h273
v-1008z" />
    <glyph glyph-name="eth" unicode="&#xf0;" horiz-adv-x="1189" 
d="M1049 1274l-158 -66q108 -121 169.5 -284t61.5 -357q0 -122 -34 -229.5t-98 -190t-166.5 -130.5t-229.5 -48q-225 0 -374.5 142.5t-149.5 357.5q0 91 28 169.5t76 134t111 95.5t134 59t144 19q71 0 138.5 -21t101.5 -57q-44 137 -152 240l-280 -119l-66 164l178 76
q-103 55 -227 94l84 205q231 -59 405 -187l234 99zM594 215q106 0 181 69t75 189q0 121 -75 189.5t-181 68.5q-104 0 -179 -69.5t-75 -188.5t75 -188.5t179 -69.5z" />
    <glyph glyph-name="ntilde" unicode="&#xf1;" horiz-adv-x="1196" 
d="M418 580v-580h-273v1008h265v-125q44 74 123.5 112.5t166.5 38.5q179 0 272 -111.5t93 -287.5v-635h-272v588q0 90 -46.5 145t-140.5 55q-87 0 -137.5 -59t-50.5 -149zM971 1425v-36q0 -123 -60 -187.5t-159 -64.5q-81 0 -146 45l-12 8q-4 2 -18.5 12t-22 13.5t-23 7.5
t-32.5 4q-69 0 -72 -88h-168v43q0 120 62.5 184t160.5 64q62 0 148 -46l12 -8q68 -39 98 -39q68 0 68 88h164z" />
    <glyph glyph-name="ograve" unicode="&#xf2;" horiz-adv-x="1196" 
d="M598 217q107 0 181.5 75.5t74.5 211.5t-74.5 211.5t-181.5 75.5t-181.5 -75.5t-74.5 -211.5q0 -134 75 -210.5t181 -76.5zM598 1038q227 0 377.5 -151t150.5 -383q0 -231 -151 -383t-377 -152t-377 152t-151 383q0 232 150.5 383t377.5 151zM502 1128l-279 308h316
l184 -308h-221z" />
    <glyph glyph-name="oacute" unicode="&#xf3;" horiz-adv-x="1196" 
d="M956 1436l-278 -308h-219l186 308h311zM598 217q107 0 181.5 75.5t74.5 211.5t-74.5 211.5t-181.5 75.5t-181.5 -75.5t-74.5 -211.5q0 -134 75 -210.5t181 -76.5zM598 1038q227 0 377.5 -151t150.5 -383q0 -231 -151 -383t-377 -152t-377 152t-151 383q0 232 150.5 383
t377.5 151z" />
    <glyph glyph-name="ocircumflex" unicode="&#xf4;" horiz-adv-x="1196" 
d="M455 1130h-213l225 302h270l226 -302h-220l-145 154zM598 217q107 0 181.5 75.5t74.5 211.5t-74.5 211.5t-181.5 75.5t-181.5 -75.5t-74.5 -211.5q0 -134 75 -210.5t181 -76.5zM598 1038q227 0 377.5 -151t150.5 -383q0 -231 -151 -383t-377 -152t-377 152t-151 383
q0 232 150.5 383t377.5 151z" />
    <glyph glyph-name="otilde" unicode="&#xf5;" horiz-adv-x="1196" 
d="M598 217q107 0 181.5 75.5t74.5 211.5t-74.5 211.5t-181.5 75.5t-181.5 -75.5t-74.5 -211.5q0 -134 75 -210.5t181 -76.5zM598 1038q227 0 377.5 -151t150.5 -383q0 -231 -151 -383t-377 -152t-377 152t-151 383q0 232 150.5 383t377.5 151zM956 1425v-36
q0 -123 -60 -187.5t-159 -64.5q-80 0 -145 45l-12 8q-3 2 -18.5 12t-22.5 13.5t-23 7.5t-33 4q-68 0 -71 -88h-168v43q0 120 62.5 184t160.5 64q61 0 147 -46l13 -8q68 -39 98 -39q68 0 68 88h163z" />
    <glyph glyph-name="odieresis" unicode="&#xf6;" horiz-adv-x="1196" 
d="M238 1286q0 60 41.5 103t101.5 43t102.5 -43t42.5 -103t-42.5 -101.5t-102.5 -41.5t-101.5 41.5t-41.5 101.5zM668 1286q0 61 41 103.5t102 42.5q60 0 102.5 -43t42.5 -103t-42.5 -101.5t-102.5 -41.5q-61 0 -102 41.5t-41 101.5zM598 217q107 0 181.5 75.5t74.5 211.5
t-74.5 211.5t-181.5 75.5t-181.5 -75.5t-74.5 -211.5q0 -134 75 -210.5t181 -76.5zM598 1038q227 0 377.5 -151t150.5 -383q0 -231 -151 -383t-377 -152t-377 152t-151 383q0 232 150.5 383t377.5 151z" />
    <glyph glyph-name="divide" unicode="&#xf7;" horiz-adv-x="1202" 
d="M436 229q0 65 47 111.5t113 46.5t113 -46.5t47 -111.5t-47 -112t-113 -47t-113 47t-47 112zM436 979q0 65 47 111.5t113 46.5t113 -46.5t47 -111.5t-47 -112.5t-113 -47.5t-113 47.5t-47 112.5zM100 489v228h1002v-228h-1002z" />
    <glyph glyph-name="oslash" unicode="&#xf8;" horiz-adv-x="1196" 
d="M598 1038q150 0 270 -69l109 133l131 -111l-107 -133q125 -147 125 -354q0 -231 -151 -383t-377 -152q-137 0 -262 64l-103 -127l-135 110l103 125q-131 150 -131 363q0 232 150.5 383t377.5 151zM342 504q0 -84 31 -148l334 412q-58 23 -109 23q-107 0 -181.5 -75.5
t-74.5 -211.5zM598 217q107 0 181.5 75.5t74.5 211.5q0 73 -27 139l-327 -407q49 -19 98 -19z" />
    <glyph glyph-name="ugrave" unicode="&#xf9;" horiz-adv-x="1200" 
d="M805 0q-8 40 -8 109q-39 -67 -116 -101.5t-163 -34.5q-177 0 -280 113.5t-103 284.5v637h273v-582q0 -90 46.5 -146.5t137.5 -56.5q89 0 139.5 54.5t50.5 144.5v586h273v-826q0 -94 10 -182h-260zM528 1128l-278 308h315l185 -308h-222z" />
    <glyph glyph-name="uacute" unicode="&#xfa;" horiz-adv-x="1200" 
d="M922 1436l-279 -308h-219l186 308h312zM805 0q-8 40 -8 109q-39 -67 -116 -101.5t-163 -34.5q-177 0 -280 113.5t-103 284.5v637h273v-582q0 -90 46.5 -146.5t137.5 -56.5q89 0 139.5 54.5t50.5 144.5v586h273v-826q0 -94 10 -182h-260z" />
    <glyph glyph-name="ucircumflex" unicode="&#xfb;" horiz-adv-x="1200" 
d="M451 1130h-213l225 302h270l225 -302h-219l-145 154zM805 0q-8 40 -8 109q-39 -67 -116 -101.5t-163 -34.5q-177 0 -280 113.5t-103 284.5v637h273v-582q0 -90 46.5 -146.5t137.5 -56.5q89 0 139.5 54.5t50.5 144.5v586h273v-826q0 -94 10 -182h-260z" />
    <glyph glyph-name="udieresis" unicode="&#xfc;" horiz-adv-x="1200" 
d="M242 1286q0 60 41.5 103t101.5 43t102.5 -43t42.5 -103t-42.5 -101.5t-102.5 -41.5t-101.5 41.5t-41.5 101.5zM672 1286q0 61 41 103.5t102 42.5q60 0 103 -43t43 -103t-43 -101.5t-103 -41.5q-61 0 -102 41.5t-41 101.5zM805 0q-8 40 -8 109q-39 -67 -116 -101.5
t-163 -34.5q-177 0 -280 113.5t-103 284.5v637h273v-582q0 -90 46.5 -146.5t137.5 -56.5q89 0 139.5 54.5t50.5 144.5v586h273v-826q0 -94 10 -182h-260z" />
    <glyph glyph-name="yacute" unicode="&#xfd;" horiz-adv-x="1146" 
d="M494 -397h-289l237 524l-428 881h305l269 -590l248 590h290zM920 1436l-279 -308h-219l186 308h312z" />
    <glyph glyph-name="thorn" unicode="&#xfe;" horiz-adv-x="1253" 
d="M418 -389h-273v1872h273v-586q39 57 119 95t182 38q216 0 340.5 -147t124.5 -377q0 -231 -131.5 -381t-343.5 -150q-100 0 -176 34.5t-115 88.5v-487zM915 504q0 130 -70.5 206t-178.5 76t-180 -76t-72 -206t72 -207.5t180 -77.5t178.5 77t70.5 208z" />
    <glyph glyph-name="ydieresis" unicode="&#xff;" horiz-adv-x="1146" 
d="M494 -397h-289l237 524l-428 881h305l269 -590l248 590h290zM219 1286q0 60 41.5 103t101.5 43t103 -43t43 -103t-43 -101.5t-103 -41.5t-101.5 41.5t-41.5 101.5zM649 1286q0 61 41.5 103.5t102.5 42.5q60 0 102.5 -43t42.5 -103t-42.5 -101.5t-102.5 -41.5
q-61 0 -102.5 41.5t-41.5 101.5z" />
    <glyph glyph-name="dotlessi" unicode="&#x131;" horiz-adv-x="563" 
d="M418 0h-273v1008h273v-1008z" />
    <glyph glyph-name="Lslash" unicode="&#x141;" horiz-adv-x="1191" 
d="M1141 0h-930v530l-188 -86v228l188 86v694h283v-565l329 149v-227l-329 -150v-389h647v-270z" />
    <glyph glyph-name="lslash" unicode="&#x142;" horiz-adv-x="669" 
d="M469 0h-272v528l-174 -79v227l174 80v727h272v-604l178 82v-228l-178 -82v-651z" />
    <glyph glyph-name="OE" unicode="&#x152;" horiz-adv-x="2306" 
d="M373 727q0 -118 39 -213t104 -152.5t144 -87.5t165 -30q69 0 134 18.5t123.5 57.5t102 95t69.5 136.5t26 175.5t-26 175.5t-69.5 136.5t-102 95t-123.5 57.5t-134 18.5q-86 0 -165 -30t-144 -87.5t-104 -152.5t-39 -213zM2189 0h-909v145q-170 -176 -455 -176
q-148 0 -282.5 53.5t-237.5 149t-164 239.5t-61 314q0 171 61 315.5t164 240t237.5 149t282.5 53.5q283 0 455 -178v147h909v-266h-626v-332h567v-252h-567v-336h626v-266z" />
    <glyph glyph-name="oe" unicode="&#x153;" horiz-adv-x="1918" 
d="M1130 618h451q-3 83 -59.5 141t-165.5 58q-99 0 -160 -61.5t-66 -137.5zM598 217q107 0 181.5 75.5t74.5 211.5t-74.5 211.5t-181.5 75.5t-181.5 -75.5t-74.5 -211.5q0 -134 75 -210.5t181 -76.5zM598 1038q117 0 217 -43t172 -121q71 78 166 121t199 43
q233 0 365 -139.5t132 -382.5q0 -17 -1 -37t-2 -33t-1 -14h-721q4 -99 78 -164t176 -65q174 0 230 153l227 -67q-41 -139 -161 -229.5t-298 -90.5q-114 0 -215 42.5t-172 123.5q-73 -79 -173.5 -122.5t-217.5 -43.5q-226 0 -377 152t-151 383q0 232 150.5 383t377.5 151z
" />
    <glyph glyph-name="Scaron" unicode="&#x160;" horiz-adv-x="1236" 
d="M248 1815h254l135 -132l137 132h248l-250 -261h-278zM1143 1106l-254 -78q-6 34 -22 66.5t-45.5 65.5t-80.5 53t-116 20q-100 0 -164 -54.5t-64 -129.5q0 -62 40.5 -105.5t117.5 -58.5l203 -39q193 -37 299 -153.5t106 -274.5q0 -85 -35 -164.5t-99.5 -143.5t-166 -102.5
t-223.5 -38.5q-111 0 -205 27.5t-158.5 72.5t-111.5 105.5t-71.5 122.5t-31.5 127l263 70q10 -116 91 -194.5t226 -78.5q111 0 173.5 49.5t62.5 128.5q0 64 -46.5 109.5t-130.5 62.5l-202 41q-176 36 -278.5 145t-102.5 271q0 126 69 231t185 164.5t252 59.5
q125 0 223.5 -35t157.5 -93t92 -119.5t47 -129.5z" />
    <glyph glyph-name="scaron" unicode="&#x161;" horiz-adv-x="944" 
d="M113 1434h219l143 -154l143 154h216l-224 -304h-272zM59 281l234 51q5 -65 52.5 -109.5t131.5 -44.5q64 0 98.5 29t34.5 72q0 76 -108 98l-133 31q-141 31 -212 111t-71 190q0 137 108 233t269 96q82 0 149.5 -20t110.5 -50.5t73 -70.5t44 -76.5t18 -72.5l-227 -52
q-7 54 -47.5 94.5t-118.5 40.5q-54 0 -91.5 -28.5t-37.5 -71.5q0 -36 25 -59t67 -31l143 -31q145 -30 222 -112.5t77 -196.5q0 -63 -24.5 -121.5t-71.5 -106t-123.5 -76t-171.5 -28.5q-87 0 -158.5 21.5t-117 55t-78 76.5t-47.5 82.5t-19 76.5z" />
    <glyph glyph-name="Ydieresis" unicode="&#x178;" horiz-adv-x="1341" 
d="M285 1686q0 62 42 104.5t105 42.5t106.5 -42.5t43.5 -104.5q0 -63 -43.5 -105.5t-106.5 -42.5t-105 42.5t-42 105.5zM770 1686q0 62 42.5 104.5t105.5 42.5q62 0 104.5 -42.5t42.5 -104.5q0 -63 -42.5 -105.5t-104.5 -42.5q-63 0 -105.5 42.5t-42.5 105.5zM526 610
l-506 842h332l326 -575l326 575h317l-512 -842v-610h-283v610z" />
    <glyph glyph-name="Zcaron" unicode="&#x17d;" horiz-adv-x="1310" 
d="M281 1815h254l135 -132l137 132h248l-250 -261h-279zM1223 0h-1143v274l756 910h-730v268h1106v-264l-768 -918h779v-270z" />
    <glyph glyph-name="zcaron" unicode="&#x17e;" horiz-adv-x="985" 
d="M139 1434h219l144 -154l143 154h215l-223 -304h-272zM909 0h-833v240l477 532h-465v236h813v-228l-491 -542h499v-238z" />
    <glyph glyph-name="florin" unicode="&#x192;" horiz-adv-x="1050" 
d="M244 55l145 721h-201v230h248l39 188q16 82 55 145.5t92 101t112.5 56.5t123.5 19q65 0 99 -5.5t83 -21.5v-236q-69 15 -127 15q-141 0 -172 -154l-22 -108h239v-230h-286l-162 -803q-16 -81 -55 -144.5t-92 -101t-113 -56.5t-123 -19q-66 0 -102.5 6.5t-85.5 22.5v233
q65 -14 133 -14q141 0 172 155z" />
    <glyph glyph-name="circumflex" unicode="&#x2c6;" horiz-adv-x="827" 
d="M266 1130h-213l226 302h270l225 -302h-219l-145 154z" />
    <glyph glyph-name="caron" unicode="&#x2c7;" horiz-adv-x="827" 
d="M53 1434h219l144 -154l143 154h215l-223 -304h-272z" />
    <glyph glyph-name="uni02C9" unicode="&#x2c9;" horiz-adv-x="686" 
d="M631 1182h-576v198h576v-198z" />
    <glyph glyph-name="breve" unicode="&#x2d8;" horiz-adv-x="765" 
d="M383 1124q-153 0 -240 90.5t-90 219.5h183q3 -48 40 -84.5t107 -36.5t107 36.5t40 84.5h183q-3 -129 -89.5 -219.5t-240.5 -90.5z" />
    <glyph glyph-name="dotaccent" unicode="&#x2d9;" horiz-adv-x="393" 
d="M33 1284q0 68 48 115t116 47t115.5 -46.5t47.5 -115.5q0 -67 -47.5 -113.5t-115.5 -46.5t-116 46.5t-48 113.5z" />
    <glyph glyph-name="ring" unicode="&#x2da;" horiz-adv-x="577" 
d="M524 1327q0 -96 -69.5 -160.5t-165.5 -64.5t-166 64.5t-70 160.5q0 98 70 163.5t166 65.5t165.5 -65.5t69.5 -163.5zM371 1327q0 38 -24 62t-60 24t-59 -24t-23 -62q0 -37 23.5 -60.5t58.5 -23.5q36 0 60 24t24 60z" />
    <glyph glyph-name="ogonek" unicode="&#x2db;" horiz-adv-x="458" 
d="M299 -457q-110 0 -181 60t-71 159q0 177 211 271l148 -33q-68 -32 -115 -82t-47 -111q0 -45 28.5 -68.5t75.5 -23.5q34 0 58 6v-161q-46 -17 -107 -17z" />
    <glyph glyph-name="tilde" unicode="&#x2dc;" horiz-adv-x="800" 
d="M756 1425v-36q0 -123 -60 -187.5t-159 -64.5q-81 0 -146 45l-12 8q-4 2 -18.5 12t-22 13.5t-23 7.5t-32.5 4q-69 0 -72 -88h-168v43q0 120 62.5 184t160.5 64q62 0 148 -46l12 -8q68 -39 98 -39q68 0 68 88h164z" />
    <glyph glyph-name="hungarumlaut" unicode="&#x2dd;" horiz-adv-x="811" 
d="M420 1436l-199 -308h-172l107 308h264zM762 1436l-230 -308h-174l136 308h268z" />
    <glyph glyph-name="uni0394" unicode="&#x394;" horiz-adv-x="1415" 
d="M0 0l553 1452h307l555 -1452h-1415zM707 1145l-316 -883h633z" />
    <glyph glyph-name="uni03A9" unicode="&#x3a9;" horiz-adv-x="1601" 
d="M801 1219q-80 0 -154 -27.5t-133 -78t-94 -130.5t-35 -176q0 -164 100 -276t240 -142v-389h-619v258h367q-162 65 -271.5 214.5t-109.5 352.5q0 148 58 273.5t156 209.5t226 130.5t269 46.5q189 0 349 -79t259.5 -231.5t99.5 -349.5q0 -202 -110 -352t-273 -215h367v-258
h-619v389q67 14 127.5 49t109 87t77.5 125t29 157q0 96 -35 176t-94 130.5t-133 78t-154 27.5z" />
    <glyph glyph-name="uni03BC" unicode="&#x3bc;" horiz-adv-x="1216" 
d="M817 0q-8 40 -8 109q-39 -67 -116 -101.5t-163 -34.5q-60 0 -110 15v-377h-273v1397h273v-582q0 -90 46.5 -146.5t137.5 -56.5q89 0 140 55t51 144v586h272v-826q0 -114 10 -182h-260z" />
    <glyph glyph-name="pi" unicode="&#x3c0;" horiz-adv-x="1306" 
d="M1223 10q-52 -26 -144 -26q-143 0 -217 79t-74 213v498h-272v-774h-272v774h-170v234h1145v-234h-160v-461q0 -51 28 -73.5t72 -22.5q4 0 64 6v-213z" />
    <glyph glyph-name="uni2007" unicode="&#x2007;" horiz-adv-x="1277" 
 />
    <glyph glyph-name="uni2008" unicode="&#x2008;" horiz-adv-x="636" 
 />
    <glyph glyph-name="uni200B" unicode="&#x200b;" horiz-adv-x="0" 
 />
    <glyph glyph-name="endash" unicode="&#x2013;" horiz-adv-x="1310" 
d="M1184 489h-1057v236h1057v-236z" />
    <glyph glyph-name="emdash" unicode="&#x2014;" horiz-adv-x="2220" 
d="M2073 489h-1926v236h1926v-236z" />
    <glyph glyph-name="quoteleft" unicode="&#x2018;" horiz-adv-x="477" 
d="M408 1040q0 -62 -45 -105.5t-115 -43.5q-80 0 -129 56t-49 140q0 79 21 143.5t53.5 105.5t75.5 70t84 42.5t83 17.5v-125q-63 -10 -114 -56.5t-54 -113.5q18 11 43 11q68 0 107 -38.5t39 -103.5z" />
    <glyph glyph-name="quoteright" unicode="&#x2019;" horiz-adv-x="481" 
d="M70 1317q0 61 46 105t117 44q80 0 129.5 -57t49.5 -141q0 -97 -31 -173t-80.5 -119.5t-101.5 -66.5t-105 -28v125q63 10 114 58.5t54 115.5q-18 -11 -43 -11q-68 0 -108.5 41.5t-40.5 106.5z" />
    <glyph glyph-name="quotesinglbase" unicode="&#x201a;" horiz-adv-x="481" 
d="M70 141q0 61 46 104.5t117 43.5q80 0 129.5 -57t49.5 -142q0 -97 -31 -173t-80.5 -119.5t-101.5 -66.5t-105 -28v127q63 8 114 56.5t54 115.5q-17 -10 -43 -10q-68 0 -108.5 41t-40.5 108z" />
    <glyph glyph-name="quotedblleft" unicode="&#x201c;" horiz-adv-x="880" 
d="M408 1040q0 -62 -45 -105.5t-115 -43.5q-80 0 -129 56t-49 140q0 79 21 143.5t53.5 105.5t75.5 70t84 42.5t83 17.5v-125q-63 -10 -114 -56.5t-54 -113.5q18 11 43 11q68 0 107 -38.5t39 -103.5zM811 1040q0 -62 -45 -105.5t-115 -43.5q-80 0 -129 56t-49 140
q0 79 21 143.5t53.5 105.5t76 70t84.5 42.5t83 17.5v-125q-63 -10 -114 -56.5t-54 -113.5q18 11 43 11q68 0 106.5 -38.5t38.5 -103.5z" />
    <glyph glyph-name="quotedblright" unicode="&#x201d;" horiz-adv-x="878" 
d="M70 1317q0 61 46 105t117 44q80 0 129.5 -57t49.5 -141q0 -97 -31 -173t-80.5 -119.5t-101.5 -66.5t-105 -28v125q63 10 114 58.5t54 115.5q-18 -11 -43 -11q-68 0 -108.5 41.5t-40.5 106.5zM471 1317q0 61 46.5 105t117.5 44q80 0 129 -57t49 -141q0 -79 -21 -144
t-53.5 -107.5t-75.5 -72.5t-84.5 -44.5t-82.5 -18.5v125q63 10 114 58.5t54 115.5q-18 -11 -43 -11q-68 0 -109 41.5t-41 106.5z" />
    <glyph glyph-name="quotedblbase" unicode="&#x201e;" horiz-adv-x="878" 
d="M70 143q0 61 46 104.5t117 43.5q80 0 129.5 -57t49.5 -142q0 -97 -31 -173t-80.5 -119.5t-101.5 -66.5t-105 -28v127q63 8 114 56.5t54 115.5q-17 -10 -45 -10q-68 0 -107.5 41t-39.5 108zM467 143q0 61 46.5 104.5t117.5 43.5q80 0 129 -57t49 -142q0 -79 -21 -144
t-53.5 -107.5t-75.5 -72.5t-84.5 -44.5t-82.5 -18.5v127q62 8 113 56.5t54 115.5q-17 -10 -45 -10q-68 0 -107.5 41t-39.5 108z" />
    <glyph glyph-name="dagger" unicode="&#x2020;" horiz-adv-x="845" 
d="M537 334h-228v614h-252v213h252v291h228v-291h251v-213h-251v-614z" />
    <glyph glyph-name="daggerdbl" unicode="&#x2021;" horiz-adv-x="927" 
d="M98 506h252v440h-252v211h252v295h228v-295h251v-211h-251v-440h251v-211h-251v-295h-228v295h-252v211z" />
    <glyph glyph-name="bullet" unicode="&#x2022;" horiz-adv-x="1089" 
d="M119 612q0 177 125.5 302.5t300.5 125.5q177 0 301.5 -125.5t124.5 -302.5q0 -175 -125 -301.5t-301 -126.5q-114 0 -212.5 58t-156 156.5t-57.5 213.5z" />
    <glyph glyph-name="ellipsis" unicode="&#x2026;" horiz-adv-x="1886" 
d="M1733 143q0 -68 -48.5 -115.5t-117.5 -47.5q-68 0 -116 48t-48 115q0 69 48 117.5t116 48.5q69 0 117.5 -48.5t48.5 -117.5zM1108 143q0 -68 -48.5 -115.5t-117.5 -47.5q-68 0 -117 48t-49 115q0 69 49 117.5t117 48.5q69 0 117.5 -48.5t48.5 -117.5zM483 143
q0 -68 -47.5 -115.5t-116.5 -47.5t-117 47.5t-48 115.5q0 69 48 117.5t117 48.5t116.5 -48.5t47.5 -117.5z" />
    <glyph glyph-name="perthousand" unicode="&#x2030;" horiz-adv-x="2220" 
d="M295 1016q0 -64 38.5 -104t96.5 -40q59 0 97 40t38 104q0 61 -38 101t-97 40q-57 0 -96 -40t-39 -101zM90 1016q0 139 100.5 236.5t239.5 97.5t240.5 -98t101.5 -236q0 -142 -101 -238t-241 -96t-240 97t-100 237zM1188 313q0 -64 39 -103.5t98 -39.5t98 40t39 103
q0 62 -39 102t-98 40t-98 -40t-39 -102zM528 0h-237l938 1329h237zM1657 313q0 -63 39.5 -103t97.5 -40q59 0 98 40t39 103q0 62 -39 102t-98 40q-58 0 -97.5 -40t-39.5 -102zM983 313q0 140 101.5 238t240.5 98q149 0 236 -108q87 108 233 108q139 0 241.5 -98t102.5 -238
t-102 -236.5t-242 -96.5q-148 0 -233 106q-86 -106 -238 -106q-139 0 -239.5 97t-100.5 236z" />
    <glyph glyph-name="guilsinglleft" unicode="&#x2039;" horiz-adv-x="628" 
d="M594 207h-258l-281 397l283 404h256l-279 -406z" />
    <glyph glyph-name="guilsinglright" unicode="&#x203a;" horiz-adv-x="628" 
d="M295 207h-258l276 395l-278 406h258l280 -404z" />
    <glyph glyph-name="uni2042" unicode="&#x2042;" horiz-adv-x="1714" 
d="M948 1450v-227l207 69l59 -174l-210 -67l133 -179l-148 -108l-137 180l-131 -180l-148 110l129 177l-208 67l57 174l207 -69v227h190zM524 659v-227l207 70l60 -174l-211 -68l133 -178l-148 -109l-137 181l-131 -181l-147 111l129 176l-209 68l57 174l207 -70v227h190z
M1380 659v-227l207 70l60 -174l-211 -68l133 -178l-148 -109l-137 181l-131 -181l-147 111l129 176l-209 68l57 174l207 -70v227h190z" />
    <glyph glyph-name="fraction" unicode="&#x2044;" horiz-adv-x="1175" 
d="M238 0h-238l938 1329h238z" />
    <glyph glyph-name="uni2051" unicode="&#x2051;" horiz-adv-x="876" 
d="M532 1450v-227l207 69l60 -174l-211 -67l133 -179l-148 -108l-137 180l-131 -180l-147 110l129 177l-209 67l57 174l207 -69v227h190zM532 666v-228l207 70l60 -174l-211 -68l133 -178l-148 -108l-137 180l-131 -180l-147 110l129 176l-209 68l57 174l207 -70v228h190z
" />
    <glyph glyph-name="uni2070" unicode="&#x2070;" horiz-adv-x="888" 
d="M317 1075q0 -44 4.5 -78t17 -68.5t39 -53.5t66.5 -19t67.5 19t40 53.5t17 68.5t4.5 78q0 35 -2.5 63t-10.5 58.5t-21.5 51.5t-37.5 34.5t-57 13.5q-40 0 -66.5 -19t-39 -53.5t-17 -69t-4.5 -79.5zM104 1075q0 169 74 268q92 125 266 125q177 0 269 -125q71 -98 71 -268
q0 -168 -71 -266q-90 -125 -269 -125q-176 0 -266 125q-74 99 -74 266z" />
    <glyph glyph-name="uni2074" unicode="&#x2074;" horiz-adv-x="903" 
d="M104 844v203l347 405h223v-446h125v-162h-125v-146h-205v146h-365zM469 1006v233l-199 -233h199z" />
    <glyph glyph-name="uni2075" unicode="&#x2075;" horiz-adv-x="829" 
d="M104 911l183 47q6 -46 41.5 -74t83.5 -28t78 26.5t30 71.5q0 52 -30.5 78.5t-83.5 26.5q-65 0 -107 -45l-170 51l94 387h455v-170h-332l-31 -129q53 47 146 47q121 0 192.5 -65.5t71.5 -178.5q0 -115 -84 -192.5t-229 -77.5q-122 0 -208 65t-100 160z" />
    <glyph glyph-name="uni2076" unicode="&#x2076;" horiz-adv-x="858" 
d="M723 1432l-37 -158q-67 24 -133 24q-86 0 -152 -42t-88 -126q63 66 174 66q117 0 192 -64t75 -180q0 -119 -91 -195.5t-231 -76.5q-139 0 -233.5 93t-94.5 253q0 201 124 319.5t313 118.5q105 0 182 -32zM322 946q0 -43 33 -71.5t77 -28.5q45 0 78 28.5t33 71.5
q0 46 -32.5 74.5t-78.5 28.5q-45 0 -77.5 -28.5t-32.5 -74.5z" />
    <glyph glyph-name="uni2077" unicode="&#x2077;" horiz-adv-x="837" 
d="M733 1452v-174q-28 -22 -54.5 -47.5t-68 -78.5t-73 -113t-59 -150.5t-36.5 -190.5h-219q8 105 37.5 203.5t66.5 164.5t73 116.5t60 73.5l25 24h-381v172h629z" />
    <glyph glyph-name="uni2078" unicode="&#x2078;" horiz-adv-x="860" 
d="M430 1151q43 0 67.5 23t24.5 57q0 29 -24.5 51.5t-67.5 22.5q-44 0 -69 -22.5t-25 -51.5q0 -34 25 -57t69 -23zM430 844q55 0 84 25.5t29 62.5q0 33 -29.5 57.5t-83.5 24.5q-55 0 -84 -24t-29 -58q0 -37 28.5 -62.5t84.5 -25.5zM430 682q-150 0 -234.5 61.5t-84.5 163.5
q0 61 41 109.5t108 68.5q-60 20 -93.5 66t-33.5 102q0 93 79.5 153t217.5 60q136 0 215.5 -60t79.5 -153q0 -56 -33.5 -102t-93.5 -66q65 -19 108.5 -67.5t43.5 -106.5q0 -103 -84.5 -166t-235.5 -63z" />
    <glyph glyph-name="uni2079" unicode="&#x2079;" horiz-adv-x="856" 
d="M143 715l35 159q74 -24 129 -24q93 0 159 40t85 130q-29 -32 -76.5 -50t-99.5 -18q-112 0 -191.5 65.5t-79.5 178.5q0 121 88.5 196.5t233.5 75.5q139 0 231.5 -93.5t92.5 -254.5q0 -206 -117.5 -322t-302.5 -116q-105 0 -187 33zM530 1202q0 43 -32.5 72t-77.5 29
q-46 0 -78.5 -28.5t-32.5 -72.5q0 -46 32 -75t79 -29q46 0 78 29t32 75z" />
    <glyph glyph-name="uni2080" unicode="&#x2080;" horiz-adv-x="888" 
d="M317 225q0 -44 4.5 -78t17 -68.5t39 -53.5t66.5 -19t67.5 19t40 53.5t17 68.5t4.5 78q0 35 -2.5 63t-10.5 58.5t-21.5 51.5t-37.5 34.5t-57 13.5q-40 0 -66.5 -19t-39 -53.5t-17 -69t-4.5 -79.5zM104 225q0 170 74 269q91 124 266 124q178 0 269 -124q71 -98 71 -269
q0 -168 -71 -266q-90 -125 -269 -125q-176 0 -266 125q-74 99 -74 266z" />
    <glyph glyph-name="uni2081" unicode="&#x2081;" horiz-adv-x="628" 
d="M475 -213h-211v457h-186v135q89 0 144 48.5t67 111.5h186v-752z" />
    <glyph glyph-name="uni2082" unicode="&#x2082;" horiz-adv-x="806" 
d="M305 246l-186 -2q-8 28 -8 59q0 110 77.5 182t217.5 72q133 0 211.5 -72t78.5 -178q0 -133 -161 -229l-144 -86q-24 -14 -24 -31h335v-174h-596v25q0 213 183 321l123 72q77 47 77 104q0 31 -23 55.5t-63 24.5q-48 0 -76 -28t-28 -78q0 -19 6 -37z" />
    <glyph glyph-name="uni2083" unicode="&#x2083;" horiz-adv-x="841" 
d="M104 8l187 43q5 -47 39 -77.5t86 -30.5q50 0 80 25.5t30 64.5q0 46 -31 69t-77 23q-38 0 -66 -12l-67 139l178 121h-330v170h582v-168l-185 -125q94 -12 150.5 -69.5t56.5 -151.5q0 -107 -88 -181.5t-233 -74.5q-131 0 -215 69t-97 166z" />
    <glyph glyph-name="uni2084" unicode="&#x2084;" horiz-adv-x="903" 
d="M104 -68v203l347 406h223v-447h125v-162h-125v-145h-205v145h-365zM469 94v234l-199 -234h199z" />
    <glyph glyph-name="uni2085" unicode="&#x2085;" horiz-adv-x="829" 
d="M104 0l183 47q6 -46 41.5 -74t83.5 -28t78 26.5t30 71.5q0 52 -30.5 78t-83.5 26q-65 0 -107 -45l-170 52l94 387h455v-170h-332l-31 -129q53 47 146 47q121 0 192.5 -65.5t71.5 -178.5q0 -115 -84 -192.5t-229 -77.5q-122 0 -208 65t-100 160z" />
    <glyph glyph-name="uni2086" unicode="&#x2086;" horiz-adv-x="858" 
d="M723 522l-37 -157q-67 24 -133 24q-86 0 -152 -42t-88 -126q63 66 174 66q117 0 192 -64t75 -180q0 -119 -91 -195.5t-231 -76.5q-139 0 -233.5 93t-94.5 253q0 201 124 319.5t313 118.5q103 0 182 -33zM322 37q0 -43 33 -71.5t77 -28.5q45 0 78 28.5t33 71.5
q0 46 -32.5 74t-78.5 28q-45 0 -77.5 -28t-32.5 -74z" />
    <glyph glyph-name="uni2087" unicode="&#x2087;" horiz-adv-x="837" 
d="M733 539v-174q-28 -22 -54.5 -47.5t-68 -78.5t-73 -113t-59 -150.5t-36.5 -190.5h-219q8 105 37.5 203.5t66.5 164.5t73 116.5t60 74.5l25 23h-381v172h629z" />
    <glyph glyph-name="uni2088" unicode="&#x2088;" horiz-adv-x="860" 
d="M430 240q43 0 67.5 22.5t24.5 56.5q0 29 -24.5 51.5t-67.5 22.5q-44 0 -69 -22.5t-25 -51.5q0 -34 25 -56.5t69 -22.5zM430 -68q55 0 84 25.5t29 62.5q0 33 -29.5 57.5t-83.5 24.5q-55 0 -84 -24t-29 -58q0 -37 28.5 -62.5t84.5 -25.5zM430 -229q-150 0 -234.5 61.5
t-84.5 163.5q0 61 41 109.5t108 68.5q-60 20 -93.5 66t-33.5 102q0 93 79.5 153t217.5 60q136 0 215.5 -60t79.5 -153q0 -56 -33.5 -102t-93.5 -66q65 -19 108.5 -67.5t43.5 -106.5q0 -103 -84.5 -166t-235.5 -63z" />
    <glyph glyph-name="uni2089" unicode="&#x2089;" horiz-adv-x="856" 
d="M143 -195l35 160q74 -24 129 -24q93 0 159 40t85 130q-29 -32 -76.5 -50t-99.5 -18q-112 0 -191.5 65.5t-79.5 178.5q0 121 88.5 196.5t233.5 75.5q139 0 231.5 -93.5t92.5 -254.5q0 -206 -117.5 -322t-302.5 -116q-108 0 -187 32zM530 293q0 43 -32.5 71.5t-77.5 28.5
q-47 0 -79 -28t-32 -72q0 -46 32 -75.5t79 -29.5q46 0 78 29.5t32 75.5z" />
    <glyph glyph-name="Euro" unicode="&#x20ac;" horiz-adv-x="1390" 
d="M1231 305l127 -203q-75 -61 -177.5 -98t-219.5 -37q-221 0 -396.5 115.5t-247.5 318.5h-190v193h149q-2 37 -2 65q0 33 2 66h-149v193h190q72 205 249.5 323.5t394.5 118.5q205 0 352 -94l-105 -215q-92 63 -247 63q-109 0 -201.5 -49t-145.5 -147h533l-90 -193h-496
q-4 -29 -4 -68q0 -26 4 -63h443l-89 -193h-294q53 -91 142 -137.5t198 -46.5q164 0 270 88z" />
    <glyph glyph-name="uni2113" unicode="&#x2113;" horiz-adv-x="878" 
d="M59 555q72 16 142 47v414q0 157 87 249.5t224 92.5q141 0 224 -86t83 -240q0 -153 -98.5 -306t-269.5 -263v-76q0 -81 42.5 -120.5t96.5 -39.5q112 0 186 52v-228q-7 -9 -26.5 -21t-72 -26t-116.5 -14q-173 0 -266.5 97.5t-93.5 252.5v10q-80 -25 -142 -35v240zM571 1042
q0 84 -59 84q-61 0 -61 -98v-266q120 124 120 280z" />
    <glyph glyph-name="trademark" unicode="&#x2122;" horiz-adv-x="1794" 
d="M684 1280h-211v-575h-192v575h-213v172h616v-172zM1671 705h-186v454l-182 -454h-140l-184 448v-448h-186v747h262l182 -438l176 438h258v-747z" />
    <glyph glyph-name="Omega" unicode="&#x2126;" horiz-adv-x="1601" 
d="M801 1219q-80 0 -154 -27.5t-133 -78t-94 -130.5t-35 -176q0 -164 100 -276t240 -142v-389h-619v258h367q-162 65 -271.5 214.5t-109.5 352.5q0 148 58 273.5t156 209.5t226 130.5t269 46.5q189 0 349 -79t259.5 -231.5t99.5 -349.5q0 -202 -110 -352t-273 -215h367v-258
h-619v389q67 14 127.5 49t109 87t77.5 125t29 157q0 96 -35 176t-94 130.5t-133 78t-154 27.5z" />
    <glyph glyph-name="uni2160" unicode="&#x2160;" horiz-adv-x="1019" 
d="M926 1329v-239h-275v-850h275v-240h-832v240h277v850h-277v239h832z" />
    <glyph glyph-name="uni2161" unicode="&#x2161;" horiz-adv-x="1609" 
d="M1516 240v-240h-1422v240h281v850h-281v239h1422v-239h-279v-850h279zM956 240v850h-301v-850h301z" />
    <glyph glyph-name="uni2162" unicode="&#x2162;" horiz-adv-x="2170" 
d="M2077 240v-240h-1983v240h281v850h-281v239h1983v-239h-279v-850h279zM1518 240v850h-291v-850h291zM655 1090v-850h291v850h-291z" />
    <glyph glyph-name="uni2163" unicode="&#x2163;" horiz-adv-x="2156" 
d="M2062 240v-240h-1968v240h271v850h-271v239h1968v-239h-221l-274 -850h495zM645 1090v-850h436l-278 850h-158zM1327 340l229 750h-458z" />
    <glyph glyph-name="uni2164" unicode="&#x2164;" horiz-adv-x="1654" 
d="M1561 1329v-239h-218l-274 -850h487v-240h-1458v240h486l-279 850h-211v239h1467zM829 340l230 750h-459z" />
    <glyph glyph-name="uni2165" unicode="&#x2165;" horiz-adv-x="2150" 
d="M2056 240v-240h-1962v240h492l-279 850h-213v239h1962v-239h-268v-850h268zM1350 1090l-277 -850h434v850h-157zM834 340l229 750h-461z" />
    <glyph glyph-name="uni2166" unicode="&#x2166;" horiz-adv-x="2723" 
d="M2630 240v-240h-2536v240h492l-279 850h-213v239h2534v-239h-277v-850h279zM2071 240v850h-285v-850h285zM1348 1090l-277 -850h434v850h-157zM834 340l227 750h-459z" />
    <glyph glyph-name="uni2167" unicode="&#x2167;" horiz-adv-x="3264" 
d="M3170 240v-240h-3076v240h490l-275 850h-215v239h3074v-239h-272v-850h274zM1339 1090l-270 -850h432v850h-162zM1782 1090v-850h276v850h-276zM2339 1090v-850h276v850h-276zM829 340l226 750h-451z" />
    <glyph glyph-name="uni2168" unicode="&#x2168;" horiz-adv-x="2101" 
d="M2007 240v-240h-1913v240h271v850h-271v239h1913v-239h-211l-315 -437l305 -413h221zM1124 657l-315 433h-164v-850h170zM1139 1090l166 -236l165 236h-331zM1298 461l-157 -221h315z" />
    <glyph glyph-name="uni2169" unicode="&#x2169;" horiz-adv-x="1597" 
d="M1503 1329v-239h-211l-315 -437l305 -413h221v-240h-1409v240h217l310 417l-316 433h-211v239h1409zM635 1090l164 -236l166 236h-330zM795 461l-158 -221h313z" />
    <glyph glyph-name="uni216C" unicode="&#x216c;" horiz-adv-x="1347" 
d="M1253 598v-598h-1159v240h240v850h-240v239h783v-239h-263v-850h371v358h268z" />
    <glyph glyph-name="uni216D" unicode="&#x216d;" horiz-adv-x="1507" 
d="M1413 502v-502h-274v123q-133 -154 -373 -154q-137 0 -259.5 50t-214 139t-145 220t-53.5 286q0 154 54 286t145.5 221t213 139t255.5 50q232 0 368 -150v119h273v-491h-273q-8 50 -31.5 95.5t-64 87t-108 66.5t-152.5 25q-62 0 -120.5 -17t-110.5 -53t-91 -87.5
t-62 -126.5t-23 -164q0 -139 57.5 -241.5t149.5 -152t204 -49.5q87 0 156.5 27.5t110.5 72t64 90t30 91.5h274z" />
    <glyph glyph-name="uni216E" unicode="&#x216e;" horiz-adv-x="1521" 
d="M782 1329q290 -3 467.5 -181.5t177.5 -483.5q0 -307 -181 -485.5t-474 -178.5h-678v240h252v850h-252v239h688zM627 240h133q168 2 275.5 111.5t107.5 312.5q0 204 -109 315t-278 111h-129v-850z" />
    <glyph glyph-name="uni216F" unicode="&#x216f;" horiz-adv-x="2152" 
d="M768 240v-240h-674v240h240v850h-240v239h625l354 -887l346 887h639v-239h-239v-850h239v-240h-686v240h170v675l-366 -903h-207l-365 899v-671h164z" />
    <glyph glyph-name="arrowleft" unicode="&#x2190;" horiz-adv-x="2174" 
d="M520 147l-538 461l538 461v-344h1530v-236h-1530v-342z" />
    <glyph glyph-name="arrowup" unicode="&#x2191;" horiz-adv-x="995" 
d="M537 1638l469 -546h-353v-1393h-233v1393h-357z" />
    <glyph glyph-name="arrowright" unicode="&#x2192;" horiz-adv-x="2222" 
d="M2150 608l-602 -481v362h-1497v236h1497v367z" />
    <glyph glyph-name="arrowdown" unicode="&#x2193;" horiz-adv-x="978" 
d="M942 240l-479 -551l-481 551h364v1386h234v-1386h362z" />
    <glyph glyph-name="uni2196" unicode="&#x2196;" horiz-adv-x="1794" 
d="M131 1450h680l-256 -258l1053 -1051l-166 -166l-1053 1051l-258 -260v684z" />
    <glyph glyph-name="uni2197" unicode="&#x2197;" horiz-adv-x="1550" 
d="M684 1450h680v-684l-260 260l-1051 -1051l-166 166l1051 1051z" />
    <glyph glyph-name="uni2198" unicode="&#x2198;" horiz-adv-x="1757" 
d="M1571 2h-680l254 256l-1051 1053l166 166l1051 -1053l260 262v-684z" />
    <glyph glyph-name="uni2199" unicode="&#x2199;" horiz-adv-x="1531" 
d="M754 2h-680v684l258 -262l1052 1053l166 -166l-1052 -1053z" />
    <glyph glyph-name="uni21A9" unicode="&#x21a9;" horiz-adv-x="1763" 
d="M494 102l-539 459l539 463v-346h737q109 0 182.5 59t73.5 152q0 96 -71 153.5t-189 57.5h-400v235h412q216 0 353 -127t137 -319q0 -193 -136.5 -321t-353.5 -128h-745v-338z" />
    <glyph glyph-name="uni21B0" unicode="&#x21b0;" horiz-adv-x="1646" 
d="M616 561l-538 461l538 463v-344h865v-1141h-234v905h-631v-344z" />
    <glyph glyph-name="uni21B1" unicode="&#x21b1;" horiz-adv-x="1533" 
d="M307 0h-235v1141h905v344l539 -463l-539 -461v344h-670v-905z" />
    <glyph glyph-name="uni21B2" unicode="&#x21b2;" horiz-adv-x="1579" 
d="M1184 1452h233v-1141h-905v-344l-539 463l539 461v-344h672v905z" />
    <glyph glyph-name="uni21B3" unicode="&#x21b3;" horiz-adv-x="1742" 
d="M1055 891l538 -461l-538 -463v344h-905v1141h235v-905h670v344z" />
    <glyph glyph-name="uni21B4" unicode="&#x21b4;" horiz-adv-x="1636" 
d="M125 1217v235h1157v-956h344l-457 -527l-460 527h338v721h-922z" />
    <glyph glyph-name="uni21C6" unicode="&#x21c6;" horiz-adv-x="2390" 
d="M2277 332l-538 -459v342h-1551v236h1551v344zM670 680l-539 459l539 463v-349h1548v-235h-1548v-338z" />
    <glyph glyph-name="partialdiff" unicode="&#x2202;" horiz-adv-x="1271" 
d="M516 1229q-146 0 -297 -70l-94 217q180 101 407 101q60 0 118.5 -8.5t125.5 -32t124.5 -59.5t112 -96t93 -137.5t61.5 -188t23 -242.5q0 -161 -36.5 -295.5t-108.5 -236t-187 -158t-262 -56.5q-81 0 -157 20t-142.5 61t-116 99.5t-78 140.5t-28.5 179q0 88 28 165
t76.5 132.5t112.5 96t136 60t146 19.5q228 0 330 -115q-5 106 -37.5 185.5t-85.5 126.5t-119 69.5t-145 22.5zM635 709q-139 0 -212 -71t-73 -183q0 -107 77 -171.5t179 -64.5q81 0 142 35.5t94.5 93t49.5 119.5t17 127q-97 115 -274 115z" />
    <glyph glyph-name="Delta" unicode="&#x2206;" horiz-adv-x="1415" 
d="M0 0l553 1452h307l555 -1452h-1415zM707 1145l-316 -883h633z" />
    <glyph glyph-name="product" unicode="&#x220f;" horiz-adv-x="1404" 
d="M1239 0h-283v1192h-507v-1192h-283v1452h1073v-1452z" />
    <glyph glyph-name="summation" unicode="&#x2211;" horiz-adv-x="1165" 
d="M74 0v256l524 469l-524 471v256h1052v-262h-665l516 -465l-535 -463h684v-262h-1052z" />
    <glyph glyph-name="minus" unicode="&#x2212;" horiz-adv-x="1173" 
d="M1073 494h-973v223h973v-223z" />
    <glyph glyph-name="uni2215" unicode="&#x2215;" horiz-adv-x="909" 
d="M909 1348l-663 -1368h-246l662 1368h247z" />
    <glyph glyph-name="uni2219" unicode="&#x2219;" horiz-adv-x="589" 
d="M125 633q0 73 51 123.5t125 50.5t125 -50.5t51 -123.5t-51 -122.5t-125 -49.5t-125 49.5t-51 122.5z" />
    <glyph glyph-name="radical" unicode="&#x221a;" horiz-adv-x="1427" 
d="M1493 1573h-268l-529 -1573h-241l-389 1100h266l246 -725l466 1425h449v-227z" />
    <glyph glyph-name="infinity" unicode="&#x221e;" horiz-adv-x="1701" 
d="M848 412q-92 -100 -180.5 -148.5t-188.5 -48.5q-170 0 -281.5 108t-111.5 271t111.5 272t281.5 109q200 0 375 -203q187 203 369 203q170 0 281.5 -109t111.5 -272t-111.5 -271t-281.5 -108q-199 0 -375 197zM483 741q-69 0 -111 -42.5t-42 -106.5t42 -106t111 -42
q100 0 219 144q-64 76 -113.5 114.5t-105.5 38.5zM1219 444q69 0 111 42t42 106t-42 106.5t-111 42.5q-56 0 -105.5 -37t-114.5 -112q59 -71 111.5 -109.5t108.5 -38.5z" />
    <glyph glyph-name="integral" unicode="&#x222b;" horiz-adv-x="716" 
d="M223 -35v1110q0 174 101.5 276.5t277.5 102.5h105v-242h-93q-55 0 -86.5 -34.5t-31.5 -98.5v-1110q0 -174 -100.5 -276.5t-274.5 -102.5h-111v240h94q54 0 86.5 36t32.5 99z" />
    <glyph glyph-name="approxequal" unicode="&#x2248;" horiz-adv-x="1216" 
d="M1008 948l143 -121q-55 -98 -142 -151t-190 -53q-111 0 -221 61l-96 53q-60 31 -113 31q-100 0 -176 -98l-147 121q57 99 142 152.5t187 53.5q108 0 221 -61l99 -53q61 -33 114 -33q105 0 179 98zM1008 535l143 -119q-57 -98 -143 -151.5t-187 -53.5q-115 0 -223 61
l-96 54q-54 28 -107 28q-107 0 -182 -96l-147 121q57 99 143 153t188 54q104 0 219 -62l99 -53q61 -33 116 -33q108 0 177 97z" />
    <glyph glyph-name="notequal" unicode="&#x2260;" horiz-adv-x="1234" 
d="M1114 291h-571l-129 -199h-246l129 199h-176v221h321l121 186h-442v220h586l122 188h246l-123 -188h162v-220h-305l-121 -186h426v-221z" />
    <glyph glyph-name="lessequal" unicode="&#x2264;" horiz-adv-x="1116" 
d="M115 313h880v-223h-880v223zM115 647v221l880 279v-225l-571 -160l571 -162v-229z" />
    <glyph glyph-name="greaterequal" unicode="&#x2265;" horiz-adv-x="1116" 
d="M121 313h880v-223h-880v223zM1001 868v-221l-880 -276v225l571 160l-571 162v229z" />
    <glyph glyph-name="dotmath" unicode="&#x22c5;" horiz-adv-x="589" 
d="M125 633q0 73 51 123.5t125 50.5t125 -50.5t51 -123.5t-51 -122.5t-125 -49.5t-125 49.5t-51 122.5z" />
    <glyph glyph-name="uni24C5" unicode="&#x24c5;" horiz-adv-x="1671" 
d="M254 725q0 -165 76.5 -301.5t210 -215.5t293.5 -79t293.5 79t209.5 215.5t76 301.5q0 124 -45 235t-122 190.5t-184.5 126t-227.5 46.5q-161 0 -294 -79t-209.5 -216.5t-76.5 -302.5zM80 725q0 154 59.5 294.5t160.5 242.5t240.5 162.5t293.5 60.5t294 -60.5
t241.5 -162.5t161.5 -242.5t60 -294.5q0 -205 -101.5 -379.5t-276 -276.5t-379.5 -102q-154 0 -294 60.5t-240.5 162t-160 242t-59.5 293.5zM772 758h111q55 0 86.5 29t31.5 79q0 51 -31.5 81t-86.5 30h-111v-219zM918 598h-146v-281h-192v820h338q119 0 199.5 -79
t80.5 -192q0 -111 -80.5 -189.5t-199.5 -78.5z" />
    <glyph glyph-name="filledbox" unicode="&#x25a0;" horiz-adv-x="1859" 
d="M207 0v1452h1446v-1452h-1446z" />
    <glyph glyph-name="H22073" unicode="&#x25a1;" horiz-adv-x="1859" 
d="M1653 0h-1446v1452h1446v-1452zM440 1223v-996h973v996h-973z" />
    <glyph glyph-name="triagup" unicode="&#x25b2;" horiz-adv-x="1716" 
d="M862 1485l854 -1485h-1716z" />
    <glyph glyph-name="uni25B3" unicode="&#x25b3;" horiz-adv-x="1716" 
d="M858 1485l858 -1485h-1716zM1309 229l-451 787l-452 -787h903z" />
    <glyph glyph-name="lozenge" unicode="&#x25ca;" horiz-adv-x="1263" 
d="M369 725l264 -455l262 455l-262 457zM59 725l424 727h297l424 -727l-424 -725h-297z" />
    <glyph glyph-name="circle" unicode="&#x25cb;" horiz-adv-x="1665" 
d="M74 725q0 155 60 295.5t162 242.5t242.5 162t295.5 60t295 -60t241.5 -162t161 -242.5t59.5 -295.5t-59.5 -295.5t-161 -241.5t-241.5 -161t-295 -60t-295.5 60t-242.5 161t-162 241.5t-60 295.5zM309 725q0 -143 70 -264.5t191 -192.5t264 -71q141 0 260.5 71
t188.5 192.5t69 264.5t-69 264.5t-188.5 192.5t-260.5 71q-143 0 -264 -71t-191 -192.5t-70 -264.5z" />
    <glyph glyph-name="H18533" unicode="&#x25cf;" horiz-adv-x="1665" 
d="M74 725q0 155 59.5 295.5t161 242.5t241.5 162t295 60t295.5 -60t242.5 -162t162 -242.5t60 -295.5t-60 -295.5t-162 -241.5t-242.5 -161t-295.5 -60t-295 60t-241.5 161t-161 241.5t-59.5 295.5z" />
    <glyph glyph-name="uni262E" unicode="&#x262e;" horiz-adv-x="1669" 
d="M1589 725q0 -123 -38 -239t-108 -209t-162.5 -163t-208 -108.5t-238.5 -38.5q-154 0 -293.5 60t-240.5 161.5t-160.5 242t-59.5 294.5q0 155 59.5 295.5t160.5 242.5t240.5 162t293.5 60t294 -60t241 -162t160.5 -242.5t59.5 -295.5zM1358 725q0 191 -117.5 337.5
t-296.5 186.5v-397l371 -322q43 94 43 195zM307 725q0 -101 39 -190l369 317v393q-177 -40 -292.5 -185t-115.5 -335zM944 203q140 29 250 133l-250 225v-358zM467 340q102 -102 248 -137v358z" />
    <glyph glyph-name="uni2713" unicode="&#x2713;" horiz-adv-x="1929" 
d="M1896 1321l-1263 -1354l-600 664l170 160l438 -478l1088 1174z" />
    <glyph glyph-name="uni2715" unicode="&#x2715;" horiz-adv-x="1546" 
d="M1343 -10l-573 571l-567 -571l-164 166l567 571l-567 567l166 164l565 -565l561 565l164 -164l-561 -567l573 -571z" />
    <glyph glyph-name="uni2780" unicode="&#x2780;" horiz-adv-x="1683" 
d="M260 725q0 -165 76.5 -301.5t210 -215.5t293.5 -79t293.5 79t209.5 215.5t76 301.5q0 124 -45 235t-122 190.5t-184.5 126t-227.5 46.5q-161 0 -294 -79t-209.5 -216.5t-76.5 -302.5zM86 725q0 154 59.5 294.5t160.5 242.5t240.5 162.5t293.5 60.5t294 -60.5
t241.5 -162.5t161.5 -242.5t60 -294.5q0 -205 -101.5 -379.5t-276 -276.5t-379.5 -102q-154 0 -294 60.5t-240.5 162t-160 242t-59.5 293.5zM983 354h-211v457h-186v135q89 0 144 48.5t67 111.5h186v-752z" />
    <glyph glyph-name="uni2781" unicode="&#x2781;" horiz-adv-x="1683" 
d="M260 725q0 -165 76.5 -301.5t210 -215.5t293.5 -79t293.5 79t209.5 215.5t76 301.5q0 124 -45 235t-122 190.5t-184.5 126t-227.5 46.5q-161 0 -294 -79t-209.5 -216.5t-76.5 -302.5zM86 725q0 154 59.5 294.5t160.5 242.5t240.5 162.5t293.5 60.5t294 -60.5
t241.5 -162.5t161.5 -242.5t60 -294.5q0 -205 -101.5 -379.5t-276 -276.5t-379.5 -102q-154 0 -294 60.5t-240.5 162t-160 242t-59.5 293.5zM733 831l-186 -2q-8 28 -8 60q0 110 77.5 182t217.5 72q133 0 211.5 -72t78.5 -178q0 -133 -161 -229l-144 -86q-24 -14 -24 -31
h335v-174h-595v24q0 105 42.5 184.5t139.5 137.5l123 72q78 47 78 104q0 31 -23.5 55.5t-63.5 24.5q-48 0 -76 -28.5t-28 -78.5q0 -19 6 -37z" />
    <glyph glyph-name="uni2782" unicode="&#x2782;" horiz-adv-x="1683" 
d="M260 725q0 -165 76.5 -301.5t210 -215.5t293.5 -79t293.5 79t209.5 215.5t76 301.5q0 124 -45 235t-122 190.5t-184.5 126t-227.5 46.5q-161 0 -294 -79t-209.5 -216.5t-76.5 -302.5zM86 725q0 154 59.5 294.5t160.5 242.5t240.5 162.5t293.5 60.5t294 -60.5
t241.5 -162.5t161.5 -242.5t60 -294.5q0 -205 -101.5 -379.5t-276 -276.5t-379.5 -102q-154 0 -294 60.5t-240.5 162t-160 242t-59.5 293.5zM518 563l187 43q5 -47 39 -77.5t85 -30.5q50 0 80.5 25.5t30.5 64.5q0 46 -31.5 69t-77.5 23q-37 0 -65 -12l-68 139l179 121h-330
v170h581v-168l-184 -125q94 -12 150.5 -69.5t56.5 -151.5q0 -107 -88.5 -181.5t-233.5 -74.5q-131 0 -214.5 69t-96.5 166z" />
    <glyph glyph-name="uni2783" unicode="&#x2783;" horiz-adv-x="1683" 
d="M260 725q0 -165 76.5 -301.5t210 -215.5t293.5 -79t293.5 79t209.5 215.5t76 301.5q0 124 -45 235t-122 190.5t-184.5 126t-227.5 46.5q-161 0 -294 -79t-209.5 -216.5t-76.5 -302.5zM86 725q0 154 59.5 294.5t160.5 242.5t240.5 162.5t293.5 60.5t294 -60.5
t241.5 -162.5t161.5 -242.5t60 -294.5q0 -205 -101.5 -379.5t-276 -276.5t-379.5 -102q-154 0 -294 60.5t-240.5 162t-160 242t-59.5 293.5zM473 510v203l346 405h223v-446h125v-162h-125v-145h-204v145h-365zM838 672v233l-199 -233h199z" />
    <glyph glyph-name="uni2784" unicode="&#x2784;" horiz-adv-x="1683" 
d="M260 725q0 -165 76.5 -301.5t210 -215.5t293.5 -79t293.5 79t209.5 215.5t76 301.5q0 124 -45 235t-122 190.5t-184.5 126t-227.5 46.5q-161 0 -294 -79t-209.5 -216.5t-76.5 -302.5zM86 725q0 154 59.5 294.5t160.5 242.5t240.5 162.5t293.5 60.5t294 -60.5
t241.5 -162.5t161.5 -242.5t60 -294.5q0 -205 -101.5 -379.5t-276 -276.5t-379.5 -102q-154 0 -294 60.5t-240.5 162t-160 242t-59.5 293.5zM514 551l182 47q6 -46 41.5 -74t83.5 -28t78.5 26.5t30.5 71.5q0 52 -31 78t-84 26q-64 0 -106 -45l-170 52l94 387h454v-170h-331
l-31 -129q53 47 145 47q121 0 193 -65.5t72 -178.5q0 -115 -84 -192.5t-230 -77.5q-122 0 -207.5 65t-99.5 160z" />
    <glyph glyph-name="uni2785" unicode="&#x2785;" horiz-adv-x="1683" 
d="M260 725q0 -165 76.5 -301.5t210 -215.5t293.5 -79t293.5 79t209.5 215.5t76 301.5q0 124 -45 235t-122 190.5t-184.5 126t-227.5 46.5q-161 0 -294 -79t-209.5 -216.5t-76.5 -302.5zM86 725q0 154 59.5 294.5t160.5 242.5t240.5 162.5t293.5 60.5t294 -60.5
t241.5 -162.5t161.5 -242.5t60 -294.5q0 -205 -101.5 -379.5t-276 -276.5t-379.5 -102q-154 0 -294 60.5t-240.5 162t-160 242t-59.5 293.5zM1110 1087l-37 -157q-67 24 -133 24q-86 0 -152 -42t-88 -126q63 66 174 66q117 0 192 -64t75 -180q0 -119 -91 -195.5t-231 -76.5
q-139 0 -233 93t-94 253q0 201 123.5 319.5t312.5 118.5q103 0 182 -33zM709 602q0 -43 33 -71.5t77 -28.5q45 0 78 28.5t33 71.5q0 46 -32.5 74.5t-78.5 28.5q-45 0 -77.5 -28.5t-32.5 -74.5z" />
    <glyph glyph-name="uni2786" unicode="&#x2786;" horiz-adv-x="1683" 
d="M260 725q0 -165 76.5 -301.5t210 -215.5t293.5 -79t293.5 79t209.5 215.5t76 301.5q0 124 -45 235t-122 190.5t-184.5 126t-227.5 46.5q-161 0 -294 -79t-209.5 -216.5t-76.5 -302.5zM86 725q0 154 59.5 294.5t160.5 242.5t240.5 162.5t293.5 60.5t294 -60.5
t241.5 -162.5t161.5 -242.5t60 -294.5q0 -205 -101.5 -379.5t-276 -276.5t-379.5 -102q-154 0 -294 60.5t-240.5 162t-160 242t-59.5 293.5zM1151 1087v-174q-28 -22 -54.5 -47.5t-68 -78.5t-73 -112.5t-59 -150t-36.5 -190.5h-219q8 105 37.5 203.5t66.5 164t73 116
t60 74.5l25 23h-381v172h629z" />
    <glyph glyph-name="uni2787" unicode="&#x2787;" horiz-adv-x="1683" 
d="M260 725q0 -165 76.5 -301.5t210 -215.5t293.5 -79t293.5 79t209.5 215.5t76 301.5q0 124 -45 235t-122 190.5t-184.5 126t-227.5 46.5q-161 0 -294 -79t-209.5 -216.5t-76.5 -302.5zM86 725q0 154 59.5 294.5t160.5 242.5t240.5 162.5t293.5 60.5t294 -60.5
t241.5 -162.5t161.5 -242.5t60 -294.5q0 -205 -101.5 -379.5t-276 -276.5t-379.5 -102q-154 0 -294 60.5t-240.5 162t-160 242t-59.5 293.5zM842 807q43 0 67.5 23t24.5 57q0 29 -24.5 51.5t-67.5 22.5q-44 0 -69 -22.5t-25 -51.5q0 -34 25 -57t69 -23zM842 500
q55 0 83.5 25.5t28.5 62.5q0 34 -29 58t-83 24q-55 0 -84 -24t-29 -58q0 -37 28.5 -62.5t84.5 -25.5zM842 338q-150 0 -235 61.5t-85 163.5q0 61 41.5 109t108.5 69q-60 20 -93.5 66t-33.5 102q0 93 79.5 153t217.5 60q136 0 215.5 -60t79.5 -153q0 -56 -33.5 -102
t-93.5 -66q65 -19 108 -67t43 -107q0 -103 -84 -166t-235 -63z" />
    <glyph glyph-name="uni2788" unicode="&#x2788;" horiz-adv-x="1683" 
d="M260 725q0 -165 76.5 -301.5t210 -215.5t293.5 -79t293.5 79t209.5 215.5t76 301.5q0 124 -45 235t-122 190.5t-184.5 126t-227.5 46.5q-161 0 -294 -79t-209.5 -216.5t-76.5 -302.5zM86 725q0 154 59.5 294.5t160.5 242.5t240.5 162.5t293.5 60.5t294 -60.5
t241.5 -162.5t161.5 -242.5t60 -294.5q0 -205 -101.5 -379.5t-276 -276.5t-379.5 -102q-154 0 -294 60.5t-240.5 162t-160 242t-59.5 293.5zM569 369l35 159q74 -24 129 -24q93 0 159 40t85 130q-29 -32 -76.5 -50t-99.5 -18q-112 0 -191.5 65.5t-79.5 178.5
q0 121 88.5 196.5t233.5 75.5q139 0 231.5 -93.5t92.5 -254.5q0 -206 -117.5 -322t-302.5 -116q-105 0 -187 33zM956 856q0 43 -32.5 71.5t-77.5 28.5q-47 0 -79 -28t-32 -72q0 -46 32 -75t79 -29q46 0 78 29t32 75z" />
    <glyph glyph-name="uniE000" unicode="&#xe000;" horiz-adv-x="1525" 
d="M455 -31l-457 527h344v956h1157v-235h-921v-721h337z" />
    <glyph glyph-name="uni21B5" unicode="&#xe001;" horiz-adv-x="2273" 
d="M514 213l-440 512h313q1 154 61 294.5t161.5 242.5t241.5 162.5t294 60.5q186 0 356 -88l-108 -209q-116 61 -246 61q-143 0 -263.5 -70t-190.5 -191t-70 -263h329zM1896 725q0 -155 -59.5 -295.5t-161 -241.5t-241.5 -161t-295 -60q-185 0 -355 88l107 209
q123 -63 248 -63q106 0 202.5 41.5t166 112t110.5 167t41 203.5h-326l439 514l440 -514h-316z" />
    <glyph glyph-name="uniE002" unicode="&#xe002;" horiz-adv-x="1957" 
d="M1036 725l439 514l440 -514h-309q0 -155 -60 -295.5t-161 -241.5t-241.5 -161t-295.5 -60q-154 0 -294.5 60t-242 161t-161.5 241.5t-60 295.5t60 295.5t161.5 242.5t242 162t294.5 60q166 0 323 -72l-94 -217q-106 53 -227 53q-143 0 -263.5 -70t-190.5 -191t-70 -263
t69.5 -263t190.5 -192t264 -71q106 0 202 42t165 112.5t110 167.5t41 204h-332z" />
    <glyph glyph-name="uniFB00" unicode="&#xfb00;" horiz-adv-x="1392" 
d="M1133 1118v-110h227v-234h-227v-774h-273v774h-389v-774h-274v774h-168v234h168v114q0 171 99.5 273t266.5 102q89 0 135 -20v-230q-35 10 -86 10q-56 0 -98.5 -31.5t-42.5 -107.5v-110h389v114q0 170 100 272.5t267 102.5q89 0 135 -20v-230q-35 10 -86 10
q-34 0 -63.5 -10t-54 -43t-25.5 -86z" />
    <glyph glyph-name="fi" unicode="&#xfb01;" horiz-adv-x="1292" 
d="M874 774h-403v-774h-274v774h-168v234h168v114q0 171 99.5 273t266.5 102q89 0 135 -20v-230q-35 10 -86 10q-56 0 -98.5 -31.5t-42.5 -107.5v-110h674v-1008h-271v774zM842 1339q0 70 49.5 120t118.5 50t118.5 -50t49.5 -120q0 -69 -49.5 -117t-118.5 -48t-118.5 48
t-49.5 117z" />
    <glyph glyph-name="fl" unicode="&#xfb02;" horiz-adv-x="1290" 
d="M612 1257q-56 0 -98.5 -31.5t-42.5 -107.5v-110h401v475h273v-1483h-273v774h-401v-774h-274v774h-168v234h168v114q0 171 99.5 273t266.5 102q89 0 135 -20v-230q-35 10 -86 10z" />
    <glyph glyph-name="uniFB03" unicode="&#xfb03;" horiz-adv-x="1959" 
d="M1509 1339q0 71 48.5 120.5t117.5 49.5q71 0 120.5 -49.5t49.5 -120.5q0 -69 -49.5 -117t-120.5 -48q-69 0 -117.5 48t-48.5 117zM860 1008v118q0 169 99.5 270t265.5 101q89 0 135 -20v-230q-35 10 -86 10q-56 0 -98.5 -31.5t-42.5 -107.5v-110h679v-1008h-272v774h-407
v-774h-273v774h-389v-774h-274v774h-168v234h168v114q0 171 99.5 273t266.5 102q89 0 135 -20v-230q-35 10 -86 10q-56 0 -98.5 -31.5t-42.5 -107.5v-110h389z" />
    <glyph glyph-name="uniFB04" unicode="&#xfb04;" horiz-adv-x="1959" 
d="M860 1122q0 171 99.5 273t265.5 102q89 0 135 -20v-230q-35 10 -86 10q-56 0 -98.5 -31.5t-42.5 -107.5v-110h409v475h273v-1483h-273v774h-409v-774h-273v774h-389v-774h-274v774h-168v234h168v114q0 171 99.5 273t266.5 102q89 0 135 -20v-230q-35 10 -86 10
q-56 0 -98.5 -31.5t-42.5 -107.5v-110h389v114z" />
    <glyph glyph-name="uniFEFF" unicode="&#xfeff;" horiz-adv-x="0" 
 />
    <glyph glyph-name="zero.numr" horiz-adv-x="888" 
d="M317 952q0 -44 4.5 -78t17 -68.5t39 -53.5t66.5 -19t67.5 19t40 53.5t17 68.5t4.5 78t-4.5 78.5t-17 69.5t-40 54.5t-67.5 19.5t-66.5 -19t-39 -54t-17 -69.5t-4.5 -79.5zM104 952q0 170 74 269q92 125 266 125q177 0 269 -125q71 -98 71 -269q0 -168 -71 -266
q-90 -125 -269 -125q-176 0 -266 125q-74 99 -74 266z" />
    <glyph glyph-name="one.numr" horiz-adv-x="641" 
d="M475 578h-211v456h-186v135q89 0 144 48.5t67 111.5h186v-751z" />
    <glyph glyph-name="two.numr" horiz-adv-x="806" 
d="M305 1034l-186 -2q-8 28 -8 60q0 110 77.5 182t217.5 72q133 0 211.5 -72t78.5 -178q0 -134 -161 -230l-144 -86q-24 -14 -24 -30h335v-175h-596v25q0 214 183 322l123 71q77 47 77 105q0 31 -23 55.5t-63 24.5q-48 0 -76 -28.5t-28 -78.5q0 -19 6 -37z" />
    <glyph glyph-name="three.numr" horiz-adv-x="841" 
d="M104 795l187 43q5 -47 39.5 -78t85.5 -31q50 0 80 25.5t30 64.5q0 46 -31 69t-77 23q-38 0 -66 -12l-67 139l178 121h-330v170h582v-168l-185 -125q94 -12 150.5 -69.5t56.5 -151.5q0 -107 -88 -181.5t-233 -74.5q-131 0 -215 69.5t-97 166.5z" />
    <glyph glyph-name="four.numr" horiz-adv-x="903" 
d="M104 721v203l347 405h223v-446h125v-162h-125v-146h-205v146h-365zM469 883v233l-199 -233h199z" />
    <glyph glyph-name="five.numr" horiz-adv-x="808" 
d="M104 788l183 48q6 -46 41.5 -74.5t83.5 -28.5t78 26.5t30 71.5q0 52 -30.5 78.5t-83.5 26.5q-65 0 -107 -45l-170 51l94 387h455v-170h-332l-31 -129q53 47 146 47q121 0 192.5 -65t71.5 -178q0 -115 -84 -193t-229 -78q-122 0 -208 65t-100 160z" />
    <glyph glyph-name="six.numr" horiz-adv-x="858" 
d="M723 1309l-37 -158q-70 25 -133 25q-86 0 -152 -42t-88 -126q62 65 174 65q117 0 192 -64t75 -180q0 -119 -91 -195.5t-231 -76.5q-139 0 -233.5 93t-94.5 253q0 201 124 319.5t313 118.5q105 0 182 -32zM322 823q0 -43 33 -71.5t77 -28.5q45 0 78 28.5t33 71.5
q0 46 -32.5 74.5t-78.5 28.5q-45 0 -77.5 -28.5t-32.5 -74.5z" />
    <glyph glyph-name="seven.numr" horiz-adv-x="837" 
d="M733 1329v-174q-28 -22 -54.5 -47.5t-68 -78.5t-73 -113t-59 -150.5t-36.5 -190.5h-219q8 105 37.5 203.5t66.5 164t73 116.5t60 75l25 23h-381v172h629z" />
    <glyph glyph-name="eight.numr" horiz-adv-x="860" 
d="M430 1028q43 0 67.5 23t24.5 57q0 29 -24.5 51.5t-67.5 22.5q-44 0 -69 -22.5t-25 -51.5q0 -34 25 -57t69 -23zM430 721q55 0 84 25.5t29 62.5q0 33 -29.5 57.5t-83.5 24.5q-55 0 -84 -24t-29 -58q0 -37 28.5 -62.5t84.5 -25.5zM430 559q-150 0 -234.5 61.5t-84.5 163.5
q0 61 41 110t108 69q-60 20 -93.5 65.5t-33.5 101.5q0 93 79.5 153t217.5 60q136 0 215.5 -60t79.5 -153q0 -56 -33.5 -101.5t-93.5 -65.5q65 -19 108.5 -67.5t43.5 -107.5q0 -103 -84.5 -166t-235.5 -63z" />
    <glyph glyph-name="nine.numr" horiz-adv-x="856" 
d="M143 590l35 160q77 -25 129 -25q93 0 159 40t85 130q-29 -32 -76.5 -50t-99.5 -18q-112 0 -191.5 65.5t-79.5 178.5q0 121 88.5 196.5t233.5 75.5q139 0 231.5 -93.5t92.5 -254.5q0 -206 -117.5 -322t-302.5 -116q-105 0 -187 33zM530 1077q0 43 -32.5 72t-77.5 29
q-46 0 -78.5 -28.5t-32.5 -72.5q0 -46 32 -75t79 -29q46 0 78 29t32 75z" />
    <glyph glyph-name="zero.dnom" horiz-adv-x="888" 
d="M317 375q0 -44 4.5 -78t17 -68.5t39 -53.5t66.5 -19t67.5 19t40 53.5t17 68.5t4.5 78q0 35 -2.5 63t-10.5 58.5t-21.5 51.5t-37.5 34.5t-57 13.5q-40 0 -66.5 -19t-39 -53.5t-17 -69t-4.5 -79.5zM104 375q0 169 74 268q92 125 266 125q177 0 269 -125q71 -98 71 -268
q0 -168 -71 -266q-90 -125 -269 -125q-176 0 -266 125q-74 99 -74 266z" />
    <glyph glyph-name="one.dnom" horiz-adv-x="628" 
d="M475 0h-211v457h-186v135q89 0 144 48.5t67 111.5h186v-752z" />
    <glyph glyph-name="two.dnom" horiz-adv-x="806" 
d="M305 459l-186 -2q-8 28 -8 59q0 110 77.5 182t217.5 72q133 0 211.5 -72t78.5 -178q0 -133 -161 -229l-144 -86q-24 -14 -24 -31h335v-174h-596v25q0 213 183 321l123 72q77 47 77 104q0 31 -23 55.5t-63 24.5q-48 0 -76 -28t-28 -78q0 -19 6 -37z" />
    <glyph glyph-name="three.dnom" horiz-adv-x="841" 
d="M104 219l187 43q5 -47 39 -77.5t86 -30.5q50 0 80 25.5t30 64.5q0 46 -31 69t-77 23q-38 0 -66 -12l-67 139l178 121h-330v170h582v-168l-185 -125q94 -12 150.5 -69.5t56.5 -151.5q0 -107 -88 -181.5t-233 -74.5q-131 0 -215 69t-97 166z" />
    <glyph glyph-name="four.dnom" horiz-adv-x="903" 
d="M104 145v203l347 406h223v-447h125v-162h-125v-145h-205v145h-365zM469 307v234l-199 -234h199z" />
    <glyph glyph-name="five.dnom" horiz-adv-x="829" 
d="M104 211l183 47q6 -46 41.5 -74t83.5 -28t78 26.5t30 71.5q0 52 -30.5 78t-83.5 26q-65 0 -107 -45l-170 52l94 387h455v-170h-332l-31 -129q53 47 146 47q121 0 192.5 -65.5t71.5 -178.5q0 -115 -84 -192.5t-229 -77.5q-122 0 -208 65t-100 160z" />
    <glyph glyph-name="six.dnom" horiz-adv-x="858" 
d="M723 735l-37 -157q-67 24 -133 24q-86 0 -152 -42t-88 -126q63 66 174 66q117 0 192 -64t75 -180q0 -119 -91 -195.5t-231 -76.5q-139 0 -233.5 93t-94.5 253q0 201 124 319.5t313 118.5q103 0 182 -33zM322 250q0 -43 33 -71.5t77 -28.5q45 0 78 28.5t33 71.5
q0 46 -32.5 74t-78.5 28q-45 0 -77.5 -28t-32.5 -74z" />
    <glyph glyph-name="seven.dnom" horiz-adv-x="837" 
d="M733 754v-174q-28 -22 -54.5 -47.5t-68 -78.5t-73 -113t-59 -150.5t-36.5 -190.5h-219q8 105 37.5 203.5t66.5 164.5t73 116.5t60 73.5l25 24h-381v172h629z" />
    <glyph glyph-name="eight.dnom" horiz-adv-x="860" 
d="M430 453q43 0 67.5 22.5t24.5 56.5q0 29 -24.5 51.5t-67.5 22.5q-44 0 -69 -22.5t-25 -51.5q0 -34 25 -56.5t69 -22.5zM430 145q55 0 84 25.5t29 62.5q0 33 -29.5 57.5t-83.5 24.5q-55 0 -84 -24t-29 -58q0 -37 28.5 -62.5t84.5 -25.5zM430 -16q-150 0 -234.5 61.5
t-84.5 163.5q0 61 41 109.5t108 68.5q-60 20 -93.5 66t-33.5 102q0 93 79.5 153t217.5 60q136 0 215.5 -60t79.5 -153q0 -56 -33.5 -102t-93.5 -66q65 -19 108.5 -67.5t43.5 -106.5q0 -103 -84.5 -166t-235.5 -63z" />
    <glyph glyph-name="nine.dnom" horiz-adv-x="856" 
d="M143 16l35 160q74 -24 129 -24q93 0 159 40t85 130q-29 -32 -76.5 -50t-99.5 -18q-112 0 -191.5 65.5t-79.5 178.5q0 121 88.5 196.5t233.5 75.5q139 0 231.5 -93.5t92.5 -254.5q0 -206 -117.5 -322t-302.5 -116q-108 0 -187 32zM530 504q0 43 -32.5 71.5t-77.5 28.5
q-47 0 -79 -28t-32 -72q0 -46 32 -75.5t79 -29.5q46 0 78 29.5t32 75.5z" />
    <glyph glyph-name="space.frac" horiz-adv-x="100" 
 />
    <glyph glyph-name="a.ordn" horiz-adv-x="866" 
d="M113 813q0 89 55.5 143.5t155.5 69.5l170 29q51 8 51 49q0 34 -28.5 57t-80.5 23q-57 0 -90.5 -31.5t-36.5 -75.5l-182 37q3 41 23.5 81t57 75.5t96 57.5t132.5 22q160 0 236 -77t76 -196v-348q0 -61 10 -111h-191q-6 30 -6 82q-67 -102 -205 -102q-111 0 -177 63.5
t-66 151.5zM406 750q60 0 99.5 34.5t39.5 114.5v33l-144 -23q-82 -10 -82 -84q0 -30 22.5 -52.5t64.5 -22.5z" />
    <glyph glyph-name="b.ordn" horiz-adv-x="1030" 
d="M371 618h-201v1039h205v-400q25 38 81.5 64.5t127.5 26.5q152 0 240.5 -104.5t88.5 -268.5q0 -162 -94.5 -267.5t-243.5 -105.5q-69 0 -122.5 27.5t-81.5 70.5v-82zM705 975q0 88 -47.5 136t-120.5 48q-69 0 -116.5 -48t-47.5 -136q0 -87 48 -137t116 -50
q71 0 119.5 49.5t48.5 137.5z" />
    <glyph glyph-name="c.ordn" horiz-adv-x="944" 
d="M496 1157q-72 0 -120 -49t-48 -135t49 -135.5t123 -49.5q61 0 99 32.5t52 78.5l185 -57q-27 -101 -115.5 -172.5t-220.5 -71.5q-161 0 -271 106t-110 269q0 164 108 270.5t265 106.5q138 0 224.5 -70.5t114.5 -173.5l-188 -59q-13 48 -49.5 79t-97.5 31z" />
    <glyph glyph-name="d.ordn" horiz-adv-x="1034" 
d="M330 975q0 -87 47.5 -137t118.5 -50q69 0 116 50t47 137t-46.5 135.5t-116.5 48.5q-71 0 -118.5 -48.5t-47.5 -135.5zM862 1657v-912q0 -53 6 -127h-200q-4 32 -4 78q-22 -41 -75 -67.5t-120 -26.5q-151 0 -250.5 105.5t-99.5 267.5q0 159 97 266t247 107
q81 0 128.5 -24.5t65.5 -55.5v389h205z" />
    <glyph glyph-name="e.ordn" horiz-adv-x="927" 
d="M319 1057h295q-2 52 -38 89.5t-109 37.5q-65 0 -105 -39.5t-43 -87.5zM631 872l176 -49q-30 -98 -115.5 -161.5t-212.5 -63.5q-154 0 -261 102.5t-107 276.5q0 110 50.5 196.5t130.5 131.5t173 45q164 0 258 -97.5t94 -269.5q0 -55 -4 -63h-498q4 -63 52 -104.5
t116 -41.5q114 0 148 98z" />
    <glyph glyph-name="f.ordn" horiz-adv-x="702" 
d="M590 1153h-156v-535h-211v535h-114v176h114v68q0 123 72 197.5t197 74.5q67 0 102 -14v-174q-28 8 -66 8q-37 0 -65.5 -21.5t-28.5 -70.5v-68h156v-176z" />
    <glyph glyph-name="g.ordn" horiz-adv-x="956" 
d="M119 578l184 53q12 -55 54.5 -89t105.5 -34q180 0 180 188v37q-25 -35 -74 -59.5t-118 -24.5q-143 0 -237.5 98t-94.5 246q0 144 94 246t238 102q77 0 127.5 -28t68.5 -64v78h201v-625q0 -78 -22 -144t-66 -119t-118 -83t-171 -30q-144 0 -240 74.5t-112 177.5zM487 831
q70 0 114 44t44 118t-46.5 120t-111.5 46q-66 0 -111.5 -45.5t-45.5 -120.5q0 -74 43.5 -118t113.5 -44z" />
    <glyph glyph-name="h.ordn" horiz-adv-x="997" 
d="M379 1036v-418h-209v1039h209v-379q30 35 81 52.5t103 17.5q132 0 200 -79.5t68 -203.5v-447h-208v412q0 58 -31 92.5t-90 34.5q-54 0 -87 -33.5t-36 -87.5z" />
    <glyph glyph-name="i.ordn" horiz-adv-x="583" 
d="M397 618h-209v709h209v-709zM168 1550q0 52 36 88.5t87 36.5q53 0 90 -36.5t37 -88.5q0 -51 -37 -87t-90 -36q-51 0 -87 36t-36 87z" />
    <glyph glyph-name="j.ordn" horiz-adv-x="669" 
d="M283 586v741h209v-764q0 -106 -63.5 -171.5t-168.5 -65.5q-72 0 -117 18v174q28 -8 64 -8q76 0 76 76zM262 1552q0 51 36 88t87 37q52 0 89.5 -37t37.5 -88q0 -52 -37 -88.5t-90 -36.5q-51 0 -87 36.5t-36 88.5z" />
    <glyph glyph-name="k.ordn" horiz-adv-x="948" 
d="M877 1327l-281 -297l285 -412h-254l-176 256l-72 -75v-181h-209v1039h209v-576l225 246h273z" />
    <glyph glyph-name="l.ordn" horiz-adv-x="546" 
d="M379 618h-209v1039h209v-1039z" />
    <glyph glyph-name="m.ordn" horiz-adv-x="1435" 
d="M379 618h-209v709h201v-82q25 48 83.5 76.5t118.5 28.5q152 0 213 -115q73 115 220 115q70 0 127.5 -27t96 -90t38.5 -154v-461h-203v414q0 57 -29 91t-88 34q-58 0 -90.5 -36.5t-32.5 -90.5v-412h-207v414q0 57 -29.5 91t-88.5 34q-56 0 -88.5 -36.5t-32.5 -90.5v-412z
" />
    <glyph glyph-name="n.ordn" horiz-adv-x="997" 
d="M379 1026v-408h-209v709h203v-82q28 50 84 76.5t116 26.5q126 0 192 -79.5t66 -203.5v-447h-208v412q0 58 -31 92.5t-90 34.5q-57 0 -90 -36.5t-33 -94.5z" />
    <glyph glyph-name="o.ordn" horiz-adv-x="987" 
d="M496 788q69 0 117.5 49t48.5 138q0 88 -48.5 136t-117.5 48t-117.5 -48t-48.5 -136q0 -89 48.5 -138t117.5 -49zM496 1350q160 0 267 -106t107 -269q0 -164 -107 -270.5t-267 -106.5q-161 0 -269 106.5t-108 270.5q0 163 108 269t269 106z" />
    <glyph glyph-name="p.ordn" horiz-adv-x="1030" 
d="M379 346h-209v981h201v-76q27 40 83.5 67.5t129.5 27.5q152 0 240.5 -104t88.5 -267q0 -162 -94.5 -267.5t-243.5 -105.5q-68 0 -119 21t-77 55v-332zM707 975q0 86 -47 134t-117 48q-71 0 -119.5 -48t-48.5 -134q0 -87 48.5 -137t119.5 -50q69 0 116.5 50t47.5 137z" />
    <glyph glyph-name="q.ordn" horiz-adv-x="1024" 
d="M864 346h-205v334q-55 -78 -190 -78q-152 0 -251 106t-99 267q0 160 96 265.5t248 105.5q83 0 134 -29t67 -62v72h200v-981zM330 975q0 -87 48 -137t118 -50t118 50t48 137t-48 134.5t-118 47.5q-71 0 -118.5 -47.5t-47.5 -134.5z" />
    <glyph glyph-name="r.ordn" horiz-adv-x="624" 
d="M606 1329v-207q-16 4 -47 4q-40 0 -71 -8t-59 -28.5t-43 -60t-15 -97.5v-314h-209v709h203v-96q25 48 76.5 76t115.5 28q25 0 49 -6z" />
    <glyph glyph-name="s.ordn" horiz-adv-x="817" 
d="M121 819l178 33q2 -40 32 -69t85 -29q42 0 64 17.5t22 45.5q0 48 -72 62l-84 18q-106 25 -157.5 82.5t-51.5 134.5q0 98 77.5 167t193.5 69q73 0 129 -21t87 -54t47 -67t19 -67l-174 -33q-5 37 -30.5 62.5t-75.5 25.5q-33 0 -57.5 -18t-24.5 -45q0 -45 59 -58l96 -20
q105 -21 161 -80.5t56 -138.5q0 -97 -74 -167.5t-208 -70.5q-63 0 -114.5 15.5t-83.5 39t-54.5 54t-32.5 58.5t-12 54z" />
    <glyph glyph-name="t.ordn" horiz-adv-x="669" 
d="M414 1538v-211h139v-182h-139v-277q0 -42 20 -58.5t60 -16.5q31 0 59 4v-172q-38 -19 -113 -19q-109 0 -171 60.5t-62 164.5v314h-127v182h37q53 0 81.5 32.5t28.5 82.5v96h187z" />
    <glyph glyph-name="u.ordn" horiz-adv-x="946" 
d="M588 618q-6 42 -6 74q-28 -45 -80.5 -67.5t-112.5 -22.5q-125 0 -197.5 79.5t-72.5 197.5v448h209v-403q0 -58 30 -94.5t88 -36.5t91.5 35.5t33.5 93.5v405h209v-582q0 -63 6 -127h-198z" />
    <glyph glyph-name="v.ordn" horiz-adv-x="862" 
d="M817 1327l-272 -709h-209l-291 709h227l168 -450l158 450h219z" />
    <glyph glyph-name="w.ordn" horiz-adv-x="1286" 
d="M539 1327h221l143 -430l121 430h207l-221 -709h-207l-160 467l-156 -467h-211l-223 709h219l121 -430z" />
    <glyph glyph-name="x.ordn" horiz-adv-x="868" 
d="M61 618l248 355l-250 354h248q26 -40 129 -194l131 194h234l-244 -346q38 -55 126 -181.5t126 -181.5h-244l-137 205q-18 -26 -67.5 -102.5t-67.5 -102.5h-232z" />
    <glyph glyph-name="y.ordn" horiz-adv-x="886" 
d="M403 344h-219l162 367l-299 616h234l180 -391l162 391h221z" />
    <glyph glyph-name="z.ordn" horiz-adv-x="831" 
d="M713 618h-594v185l319 346h-311v178h580v-172l-332 -356h338v-181z" />
    <glyph glyph-name="space.tf" 
 />
    <glyph glyph-name="numbersign.tf" 
d="M1055 1329l-70 -321h180v-201h-223l-59 -279h180v-198h-223l-70 -330h-217l70 330h-217l-70 -330h-217l69 330h-170v198h213l60 279h-170v201h213l69 321h218l-70 -321h217l70 321h217zM508 807l-59 -279h217l59 279h-217z" />
    <glyph glyph-name="dollar.tf" 
d="M721 -229h-207v217q-101 14 -183 56.5t-133.5 101.5t-81 124.5t-36.5 132.5l252 60q10 -105 80.5 -174.5t201.5 -69.5q98 0 153.5 41.5t55.5 110.5q0 52 -38.5 89t-112.5 54l-187 41q-166 36 -260 136t-94 245q0 157 108.5 267.5t274.5 137.5v218h207v-224
q83 -15 149.5 -51.5t108 -85t67 -99t37.5 -104.5l-249 -69q-5 30 -18.5 59t-39 59.5t-70.5 49t-104 18.5q-93 0 -146 -46t-53 -112q0 -48 35.5 -84.5t104.5 -50.5l184 -43q184 -40 276.5 -143.5t92.5 -245.5q0 -145 -100 -257t-275 -140v-219z" />
    <glyph glyph-name="percent.tf" 
d="M1075 1100v-201l-987 -672v199zM223 1061q0 -52 31.5 -84.5t79.5 -32.5q47 0 78.5 33t31.5 84q0 52 -31 84.5t-79 32.5t-79.5 -32.5t-31.5 -84.5zM45 1061q0 119 85 202t204 83t204 -83t85 -202q0 -120 -85 -201.5t-206 -81.5q-119 0 -203 82t-84 201zM737 268
q0 -52 31.5 -84t79.5 -32t79 32.5t31 83.5q0 52 -31 84.5t-79 32.5t-79.5 -32.5t-31.5 -84.5zM559 268q0 119 85 202t204 83t204 -83t85 -202q0 -120 -85 -201t-206 -81q-119 0 -203 81.5t-84 200.5z" />
    <glyph glyph-name="plus.tf" 
d="M90 715h387v399h230v-399h389v-223h-389v-402h-230v402h-387v223z" />
    <glyph glyph-name="comma.tf" 
d="M373 184q0 82 60 137.5t149 55.5q105 0 166 -74.5t61 -189.5q0 -97 -26 -179.5t-67 -137.5t-95 -95.5t-107.5 -61t-107.5 -26.5v145q82 20 148 89.5t69 158.5q-16 -12 -60 -12q-84 0 -137 53t-53 137z" />
    <glyph glyph-name="period.tf" 
d="M383 193q0 86 61.5 147t147.5 61q88 0 149.5 -61t61.5 -147t-61.5 -147.5t-149.5 -61.5q-86 0 -147.5 61.5t-61.5 147.5z" />
    <glyph glyph-name="zero.tf" 
d="M346 664q0 -51 1.5 -89t7 -87.5t15.5 -85t28.5 -72.5t44 -60.5t63.5 -38t86 -14.5t86 14.5t63.5 38t44 60.5t28.5 72.5t15.5 85t7 87.5t1.5 89t-1.5 89t-7 87.5t-15.5 85t-28.5 72.5t-44 60t-63.5 37.5t-86 14.5t-86 -14.5t-63.5 -37.5t-44 -60t-28.5 -72.5t-15.5 -85
t-7 -87.5t-1.5 -89zM61 664q0 316 107 479q68 102 177 159.5t247 57.5t246.5 -56.5t175.5 -158.5q108 -163 108 -481q0 -321 -108 -484q-68 -101 -176 -157t-246 -56t-246 56t-176 157q-109 165 -109 484z" />
    <glyph glyph-name="one.tf" 
d="M174 240h334v649h-307v190q141 1 231.5 71.5t110.5 178.5h243v-1089h310v-240h-922v240z" />
    <glyph glyph-name="two.tf" 
d="M389 815l-268 8q-10 45 -10 92q0 88 33 168t93 142t153.5 98.5t205.5 36.5q216 0 347.5 -124.5t131.5 -303.5q0 -255 -258 -412l-256 -155q-91 -59 -115 -121h637v-244h-983q2 187 73 326t241 241l219 131q84 50 121 105t37 125q0 77 -53 129.5t-148 52.5
q-102 0 -156.5 -61.5t-54.5 -159.5q0 -36 10 -74z" />
    <glyph glyph-name="three.tf" 
d="M457 590l-125 196l348 299h-582v244h940v-227l-344 -287q158 -6 271.5 -117.5t113.5 -287.5q0 -86 -35 -165.5t-98.5 -141t-161.5 -98t-215 -36.5q-222 0 -361.5 124t-152.5 300l273 53q5 -102 71.5 -167.5t169.5 -65.5t164.5 57.5t61.5 143.5q0 92 -60 144t-157 52
q-63 0 -121 -20z" />
    <glyph glyph-name="four.tf" 
d="M66 285v295l552 749h349v-803h190v-241h-190v-285h-281v285h-620zM686 526v508l-373 -508h373z" />
    <glyph glyph-name="five.tf" 
d="M94 373l264 59q5 -95 72 -159t170 -64q98 0 163.5 59.5t65.5 157.5q0 108 -68 165.5t-167 57.5q-126 0 -205 -90q-26 10 -132.5 46.5t-125.5 41.5l158 682h749v-244h-557l-65 -292q42 39 106.5 60t132.5 21q204 0 329.5 -117.5t125.5 -326.5q0 -93 -35.5 -177
t-99.5 -147.5t-161.5 -101t-213.5 -37.5q-105 0 -198 34t-158 90.5t-104.5 130t-45.5 151.5z" />
    <glyph glyph-name="six.tf" 
d="M1094 1298l-78 -229q-98 45 -225 45q-174 0 -295 -101t-142 -282q39 64 122.5 108t197.5 44q196 0 320 -124t124 -323q0 -134 -67 -241t-183 -166.5t-258 -59.5q-127 0 -230 49.5t-168.5 134.5t-100.5 195t-35 234q0 176 54.5 322t151.5 246t233 155t298 55
q87 0 162 -17.5t119 -44.5zM381 430q0 -99 66.5 -161t160.5 -62q95 0 161.5 61.5t66.5 161.5t-66 160.5t-162 60.5q-95 0 -161 -60.5t-66 -160.5z" />
    <glyph glyph-name="seven.tf" 
d="M1112 1329v-235q-35 -30 -60 -53t-82 -84t-100 -119.5t-99 -152.5t-95 -191t-72 -226.5t-45 -267.5h-293q9 115 32.5 225.5t55.5 200t71 173t80.5 148.5t82 121t76 95t63 67t43.5 42l16 13h-731v244h1057z" />
    <glyph glyph-name="eight.tf" 
d="M592 784q91 1 143.5 51t52.5 123q0 70 -53 119t-143 49q-89 0 -142 -49.5t-53 -118.5q0 -73 52.5 -123t142.5 -51zM592 203q105 0 165 54.5t60 129.5q0 78 -59 133t-166 55q-106 0 -164.5 -55t-58.5 -133q0 -75 59.5 -129.5t163.5 -54.5zM592 -31q-226 0 -364 108
t-138 281q0 107 65 195.5t171 128.5q-96 35 -152.5 119.5t-56.5 177.5q0 167 134 274t341 107t341 -107t134 -274q0 -92 -55.5 -177t-151.5 -120q105 -38 169.5 -127.5t64.5 -196.5q0 -173 -138 -281t-364 -108z" />
    <glyph glyph-name="nine.tf" 
d="M88 43l70 227q39 -22 105.5 -39.5t129.5 -17.5q185 0 297.5 97.5t124.5 277.5q-41 -64 -121.5 -103t-181.5 -39q-188 0 -320.5 124t-132.5 323q0 203 143.5 335t362.5 132q85 0 162.5 -24.5t144 -76t115 -125t76 -177t27.5 -226.5q0 -360 -178 -561t-515 -201
q-84 0 -170 21t-139 53zM778 901q0 96 -65.5 156.5t-157.5 60.5t-156.5 -60.5t-64.5 -156.5q0 -97 64 -157t157 -60t158 60.5t65 156.5z" />
    <glyph glyph-name="colon.tf" 
d="M389 170q0 82 59 140.5t142 58.5t142 -58.5t59 -140.5q0 -83 -59 -141t-142 -58t-142 58t-59 141zM389 840q0 82 59 140t142 58t142 -58t59 -140q0 -83 -59 -141t-142 -58t-142 58t-59 141z" />
    <glyph glyph-name="semicolon.tf" 
d="M391 176q0 77 55 128.5t138 51.5q98 0 155.5 -69t57.5 -176q0 -90 -24 -166.5t-63 -127.5t-89.5 -89t-100.5 -57t-100 -25v137q77 16 138.5 80.5t64.5 148.5q-16 -12 -56 -12q-78 0 -127 49.5t-49 126.5zM391 834q0 82 59 140t142 58t142 -58t59 -140q0 -83 -59 -141
t-142 -58t-142 58t-59 141z" />
    <glyph glyph-name="less.tf" 
d="M147 500v207l881 444v-252l-606 -293l606 -293v-256z" />
    <glyph glyph-name="equal.tf" 
d="M1090 698h-994v220h994v-220zM1090 291h-994v221h994v-221z" />
    <glyph glyph-name="greater.tf" 
d="M1036 707v-205l-880 -445v252l606 293l-606 293v256z" />
    <glyph glyph-name="cent.tf" 
d="M723 0h-209v178q-171 37 -279 168.5t-108 312.5q0 184 108 316t279 168v186h209v-184q142 -23 233 -108t121 -197l-233 -76q-20 68 -72 113t-141 45q-104 0 -174 -70.5t-70 -192.5t71 -192t177 -70q90 0 145.5 47t73.5 109l229 -74q-32 -112 -125 -198t-235 -109v-172z
" />
    <glyph glyph-name="sterling.tf" 
d="M127 768h125q-37 105 -37 195q0 163 117.5 280t310.5 117q191 0 306 -101.5t118 -285.5l-246 -37q0 93 -45 143.5t-129 50.5q-76 0 -122 -46.5t-46 -127.5q0 -78 45 -188h367v-209h-299q2 -14 2 -43q0 -88 -38 -161t-112 -117h269q77 0 122.5 48.5t45.5 123.5l243 -21
q0 -171 -101 -280t-265 -109h-639v227q101 36 159 104t58 156q0 26 -8 72h-201v209z" />
    <glyph glyph-name="currency.tf" 
d="M152 502q0 122 61 221l-147 149l163 164l152 -153q104 55 215 55q116 0 211 -53l149 151l164 -164l-145 -145q63 -101 63 -225q0 -120 -61 -223l143 -146l-164 -164l-147 150q-95 -53 -213 -53q-121 0 -219 55l-148 -152l-163 164l145 148q-59 105 -59 221zM381 502
q0 -94 60.5 -154.5t154.5 -60.5t154.5 60.5t60.5 154.5t-60.5 154.5t-154.5 60.5t-154.5 -60.5t-60.5 -154.5z" />
    <glyph glyph-name="yen.tf" 
d="M1069 276h-342v-276h-266v276h-330v193h330v143h-330v191h197l-301 526h309l264 -502l260 502h297l-299 -526h211v-191h-342v-143h342v-193z" />
    <glyph glyph-name="section.tf" horiz-adv-x="1185" 
d="M1022 518q0 -89 -44.5 -153.5t-113.5 -102.5q77 -55 117.5 -130t40.5 -161q0 -87 -36.5 -161.5t-96.5 -124t-138 -77.5t-161 -28q-196 0 -310 104t-122 277l254 43q0 -95 48 -144.5t132 -49.5q68 0 112 39.5t44 103.5q0 79 -91 127l-206 108q-51 25 -89 48t-77 56t-64 68
t-41 82.5t-16 102.5q0 87 43.5 152t111.5 102q-76 56 -115.5 132.5t-39.5 160.5q0 115 62 206t160 138t212 47q193 0 308.5 -106t121.5 -277l-258 -41q0 94 -47 143t-127 49q-72 0 -116 -40t-44 -103q0 -38 23.5 -71.5t66.5 -53.5l205 -106q66 -35 111.5 -65t90 -73.5
t67 -98.5t22.5 -122zM684 602l-207 109q-65 -52 -65 -115q0 -90 88 -135l207 -111q65 51 65 117q0 88 -88 135z" />
    <glyph glyph-name="logicalnot.tf" 
d="M1065 279h-234v399h-768v225h1002v-624z" />
    <glyph glyph-name="plusminus.tf" 
d="M113 862h364v252h230v-252h364v-221h-364v-252h-230v252h-364v221zM113 313h958v-223h-958v223z" />
    <glyph glyph-name="multiply.tf" 
d="M930 96l-340 344l-338 -342l-162 162l338 344l-338 344l164 162l336 -342l338 342l164 -160l-340 -346l340 -344z" />
    <glyph glyph-name="divide.tf" 
d="M426 981q0 65 47 111.5t113 46.5t112.5 -46.5t46.5 -111.5t-46.5 -112.5t-112.5 -47.5t-113 47.5t-47 112.5zM90 492v227h1002v-227h-1002zM426 229q0 66 47 113t113 47t112.5 -47t46.5 -113q0 -65 -46.5 -112t-112.5 -47t-113 47t-47 112z" />
    <glyph glyph-name="florin.tf" 
d="M328 55l145 721h-201v230h248l39 188q16 82 55 145.5t92 101t112.5 56.5t123.5 19q65 0 99 -5.5t83 -21.5v-236q-69 15 -127 15q-141 0 -172 -154l-22 -108h239v-230h-286l-162 -803q-16 -81 -55 -144.5t-92 -101t-113 -56.5t-123 -19q-66 0 -102.5 6.5t-85.5 22.5v233
q65 -14 133 -14q141 0 172 155z" />
    <glyph glyph-name="uni2007.tf" 
 />
    <glyph glyph-name="uni2008.tf" 
 />
    <glyph glyph-name="perthousand.tf" 
d="M1092 1260v-201l-1002 -719v199zM199 1098q0 -45 28 -75t70 -30q43 0 70.5 29.5t27.5 75.5q0 45 -27.5 73.5t-70.5 28.5q-42 0 -70 -28.5t-28 -73.5zM43 1098q0 104 75.5 178t178.5 74q105 0 180.5 -74t75.5 -178q0 -106 -75 -178t-181 -72q-105 0 -179.5 73t-74.5 177z
M268 231q0 104 75.5 178t180.5 74q103 0 178 -75q75 75 181 75q103 0 179.5 -74t76.5 -178q0 -106 -75.5 -177.5t-180.5 -71.5q-111 0 -181 73q-70 -73 -178 -73q-106 0 -181 72.5t-75 176.5zM883 334q-43 0 -70 -28.5t-27 -74.5t27 -75t70 -29t69.5 29t26.5 75t-26.5 74.5
t-69.5 28.5zM524 334q-43 0 -71.5 -29t-28.5 -74t28.5 -74.5t71.5 -29.5t70 29t27 75t-27 74.5t-70 28.5z" />
    <glyph glyph-name="Euro.tf" 
d="M225 668q0 28 2 57h-135v193h174q48 137 146 238t226 152.5t271 51.5q140 0 248 -43l-67 -232q-78 29 -181 29q-109 0 -201 -49t-145 -147h479l-55 -193h-477q-4 -27 -4 -68q0 -35 4 -63h446l-55 -193h-332q54 -90 144.5 -136t199.5 -46q103 0 181 29l63 -230
q-103 -49 -244 -49q-221 0 -396 114.5t-249 317.5h-176v193h137q-4 31 -4 74z" />
    <glyph glyph-name="minus.tf" 
d="M1077 494h-973v223h973v-223z" />
    <glyph glyph-name="approxequal.tf" 
d="M989 948l146 -121q-57 -98 -143.5 -151t-188.5 -53q-111 0 -221 61l-99 53q-57 31 -110 31q-105 -3 -176 -98l-150 121q58 100 144.5 153t187.5 53q108 0 221 -61l96 -53q58 -30 117 -33q106 0 176 98zM989 535l146 -119q-57 -99 -144 -152t-190 -53q-109 0 -219 61
l-99 54q-52 28 -112 28q-102 0 -174 -96l-150 121q57 98 142.5 151.5t185.5 55.5q107 0 225 -62l96 -53q64 -33 117 -33q107 0 176 97z" />
    <glyph glyph-name="notequal.tf" 
d="M1087 291h-563l-129 -199h-245l129 199h-185v221h330l121 186h-451v220h594l123 188h246l-123 -188h153v-220h-296l-121 -186h417v-221z" />
    <glyph glyph-name="lessequal.tf" 
d="M152 313h880v-223h-880v223zM152 647v221l880 279v-225l-571 -160l571 -162v-229z" />
    <glyph glyph-name="greaterequal.tf" 
d="M152 313h880v-223h-880v223zM1032 868v-221l-880 -276v225l571 160l-571 162v229z" />
    <glyph glyph-name="parenleft.case" horiz-adv-x="645" 
d="M88 725q0 550 397 954l160 -137q-166 -191 -248 -380.5t-82 -436.5q0 -248 82 -438t248 -381l-160 -135q-87 89 -154.5 183t-124.5 211t-87.5 259t-30.5 301z" />
    <glyph glyph-name="parenright.case" horiz-adv-x="645" 
d="M557 725q0 -159 -30.5 -301t-87.5 -259t-124.5 -211t-154.5 -183l-160 135q166 191 248 381t82 438q0 247 -82 436.5t-248 380.5l160 137q397 -404 397 -954z" />
    <glyph glyph-name="hyphen.case" horiz-adv-x="778" 
d="M686 590h-594v241h594v-241z" />
    <glyph glyph-name="bracketleft.case" horiz-adv-x="649" 
d="M639 -223h-473v1894h473v-207h-246v-1476h246v-211z" />
    <glyph glyph-name="bracketright.case" horiz-adv-x="649" 
d="M483 -223h-473v211h244v1476h-244v207h473v-1894z" />
    <glyph glyph-name="braceleft.case" horiz-adv-x="768" 
d="M92 612v228q94 0 149.5 45.5t55.5 144.5v246q0 197 104 296t293 99h64v-207h-62q-170 0 -170 -182v-297q0 -98 -54.5 -165.5t-152.5 -92.5q98 -26 152.5 -93.5t54.5 -164.5v-299q0 -182 170 -182h62v-207h-64q-189 0 -293 99.5t-104 295.5v246q0 99 -55.5 144.5
t-149.5 45.5z" />
    <glyph glyph-name="braceright.case" horiz-adv-x="768" 
d="M676 840v-228q-95 0 -151 -45.5t-56 -144.5v-246q0 -196 -104 -295.5t-291 -99.5h-64v207h60q172 0 172 182v299q0 97 53.5 164.5t150.5 93.5q-98 25 -151 92t-53 166v297q0 182 -172 182h-60v207h64q188 0 291.5 -99t103.5 -296v-246q0 -99 56 -144.5t151 -45.5z" />
    <glyph glyph-name="exclamdown.case" horiz-adv-x="647" 
d="M424 1010l63 -1010h-327l65 1010h199zM162 1307q0 66 47.5 113.5t114.5 47.5q66 0 113.5 -47.5t47.5 -113.5q0 -67 -47.5 -115.5t-113.5 -48.5q-67 0 -114.5 48t-47.5 116z" />
    <glyph glyph-name="guillemotleft.case" horiz-adv-x="1073" 
d="M594 309h-258l-281 398l283 403h256l-279 -405zM1036 309h-258l-278 398l280 403h258l-280 -405z" />
    <glyph glyph-name="uni00AD.case" horiz-adv-x="778" 
d="M686 604h-594v242h594v-242z" />
    <glyph glyph-name="guillemotright.case" horiz-adv-x="1073" 
d="M737 309h-258l279 396l-279 405h256l283 -403zM295 309h-258l276 396l-278 405h256l282 -403z" />
    <glyph glyph-name="questiondown.case" horiz-adv-x="1058" 
d="M446 1012h222q6 -41 6 -84q0 -185 -158 -299l-98 -72q-86 -63 -86 -162q0 -76 53 -129t150 -53q101 0 155.5 63.5t54.5 153.5q0 49 -12 84l262 -25q11 -53 11 -90q0 -84 -31.5 -160.5t-89 -137t-148.5 -96.5t-202 -36q-115 0 -208.5 34.5t-152 92.5t-90 130.5
t-31.5 150.5q0 224 199 364l84 60q110 77 110 198v13zM391 1307q0 67 48 114t116 47t115 -47t47 -114t-47.5 -114.5t-114.5 -47.5q-68 0 -116 47.5t-48 114.5z" />
    <glyph glyph-name="endash.case" horiz-adv-x="1294" 
d="M1176 592h-1057v235h1057v-235z" />
    <glyph glyph-name="emdash.case" horiz-adv-x="2203" 
d="M2064 592h-1925v235h1925v-235z" />
    <glyph glyph-name="guilsinglleft.case" horiz-adv-x="628" 
d="M594 309h-258l-281 398l283 403h256l-279 -405z" />
    <glyph glyph-name="guilsinglright.case" horiz-adv-x="628" 
d="M295 309h-258l276 396l-278 405h258l280 -403z" />
    <glyph glyph-name="G.ss01" horiz-adv-x="1585" 
d="M829 -31q-152 0 -289 54.5t-239 151t-161.5 239.5t-59.5 311q0 135 39 255t109 210.5t162.5 157t203.5 101t229 34.5q114 0 214 -27t174 -72t132 -106t94.5 -127.5t55.5 -138.5l-276 -78q-13 53 -41.5 101.5t-74.5 91.5t-118 68.5t-160 25.5q-69 0 -133 -18t-123 -57.5
t-102.5 -96t-69.5 -140t-26 -184.5q0 -119 37 -214.5t101 -156t146.5 -93t175.5 -32.5q148 0 255 74t130 199h-512v246h807q7 -38 7 -105q-2 -139 -49.5 -261.5t-134 -214.5t-216.5 -145t-287 -53z" />
    <glyph glyph-name="a.ss02" horiz-adv-x="1253" 
d="M344 508q0 -135 70.5 -218t181.5 -83q108 0 178 82.5t70 218.5q0 135 -69 214t-179 79q-111 0 -181.5 -79t-70.5 -214zM846 125v12q-33 -74 -108.5 -120t-174.5 -46q-146 0 -259 70.5t-173.5 192.5t-60.5 274q0 147 59.5 267t171 190.5t254.5 70.5q64 0 117 -15.5
t86.5 -40t54 -49t31.5 -48.5v125h264v-826q0 -90 8 -182h-260q-10 58 -10 125z" />
    <glyph glyph-name="agrave.ss02" horiz-adv-x="1253" 
d="M344 508q0 -135 70.5 -218t181.5 -83q108 0 178 82.5t70 218.5q0 135 -69 214t-179 79q-111 0 -181.5 -79t-70.5 -214zM846 125v12q-33 -74 -108.5 -120t-174.5 -46q-146 0 -259 70.5t-173.5 192.5t-60.5 274q0 147 59.5 267t171 190.5t254.5 70.5q64 0 117 -15.5
t86.5 -40t54 -49t31.5 -48.5v125h264v-826q0 -90 8 -182h-260q-10 58 -10 125zM520 1128l-278 308h315l184 -308h-221z" />
    <glyph glyph-name="aacute.ss02" horiz-adv-x="1253" 
d="M926 1436l-279 -308h-219l186 308h312zM344 508q0 -135 70.5 -218t181.5 -83q108 0 178 82.5t70 218.5q0 135 -69 214t-179 79q-111 0 -181.5 -79t-70.5 -214zM846 125v12q-33 -74 -108.5 -120t-174.5 -46q-146 0 -259 70.5t-173.5 192.5t-60.5 274q0 147 59.5 267
t171 190.5t254.5 70.5q64 0 117 -15.5t86.5 -40t54 -49t31.5 -48.5v125h264v-826q0 -90 8 -182h-260q-10 58 -10 125z" />
    <glyph glyph-name="acircumflex.ss02" horiz-adv-x="1253" 
d="M465 1130h-213l225 302h271l225 -302h-219l-146 154zM344 508q0 -135 70.5 -218t181.5 -83q108 0 178 82.5t70 218.5q0 135 -69 214t-179 79q-111 0 -181.5 -79t-70.5 -214zM846 125v12q-33 -74 -108.5 -120t-174.5 -46q-146 0 -259 70.5t-173.5 192.5t-60.5 274
q0 147 59.5 267t171 190.5t254.5 70.5q64 0 117 -15.5t86.5 -40t54 -49t31.5 -48.5v125h264v-826q0 -90 8 -182h-260q-10 58 -10 125z" />
    <glyph glyph-name="atilde.ss02" horiz-adv-x="1253" 
d="M344 508q0 -135 70.5 -218t181.5 -83q108 0 178 82.5t70 218.5q0 135 -69 214t-179 79q-111 0 -181.5 -79t-70.5 -214zM846 125v12q-33 -74 -108.5 -120t-174.5 -46q-146 0 -259 70.5t-173.5 192.5t-60.5 274q0 147 59.5 267t171 190.5t254.5 70.5q64 0 117 -15.5
t86.5 -40t54 -49t31.5 -48.5v125h264v-826q0 -90 8 -182h-260q-10 58 -10 125zM973 1425v-36q0 -123 -60 -187.5t-159 -64.5q-81 0 -146 45l-12 8q-4 2 -18.5 12t-22 13.5t-23 7.5t-32.5 4q-69 0 -72 -88h-168v43q0 120 62.5 184t160.5 64q62 0 148 -46l12 -8q68 -39 98 -39
q68 0 68 88h164z" />
    <glyph glyph-name="adieresis.ss02" horiz-adv-x="1253" 
d="M248 1286q0 60 41.5 103t101.5 43t103 -43t43 -103t-43 -101.5t-103 -41.5t-101.5 41.5t-41.5 101.5zM678 1286q0 61 41 103.5t102 42.5q60 0 103 -43t43 -103t-43 -101.5t-103 -41.5q-61 0 -102 41.5t-41 101.5zM344 508q0 -135 70.5 -218t181.5 -83q108 0 178 82.5
t70 218.5q0 135 -69 214t-179 79q-111 0 -181.5 -79t-70.5 -214zM846 125v12q-33 -74 -108.5 -120t-174.5 -46q-146 0 -259 70.5t-173.5 192.5t-60.5 274q0 147 59.5 267t171 190.5t254.5 70.5q64 0 117 -15.5t86.5 -40t54 -49t31.5 -48.5v125h264v-826q0 -90 8 -182h-260
q-10 58 -10 125z" />
    <glyph glyph-name="aring.ss02" horiz-adv-x="1253" 
d="M827 1327q0 -96 -69.5 -160.5t-165.5 -64.5t-166 64.5t-70 160.5q0 98 70 163.5t166 65.5t165.5 -65.5t69.5 -163.5zM674 1327q0 38 -24 62t-60 24t-59 -24t-23 -62q0 -37 23.5 -60.5t58.5 -23.5q36 0 60 24t24 60zM344 508q0 -135 70.5 -218t181.5 -83q108 0 178 82.5
t70 218.5q0 135 -69 214t-179 79q-111 0 -181.5 -79t-70.5 -214zM846 125v12q-33 -74 -108.5 -120t-174.5 -46q-146 0 -259 70.5t-173.5 192.5t-60.5 274q0 147 59.5 267t171 190.5t254.5 70.5q64 0 117 -15.5t86.5 -40t54 -49t31.5 -48.5v125h264v-826q0 -90 8 -182h-260
q-10 58 -10 125z" />
    <glyph glyph-name="r.ss03" horiz-adv-x="813" 
d="M418 1008v-162q3 74 55 125t127 51q76 0 129 -53t53 -129q0 -77 -53 -130t-129 -53q-75 0 -127 50t-55 124v-831h-273v1008h273z" />
    <glyph glyph-name="ampersand.ss04" horiz-adv-x="1447" 
d="M788 477v234h592v-234h-149v-8q-3 -102 -41.5 -192t-108 -159t-175.5 -109t-236 -40q-253 0 -404 124t-151 317q0 143 88 244.5t209 133.5q-98 33 -161 117.5t-63 192.5q0 165 128.5 275t326.5 110q97 0 176 -22.5t132.5 -60t91 -89.5t55.5 -109t22 -121l-270 -32
q-3 93 -55 147.5t-150 54.5q-73 0 -127.5 -45.5t-54.5 -118.5q0 -59 32 -101.5t73 -59.5t83 -17h23v-233q-49 0 -95 -13.5t-87 -40.5t-66 -75.5t-25 -112.5q0 -92 71 -158.5t204 -66.5q123 0 195.5 68.5t76.5 191.5v8h-160z" />
    <glyph glyph-name="one.ss05" horiz-adv-x="997" 
d="M80 240h311v649h-307v190q141 1 232 71t112 179h244v-1089h303v-240h-895v240z" />
    <glyph glyph-name="registered.ss06" horiz-adv-x="878" 
d="M47 1077q0 161 115 276t276 115t277 -115t116 -276t-116 -276t-277 -115t-276 115t-115 276zM156 1077q0 -122 81 -205.5t201 -83.5t202.5 83.5t82.5 205.5t-82.5 205.5t-202.5 83.5t-201 -83.5t-81 -205.5zM487 883l-57 133h-24v-133h-113v401h172q60 0 100.5 -39
t40.5 -96q0 -38 -19 -68t-52 -45l73 -153h-121zM406 1108h32q51 0 51 41t-51 41h-32v-82z" />
    <glyph glyph-name="caron.alt" horiz-adv-x="436" 
d="M383 1452l-147 -405h-183l60 405h270z" />
    <glyph glyph-name="commaaccent" horiz-adv-x="423" 
d="M53 1403q0 56 43 93.5t107 37.5q70 0 118 -49.5t48 -126.5q0 -62 -19.5 -110t-49 -75.5t-69.5 -45t-76.5 -23.5t-74.5 -6v96q71 0 115.5 26.5t50.5 67.5q-42 -14 -60 -14q-62 0 -97.5 36t-35.5 93z" />
    <glyph glyph-name="commaturn" horiz-adv-x="380" 
d="M350 1239q0 -57 -42 -94t-107 -37q-71 0 -118.5 49.5t-47.5 126.5q0 69 27.5 122t72 81.5t92.5 42.5t97 14v-98q-72 0 -116.5 -27.5t-49.5 -66.5q1 1 8 4.5t21 6.5t28 3q63 0 99 -35.5t36 -91.5z" />
    <glyph glyph-name="dieresis.narrow" horiz-adv-x="679" 
d="M31 1288q0 58 39.5 97.5t99.5 39.5q57 0 97 -40t40 -97q0 -60 -39.5 -99.5t-97.5 -39.5q-60 0 -99.5 39.5t-39.5 99.5zM375 1288q0 57 39 97t96 40q58 0 98.5 -40t40.5 -97q0 -60 -40 -99.5t-99 -39.5q-57 0 -96 39.5t-39 99.5z" />
    <glyph glyph-name="dieresis.uc.narrow" horiz-adv-x="722" 
d="M33 1686q0 60 39.5 100.5t99.5 40.5t101.5 -40.5t41.5 -100.5t-41.5 -101t-101.5 -41t-99.5 41t-39.5 101zM410 1686q0 60 39.5 100.5t99.5 40.5t100.5 -40.5t40.5 -100.5t-40.5 -101t-100.5 -41t-99.5 41t-39.5 101z" />
    <glyph glyph-name="grave.uc" horiz-adv-x="598" 
d="M317 1554l-297 261h334l213 -261h-250z" />
    <glyph glyph-name="dieresis.uc" horiz-adv-x="909" 
d="M43 1686q0 62 41.5 104.5t103.5 42.5q63 0 106.5 -42.5t43.5 -104.5q0 -63 -43.5 -105.5t-106.5 -42.5t-104 42.5t-41 105.5zM571 1686q0 62 42.5 104.5t105.5 42.5t106 -42.5t43 -104.5q0 -63 -43 -105.5t-106 -42.5t-105.5 42.5t-42.5 105.5z" />
    <glyph glyph-name="macron.uc" horiz-adv-x="690" 
d="M657 1585h-624v205h624v-205z" />
    <glyph glyph-name="acute.uc" horiz-adv-x="598" 
d="M578 1815l-297 -261h-250l211 261h336z" />
    <glyph glyph-name="circumflex.uc" horiz-adv-x="841" 
d="M287 1554h-248l246 261h278l250 -261h-256l-137 134z" />
    <glyph glyph-name="caron.uc" horiz-adv-x="841" 
d="M39 1815h254l135 -132l137 132h248l-250 -261h-278z" />
    <glyph glyph-name="breve.uc" horiz-adv-x="753" 
d="M377 1542q-80 0 -145 24.5t-104.5 64.5t-61 88.5t-23.5 99.5h209q2 -45 33.5 -75t91.5 -30t91.5 30t33.5 75h209q-2 -51 -23.5 -99.5t-61 -88.5t-104.5 -64.5t-145 -24.5z" />
    <glyph glyph-name="dotaccent.uc" horiz-adv-x="395" 
d="M33 1706q0 69 48 116.5t116 47.5q69 0 117 -47.5t48 -116.5q0 -68 -48 -115t-117 -47q-68 0 -116 47.5t-48 114.5z" />
    <glyph glyph-name="ring.uc" horiz-adv-x="602" 
d="M569 1782q0 -112 -79 -186t-189 -74q-109 0 -188.5 74.5t-79.5 185.5t79.5 185.5t188.5 74.5q110 0 189 -74t79 -186zM397 1782q0 43 -27.5 69.5t-68.5 26.5q-42 0 -70 -26.5t-28 -69.5q0 -44 28 -71.5t70 -27.5q41 0 68.5 27.5t27.5 71.5z" />
    <glyph glyph-name="tilde.uc" horiz-adv-x="761" 
d="M729 1823v-58q0 -108 -59 -166.5t-148 -58.5q-79 0 -153 49l-13 8q-66 41 -98 41q-59 0 -59 -88h-164v56q0 108 59 165.5t148 57.5q74 0 155 -47l13 -8q9 -4 26 -13t26 -13.5t21.5 -8.5t22.5 -4q27 0 43 15.5t16 47.5v25h164z" />
    <glyph glyph-name="hungarumlaut.uc" horiz-adv-x="784" 
d="M401 1815l-192 -261h-176l108 261h260zM752 1815l-222 -261h-180l137 261h265z" />
    <glyph glyph-name="caron.alt.uc" horiz-adv-x="434" 
d="M399 1452l-153 -426h-193l64 426h282z" />
    <glyph glyph-name="undercommaaccent" horiz-adv-x="382" 
d="M33 -209q0 56 42.5 93.5t106.5 37.5q70 0 118 -50t48 -128q0 -61 -18.5 -108t-48 -75t-69 -46t-76.5 -24.5t-77 -6.5v98q71 0 115.5 27.5t50.5 68.5q-28 -14 -59 -14q-62 0 -97.5 35t-35.5 92z" />
    </font>
</defs>
</svg>
