<?xml version="1.0" standalone="no"?>
<!DOCTYPE svg PUBLIC "-//W3C//DTD SVG 1.1//EN" "http://www.w3.org/Graphics/SVG/1.1/DTD/svg11.dtd" >
<svg>
<metadata>
Created by FontForge 20090622 at Sat Aug 26 09:11:43 2017
 By deploy user
Copyright &#194;&#169; 2017 by Kastelov. All rights reserved.
</metadata>
<defs>
<font id="Axiforma-Black" horiz-adv-x="638" >
  <font-face 
    font-family="Axiforma Black"
    font-weight="900"
    font-stretch="normal"
    units-per-em="1000"
    panose-1="0 0 9 0 0 0 0 0 0 0"
    ascent="774"
    descent="-226"
    x-height="551"
    cap-height="739"
    bbox="-492 -378 1305 1076"
    underline-thickness="50"
    underline-position="-50"
    unicode-range="U+000D-U+25CA"
  />
<missing-glyph horiz-adv-x="130" 
 />
    <glyph glyph-name="f_b" unicode="fb" horiz-adv-x="1149" 
d="M364 642q-37 0 -59 -21.5t-22 -59.5v-9h170v-146h-170v-406h-176v406h-78v146h78q1 120 57 180.5t161 60.5q88 0 162 -41l-37 -135q-47 25 -86 25zM843 566q118 0 196 -82q79 -82 79 -208t-78 -208t-196 -82q-95 0 -156 64v-50h-170v763h176v-254q60 57 149 57zM812 148
q54 0 90 37t36 92q0 53 -36 90q-35 38 -90 38q-54 0 -90 -38q-35 -38 -35 -90q0 -55 35.5 -92t89.5 -37z" />
    <glyph glyph-name="f_f" unicode="ff" horiz-adv-x="895" 
d="M804 642q-42 0 -65 -21.5t-23 -60.5v-8h168v-146h-168v-406h-176v406h-257v-406h-175v406h-79v146h79v10q0 114 68 173.5t185 57.5q94 -2 175 -44l-54 -134q-54 27 -96 27q-46 0 -74.5 -21.5t-28.5 -59.5v-9h257v10q0 111 64.5 171t173.5 60q80 0 173 -48l-59 -130
q-56 27 -88 27z" />
    <glyph glyph-name="f_f_i" unicode="ffi" horiz-adv-x="1201" 
d="M1058 603q-44 0 -73 28.5t-29 72.5q0 43 29.5 71.5t72.5 28.5t72 -28.5t29 -71.5q0 -44 -29 -72.5t-72 -28.5zM717 561v-9h185v-146h-185v-406h-177v406h-257v-406h-176v406h-78v146h78v10q0 115 70 173t180 58q86 0 182 -44l-54 -135q-66 28 -104 28q-44 0 -71 -22
t-27 -60v-8h257q1 119 60.5 180t166.5 61q88 0 162 -41l-46 -135q-71 36 -118.5 19.5t-47.5 -75.5zM1146 0h-177v552h177v-552z" />
    <glyph glyph-name="f_f_j" unicode="ffj" horiz-adv-x="1200" 
d="M1057 603q-44 0 -73 28.5t-29 72.5q0 43 29.5 71.5t72.5 28.5t72.5 -28.5t29.5 -71.5q0 -44 -29.5 -72.5t-72.5 -28.5zM895 552v-146h-179v-406h-176v406h-257v-406h-176v406h-78v146h78v10q0 114 69 173q70 58 180 58q94 0 176 -44l-48 -135q-57 28 -102 28
q-44 0 -71.5 -22t-27.5 -60v-8h257q1 119 60.5 180t165.5 61q88 0 162 -41l-46 -135q-46 25 -85 25q-37 0 -59 -21.5t-22 -59.5v-9h179zM968 23v529h177v-547q0 -121 -66 -180q-65 -60 -168 -60q-99 0 -148 33l32 137q51 -17 83 -17q90 0 90 105z" />
    <glyph glyph-name="f_h" unicode="fh" horiz-adv-x="1126" 
d="M364 642q-37 0 -59 -21.5t-22 -59.5v-9h170v-146h-170v-406h-176v406h-78v146h78q1 120 57.5 180.5t161.5 60.5q88 0 162 -41l-38 -135q-47 25 -86 25zM863 567q89 0 151 -59t62 -169v-339h-177v292q0 54 -26 84t-71 30q-48 0 -78 -32.5t-30 -85.5v-288h-176v763h172
v-286q21 38 68 64t105 26z" />
    <glyph glyph-name="f_i" unicode="fi" horiz-adv-x="768" 
d="M624 602q-43 0 -72.5 29t-29.5 72q0 42 30 71.5t72 29.5q44 0 73 -29t29 -72t-29 -72t-73 -29zM364 642q-37 0 -59 -21.5t-22 -59.5v-9h170v-146h-170v-406h-176v406h-78v146h78q1 119 60.5 180t165.5 61q88 0 162 -41l-45 -135q-47 25 -86 25zM712 0h-177v552h177v-552z
" />
    <glyph glyph-name="f_j" unicode="fj" horiz-adv-x="768" 
d="M624 602q-43 0 -72.5 29t-29.5 72q0 42 30 71.5t72 29.5q44 0 73 -29t29 -72t-29 -72t-73 -29zM460 552v-146h-177v-406h-176v406h-78v146h78q1 119 60.5 180t165.5 61q88 0 162 -41l-45 -135q-47 25 -86 25q-37 0 -59 -21.5t-22 -59.5v-9h177zM535 23v529h177v-547
q0 -121 -66 -180q-64 -60 -168 -60q-97 0 -148 33l33 137q49 -17 82 -17q90 0 90 105z" />
    <glyph glyph-name="f_k" unicode="fk" horiz-adv-x="1076" 
d="M364 642q-37 0 -59 -21.5t-22 -59.5v-9h170v-146h-170v-406h-176v406h-78v146h78q3 241 216 241q87 0 164 -41l-37 -135q-47 25 -86 25zM1093 0h-210l-163 219l-26 -24v-195h-176v763h176v-371l166 160h215l-237 -222z" />
    <glyph glyph-name="f_l" unicode="fl" horiz-adv-x="750" 
d="M364 642q-37 0 -59 -21.5t-22 -59.5v-9h170v-146h-170v-406h-176v406h-78v146h78q3 241 222 241q83 0 157 -41l-36 -135q-47 25 -86 25zM518 0v763h176v-763h-176z" />
    <glyph glyph-name=".notdef" horiz-adv-x="130" 
 />
    <glyph glyph-name=".null" horiz-adv-x="0" 
 />
    <glyph glyph-name="nonmarkingreturn" horiz-adv-x="333" 
 />
    <glyph glyph-name="CR.001" horiz-adv-x="130" 
 />
    <glyph glyph-name="CR.001" horiz-adv-x="130" 
 />
    <glyph glyph-name="CR" unicode="&#xd;" horiz-adv-x="333" 
 />
    <glyph glyph-name="space" unicode=" " horiz-adv-x="247" 
 />
    <glyph glyph-name="exclam" unicode="!" horiz-adv-x="329" 
d="M247 225h-158l-11 538h182zM170 -13q-41 0 -69.5 27.5t-28.5 68.5q0 40 28.5 67.5t69.5 27.5q38 0 65.5 -27.5t27.5 -67.5q0 -41 -27 -68.5t-66 -27.5z" />
    <glyph glyph-name="quotedbl" unicode="&#x22;" horiz-adv-x="620" 
d="M200 413h-172l93 323h200zM493 413h-172l93 323h200z" />
    <glyph glyph-name="numbersign" unicode="#" horiz-adv-x="778" 
d="M749 587l-29 -148h-97l-26 -136h97l-28 -149h-97l-30 -154h-178l31 154h-95l-31 -154h-179l33 154h-89l30 149h91l29 136h-94l28 148h98l33 152h171l-31 -152h93l31 152h171l-29 -152h97zM328 303h94l28 136h-94z" />
    <glyph glyph-name="dollar" unicode="$" horiz-adv-x="612" 
d="M575 223q0 -83 -48 -142.5t-129 -81.5v-111h-169v106q-126 28 -201 141l117 122q29 -41 72 -67.5t86 -26.5q30 0 47.5 13.5t17.5 35.5q0 18 -12 30t-41 27l-72 35q-58 30 -80 46q-99 69 -99 180q0 79 44.5 134.5t122.5 76.5v102h169v-99q83 -20 160 -85l-92 -139
q-82 60 -149 60q-30 0 -46.5 -12.5t-16.5 -33.5q0 -18 18 -33l17 -12l47 -24l57 -28q56 -27 81 -43q99 -63 99 -171z" />
    <glyph glyph-name="percent" unicode="%" horiz-adv-x="921" 
d="M221 382q-81 0 -137 53q-56 54 -56 130q0 77 56 131q55 55 137 55q81 0 136 -55q57 -54 57 -131q0 -76 -57 -130q-56 -53 -136 -53zM274 0h-167l534 739h167zM288 567q0 27 -20 46.5t-47 19.5t-46.5 -19.5t-19.5 -46.5q0 -29 19.5 -48t46.5 -19t47 19t20 48zM699 -12
q-81 0 -136 54q-56 54 -56 129q0 77 56 131q55 55 136 55q82 0 137 -55q57 -54 57 -131q0 -75 -57 -129q-56 -54 -137 -54zM699 106q28 0 47.5 19t19.5 48q0 27 -20 46.5t-47 19.5t-46.5 -19.5t-19.5 -46.5q0 -29 19.5 -48t46.5 -19z" />
    <glyph glyph-name="ampersand" unicode="&#x26;" horiz-adv-x="707" 
d="M608 166l95 -85l-99 -104l-94 88q-94 -76 -220 -76q-119 0 -190 62q-70 63 -70 156q0 128 128 208q-43 67 -43 142q0 74 59 135q60 60 163 60q83 0 142 -51q58 -49 58 -121q0 -65 -40.5 -110t-125.5 -90l23 -22l109 -98l10 10q25 26 72 88l105 -89q-50 -69 -82 -103z
M327 619q-29 0 -46 -19t-17 -49q0 -34 20 -69q51 25 73 44t22 43q0 21 -14.5 35.5t-37.5 14.5zM300 139q56 0 99 28l-118 110l-31 29q-44 -36 -44 -83q0 -36 26 -60t68 -24z" />
    <glyph glyph-name="quotesingle" unicode="'" horiz-adv-x="327" 
d="M200 413h-172l93 323h200z" />
    <glyph glyph-name="parenleft" unicode="(" horiz-adv-x="439" 
d="M436 -81l-83 -140q-159 82 -241 213t-82 302q0 172 83.5 303t247.5 212l76 -143q-213 -132 -213 -371q0 -119 52 -210t160 -166z" />
    <glyph glyph-name="parenright" unicode=")" horiz-adv-x="439" 
d="M86 -221l-83 140q108 75 160.5 166.5t52.5 209.5q0 238 -214 371l76 143q164 -81 247.5 -212t83.5 -303q0 -171 -82 -302t-241 -213z" />
    <glyph glyph-name="asterisk" unicode="*" horiz-adv-x="523" 
d="M262 464l-96 -114l-95 85l90 100l-130 55l50 115l120 -57l-6 139h133l-6 -139l121 57l49 -114l-129 -56l88 -100l-95 -85z" />
    <glyph glyph-name="plus" unicode="+" horiz-adv-x="607" 
d="M387 429h188v-165h-188v-188l-165 -3v191h-190v165h190v189h165v-189z" />
    <glyph glyph-name="comma" unicode="," horiz-adv-x="278" 
d="M137 174q45 0 74.5 -32t29.5 -81q0 -127 -178 -245l-50 66q32 24 46 37q45 35 64 69h-2q-34 0 -59.5 26.5t-25.5 61.5q0 42 29.5 70t71.5 28z" />
    <glyph glyph-name="hyphen" unicode="-" horiz-adv-x="540" 
d="M486 195h-431v164h431v-164z" />
    <glyph glyph-name="period" unicode="." horiz-adv-x="260" 
d="M132 -16q-41 0 -69.5 27.5t-28.5 68.5q0 40 28.5 67t69.5 27q39 0 66.5 -27.5t27.5 -66.5q0 -41 -27.5 -68.5t-66.5 -27.5z" />
    <glyph glyph-name="slash" unicode="/" horiz-adv-x="722" 
d="M217 -123h-201l487 948h202z" />
    <glyph glyph-name="zero" unicode="0" horiz-adv-x="695" 
d="M347 -12q-145 0 -226 104q-81 105 -81 278q0 174 81 277q81 105 226 105q146 0 227 -105q81 -104 81 -277t-81 -278q-81 -104 -227 -104zM471 370q0 94 -32 150.5t-91 56.5t-91.5 -56.5t-32.5 -150.5q0 -96 32 -151.5t92 -55.5q59 0 91 56t32 151z" />
    <glyph glyph-name="one" unicode="1" horiz-adv-x="443" 
d="M-8 552l244 187h134v-739h-180v495l-106 -77z" />
    <glyph glyph-name="two" unicode="2" horiz-adv-x="596" 
d="M379 240l-68 -70h239v-171h-498v155l224 231l14 14q16 16 29 31q6 7 23 35q10 19 10 40q0 30 -22 50t-55 20q-68 0 -157 -80l-100 134q126 123 277 123q109 0 179 -66q72 -64 72 -163q0 -64 -40 -129.5t-127 -153.5z" />
    <glyph glyph-name="three" unicode="3" horiz-adv-x="574" 
d="M258 -12q-130 0 -251 73l75 148q89 -50 163 -50q45 0 71 18.5t26 48.5q0 27 -23 44.5t-61 17.5h-96v166h73q42 0 66 17t24 45t-22 44.5t-58 16.5q-57 0 -134 -52l-87 134q105 93 247 93q101 0 171 -55t70 -137q0 -56 -34 -99.5t-88 -62.5v-4q68 -15 106.5 -65t38.5 -118
q0 -99 -77 -161t-200 -62z" />
    <glyph glyph-name="four" unicode="4" horiz-adv-x="633" 
d="M519 312h77v-152h-77v-160h-172v160h-310l-36 123l373 456h145v-427zM347 499l-150 -187h150v187z" />
    <glyph glyph-name="five" unicode="5" horiz-adv-x="601" 
d="M317 472q106 0 177 -64q73 -64 73 -169q0 -108 -78 -180q-77 -71 -209 -71q-138 0 -256 76l67 150q97 -55 179 -55q52 0 81.5 23t29.5 58q0 33 -28 54.5t-70 21.5q-61 0 -112 -42l-102 94l38 371h409v-172h-272l-11 -107q43 12 84 12z" />
    <glyph glyph-name="six" unicode="6" horiz-adv-x="648" 
d="M366 477q108 0 176 -67q70 -66 70 -169q0 -107 -77 -179q-77 -71 -200 -71q-143 1 -220.5 101.5t-74.5 254.5q0 162 80 279q40 59 106 92.5t146 33.5q116 0 217 -68l-82 -139q-60 39 -125 39q-69 0 -113 -45t-54 -122q53 60 151 60zM335 148q40 0 66.5 26t26.5 64
q0 37 -26.5 61.5t-65.5 24.5q-40 0 -67 -24t-27 -62q0 -39 27 -64.5t66 -25.5z" />
    <glyph glyph-name="seven" unicode="7" horiz-adv-x="541" 
d="M22 565v174h494v-135l-245 -604h-193l232 565h-288z" />
    <glyph glyph-name="eight" unicode="8" horiz-adv-x="644" 
d="M323 -12q-129 0 -208 61q-78 61 -78 158q0 63 36.5 113.5t97.5 72.5v2q-47 22 -75 63t-28 94q0 89 70 144q71 56 185 56q113 0 184 -56q70 -55 70 -144q0 -107 -104 -157v-3q61 -21 97.5 -71.5t36.5 -113.5q0 -97 -78 -158q-77 -61 -206 -61zM322 461q39 0 62 19.5
t23 50.5q0 30 -23.5 50t-61.5 20t-62 -20t-24 -50q0 -31 23.5 -50.5t62.5 -19.5zM323 151q42 0 69 22t27 55q0 34 -27 55q-25 22 -70 22q-44 0 -71 -21q-26 -21 -26 -55t27 -56t71 -22z" />
    <glyph glyph-name="nine" unicode="9" horiz-adv-x="639" 
d="M309 752q140 0 215 -100q76 -98 76 -254q0 -110 -35 -203q-35 -92 -110 -149q-76 -58 -184 -58q-122 0 -213 68l67 136q67 -41 133 -41q65 0 106 40.5t54 115.5q-56 -42 -142 -42q-104 0 -172 66q-68 68 -68 170q0 109 75 180q77 71 198 71zM306 418q29 -2 52 14.5
t33 40.5t5.5 51.5t-24.5 45.5q-25 25 -65 25q-39 0 -65.5 -25t-26.5 -64t26 -63.5t65 -24.5z" />
    <glyph glyph-name="colon" unicode=":" horiz-adv-x="291" 
d="M148 335q-41 0 -69.5 27.5t-28.5 68.5q0 40 28.5 67t69.5 27q39 0 66.5 -27.5t27.5 -66.5q0 -41 -27.5 -68.5t-66.5 -27.5zM148 -16q-41 0 -69.5 27.5t-28.5 68.5q0 40 28.5 67t69.5 27q39 0 66.5 -27.5t27.5 -66.5q0 -41 -27.5 -68.5t-66.5 -27.5z" />
    <glyph glyph-name="semicolon" unicode=";" horiz-adv-x="309" 
d="M158 333q-42 0 -72 29t-30 71q0 41 30 69.5t72 28.5q40 0 69 -28.5t29 -69.5q0 -42 -29 -71t-69 -29zM151 174q45 0 74.5 -32t29.5 -81q0 -127 -178 -245l-50 66q32 24 46 37q45 35 64 69h-2q-34 0 -59.5 26.5t-25.5 61.5q0 42 29.5 70t71.5 28z" />
    <glyph glyph-name="less" unicode="&#x3c;" horiz-adv-x="545" 
d="M487 211v-175l-458 212v146l458 211v-172l-269 -110z" />
    <glyph glyph-name="equal" unicode="=" horiz-adv-x="580" 
d="M521 362h-462v142h462v-142zM521 152h-462v141h462v-141z" />
    <glyph glyph-name="greater" unicode="&#x3e;" horiz-adv-x="540" 
d="M512 248l-456 -215v176l263 112l-263 109v172l456 -213v-141z" />
    <glyph glyph-name="question" unicode="?" horiz-adv-x="582" 
d="M353 218h-172v59q0 86 60 144l36 32t38 35t23.5 32t11.5 38q0 30 -20 47.5t-53 17.5q-69 0 -146 -92l-110 121q106 138 271 138q116 0 183 -63q68 -63 68 -156q0 -88 -67 -151l-32.5 -28t-35.5 -31.5t-26.5 -28t-22 -34t-6.5 -34.5v-46zM270 -13q-40 0 -68.5 27.5
t-28.5 68.5q0 40 28 67.5t69 27.5q40 0 67 -27.5t27 -67.5q0 -41 -27.5 -68.5t-66.5 -27.5z" />
    <glyph glyph-name="at" unicode="@" horiz-adv-x="960" 
d="M564 455v34h130v-245q0 -53 35 -53q28 0 52 40q25 40 25 100q0 129 -93 213q-93 86 -224 81q-138 -3 -235 -101q-95 -98 -95 -236q0 -143 100 -243q101 -99 242 -99q66 0 136 23.5t122 62.5l56 -97q-50 -42 -135 -73q-88 -32 -182 -32q-128 0 -235 63q-105 61 -166 167
q-60 107 -60 230q0 188 132 319q133 131 325 131t313 -117q123 -115 123 -283q0 -120 -64 -196t-159 -76q-84 0 -120 69q-53 -69 -145 -69q-87 0 -145 61t-58 156q0 93 57 156t145 63q77 0 123 -49zM468 191q39 0 66.5 27.5t27.5 67.5t-27.5 68.5t-65.5 28.5
q-39 0 -66.5 -27.5t-27.5 -68.5q0 -40 27.5 -68t65.5 -28z" />
    <glyph glyph-name="A" unicode="A" horiz-adv-x="713" 
d="M709 0h-192l-43 135h-235l-44 -135h-193l270 739h174zM286 297h143l-70 219z" />
    <glyph glyph-name="B" unicode="B" horiz-adv-x="707" 
d="M534 406q67 -17 103.5 -67.5t36.5 -120.5q0 -94 -66 -156q-67 -62 -172 -62h-363v739h346q103 0 159 -55q57 -54 57 -128q0 -49 -28 -91.5t-73 -58.5zM384 581h-128v-125h120q37 0 56.5 17.5t19.5 45.5q0 26 -18.5 44t-49.5 18zM256 160h140q42 0 64 21t22 52
q0 32 -22 53t-60 21h-144v-147z" />
    <glyph glyph-name="C" unicode="C" horiz-adv-x="756" 
d="M416 -11q-162 0 -271 105q-109 106 -109 273q0 168 110 276q110 109 271 109q98 0 181.5 -39t135.5 -107l-119 -125q-86 92 -186 92q-85 0 -143 -58q-57 -59 -57 -147q0 -86 57 -144q58 -57 142 -57q110 0 190 95l124 -119q-51 -67 -137 -111q-85 -43 -189 -43z" />
    <glyph glyph-name="D" unicode="D" horiz-adv-x="780" 
d="M371 0h-298v739h301q172 0 270 -99q98 -100 98 -271t-99 -270q-97 -99 -272 -99zM260 560v-381h120q81 0 124 55q44 56 44 136q0 79 -44 135q-43 55 -124 55h-120z" />
    <glyph glyph-name="E" unicode="E" horiz-adv-x="659" 
d="M606 0h-533v739h534v-173h-346v-109h320v-172h-320v-112h345v-173z" />
    <glyph glyph-name="F" unicode="F" horiz-adv-x="627" 
d="M260 0h-187v739h525v-175h-338v-123h299v-173h-299v-268z" />
    <glyph glyph-name="G" unicode="G" horiz-adv-x="809" 
d="M426 -11q-172 0 -282 107q-109 108 -109 273q0 167 113 275q114 108 284 108q85 0 162 -29.5t129 -78.5l-119 -139q-77 68 -174 68q-90 0 -147 -58q-57 -59 -57 -144q0 -83 56 -144q56 -60 148 -60q47 0 92.5 16.5t73.5 42.5v64h-168v160h337v-320q-145 -141 -339 -141z
" />
    <glyph glyph-name="H" unicode="H" horiz-adv-x="780" 
d="M260 0h-187v739h187v-282h259v282h188v-739h-188v278h-259v-278z" />
    <glyph glyph-name="I" unicode="I" horiz-adv-x="334" 
d="M73 0v739h188v-739h-188z" />
    <glyph glyph-name="J" unicode="J" horiz-adv-x="605" 
d="M239 -12q-147 0 -241 88l80 150q68 -59 141 -59q63 0 99 39t36 106v427h187v-433q0 -84 -24.5 -147t-67.5 -99.5t-95.5 -54t-114.5 -17.5z" />
    <glyph glyph-name="K" unicode="K" horiz-adv-x="720" 
d="M732 0h-228l-164 266l-80 -97v-169h-187v739h187v-304l233 304h226l-256 -327z" />
    <glyph glyph-name="L" unicode="L" horiz-adv-x="633" 
d="M620 0h-547v739h188v-561h359v-178z" />
    <glyph glyph-name="M" unicode="M" horiz-adv-x="954" 
d="M256 0h-183v739h138l266 -380l265 380h139v-739h-185v355l-185 -259h-70l-185 259v-355z" />
    <glyph glyph-name="N" unicode="N" horiz-adv-x="806" 
d="M549 338v401h184v-739h-141l-336 396v-396h-183v739h134z" />
    <glyph glyph-name="O" unicode="O" horiz-adv-x="843" 
d="M422 -12q-165 0 -277 110q-110 110 -110 271t111 272t275 111q165 0 276 -111t111 -272q0 -160 -111 -271q-110 -110 -275 -110zM421 173q82 0 138 56t56 141q-2 86 -58 141q-56 56 -136 56q-81 0 -137 -57q-56 -56 -56 -140q0 -85 56 -141t137 -56z" />
    <glyph glyph-name="P" unicode="P" horiz-adv-x="664" 
d="M73 739h294q141 0 209 -74q69 -73 69 -183q0 -109 -71 -180q-70 -70 -220 -70h-94v-232h-187v739zM260 400h103q43 0 66.5 23.5t23.5 60.5q0 36 -23.5 60t-62.5 24h-107v-168z" />
    <glyph glyph-name="Q" unicode="Q" horiz-adv-x="843" 
d="M807 1l26 -151q-79 -27 -154 -27q-201 0 -310 169q-145 20 -240 126q-94 106 -94 252q0 160 111 271t276 111q164 0 275 -111t111 -272q0 -119 -63 -213q-61 -94 -166 -138q41 -36 112 -36q55 0 116 19zM281 513q-57 -59 -57 -144t57 -144q59 -57 141 -57q83 0 140 57
q57 59 57 144t-57 144q-57 58 -140 58t-141 -58z" />
    <glyph glyph-name="R" unicode="R" horiz-adv-x="701" 
d="M677 0h-214l-130 245h-73v-245h-187v739h308q133 0 202 -70q69 -69 69 -175q0 -72 -34.5 -130.5t-100.5 -89.5zM379 568h-119v-160h112q61 -3 81 47q18 44 -8 82q-23 34 -66 31z" />
    <glyph glyph-name="S" unicode="S" horiz-adv-x="640" 
d="M314 -13q-185 0 -301 128l94 137q93 -93 210 -93q35 0 59 14.5t24 39.5q0 35 -60 57l-66 22q-71 26 -94 38q-122 65 -122 192q0 98 77 163t198 65q151 0 263 -93l-87 -142q-33 27 -82 44t-91 17q-37 0 -58 -13.5t-21 -34.5q0 -32 59 -55l65 -24q54 -19 85 -32
q141 -60 141 -194q0 -102 -80 -170q-79 -66 -213 -66z" />
    <glyph glyph-name="T" unicode="T" horiz-adv-x="626" 
d="M219 0v559h-205v180h598v-180h-204v-559h-189z" />
    <glyph glyph-name="U" unicode="U" horiz-adv-x="740" 
d="M65 287v452h188v-449q0 -60 31.5 -91.5t85.5 -31.5q53 0 84.5 32t31.5 91v449h189v-452q0 -79 -25.5 -138.5t-69.5 -94t-97 -51t-113 -16.5t-112.5 16.5t-97 51t-70 94t-25.5 138.5z" />
    <glyph glyph-name="V" unicode="V" horiz-adv-x="761" 
d="M382 272l162 467h215l-294 -739h-167l-298 739h217z" />
    <glyph glyph-name="W" unicode="W" horiz-adv-x="1093" 
d="M419 0h-180l-238 739h207l126 -462l146 462h133l147 -462l125 462h207l-238 -739h-179l-128 430z" />
    <glyph glyph-name="X" unicode="X" horiz-adv-x="703" 
d="M218 0h-217l230 373l-211 366h215l117 -226l128 226h217l-226 -366l221 -373h-214l-128 233z" />
    <glyph glyph-name="Y" unicode="Y" horiz-adv-x="711" 
d="M488 739h219l-259 -491v-248h-186v248l-256 491h220l129 -283z" />
    <glyph glyph-name="Z" unicode="Z" horiz-adv-x="677" 
d="M638 0h-600v141l337 428h-325v170h577v-147l-328 -422h339v-170z" />
    <glyph glyph-name="bracketleft" unicode="[" horiz-adv-x="437" 
d="M414 -227h-347v1038h347v-162h-167v-714h167v-162z" />
    <glyph glyph-name="backslash" unicode="\" horiz-adv-x="705" 
d="M218 825l471 -948h-199l-473 948h201z" />
    <glyph glyph-name="bracketright" unicode="]" horiz-adv-x="437" 
d="M370 -227h-347v162h167v714h-167v162h347v-1038z" />
    <glyph glyph-name="asciicircum" unicode="^" horiz-adv-x="559" 
d="M203 431h-173l188 349h125l187 -349h-172l-78 168z" />
    <glyph glyph-name="underscore" unicode="_" horiz-adv-x="597" 
d="M597 -208h-597v164h597v-164z" />
    <glyph glyph-name="grave" unicode="`" horiz-adv-x="366" 
d="M229 803l64 -183h-159l-94 183h189z" />
    <glyph glyph-name="a" unicode="a" horiz-adv-x="686" 
d="M464 502v50h166v-552h-166v48q-68 -62 -163 -62q-117 0 -194 84q-76 83 -76 208q0 126 76 206q76 82 194 82q96 0 163 -64zM462 277q0 53 -37 90q-38 38 -91 38q-55 0 -91 -38q-36 -37 -36 -90q0 -55 36 -92q38 -38 91 -38t91 38q37 37 37 92z" />
    <glyph glyph-name="b" unicode="b" horiz-adv-x="686" 
d="M381 566q118 0 196 -82q79 -82 79 -208t-78 -208t-196 -82q-95 0 -156 64v-50h-170v763h176v-254q60 57 149 57zM350 148q54 0 90 37t36 92q0 53 -36 90q-35 38 -90 38q-54 0 -90 -38q-35 -38 -35 -90q0 -55 35.5 -92t89.5 -37z" />
    <glyph glyph-name="c" unicode="c" horiz-adv-x="607" 
d="M324 -12q-130 0 -212 81q-81 81 -81 208t82 208q83 81 214 81q88 0 158 -42t105 -119l-141 -74q-42 71 -118 71q-55 0 -91 -36q-35 -37 -35 -89q0 -55 35.5 -91t88.5 -36q38 0 70.5 19.5t47.5 51.5l141 -84q-36 -69 -106.5 -109t-157.5 -40z" />
    <glyph glyph-name="d" unicode="d" horiz-adv-x="682" 
d="M450 509v254h177v-763h-172v48q-62 -62 -154 -62q-117 0 -193 82q-77 83 -77 208q0 124 77 207q78 83 193 83q89 0 149 -57zM331 147q54 0 90 37.5t36 92.5q0 54 -36 91t-90 37t-90 -38q-36 -37 -36 -90q0 -55 36 -93q36 -37 90 -37z" />
    <glyph glyph-name="e" unicode="e" 
d="M609 290q0 -34 -6 -71h-394q30 -87 135 -87q91 0 167 51l69 -119q-106 -76 -244 -76q-146 0 -226 83q-79 83 -79 205q0 125 82 207q83 83 213 83q123 0 203 -74t80 -202zM326 425q-91 0 -119 -85h234q-11 40 -41 62.5t-74 22.5z" />
    <glyph glyph-name="f" unicode="f" horiz-adv-x="462" 
d="M373 642q-42 0 -66 -21.5t-24 -60.5v-8h169v-146h-169v-406h-176v406h-78v146h78v12q0 114 66 172q67 59 171 59q88 0 183 -48l-59 -132q-56 27 -95 27z" />
    <glyph glyph-name="g" unicode="g" horiz-adv-x="681" 
d="M467 506v46h159v-499q0 -131 -89 -209t-225 -78q-148 0 -261 83l64 129q96 -63 190 -63q72 0 112.5 35.5t40.5 91.5v12q-58 -55 -154 -55q-123 0 -198 79q-75 80 -75 203q0 126 80 206q79 79 201 79q92 0 155 -60zM459 279q0 54 -35.5 89.5t-89.5 35.5t-89.5 -35
t-35.5 -90t35.5 -91.5t89.5 -36.5t89.5 36.5t35.5 91.5z" />
    <glyph glyph-name="h" unicode="h" horiz-adv-x="663" 
d="M232 0h-176v763h172v-286q21 38 68 64t105 26q89 0 151 -59t62 -169v-339h-177v292q0 54 -26 84t-71 30q-48 0 -78 -32.5t-30 -85.5v-288z" />
    <glyph glyph-name="i" unicode="i" horiz-adv-x="288" 
d="M148 601q-44 0 -73 29t-29 73q0 43 29.5 71.5t72.5 28.5t72 -28.5t29 -71.5q0 -44 -29 -73t-72 -29zM237 552v-552h-177v552h177z" />
    <glyph glyph-name="j" unicode="j" horiz-adv-x="312" 
d="M168 601q-44 0 -73 29t-29 73q0 43 29.5 71.5t72.5 28.5t72 -28.5t29 -71.5q0 -44 -29 -73t-72 -29zM23 -235q-99 0 -148 33l32 137q51 -17 83 -17q90 0 90 105v529h177v-547q0 -121 -66 -180q-65 -60 -168 -60z" />
    <glyph glyph-name="k" unicode="k" horiz-adv-x="614" 
d="M631 0h-210l-163 219l-26 -24v-195h-176v763h176v-371l166 160h215l-237 -222z" />
    <glyph glyph-name="l" unicode="l" horiz-adv-x="287" 
d="M232 763v-763h-176v763h176z" />
    <glyph glyph-name="m" unicode="m" horiz-adv-x="1025" 
d="M746 568q96 0 162 -60q67 -58 67 -171v-337h-177v302q0 50 -25.5 77t-66.5 27q-46 0 -74.5 -29.5t-28.5 -80.5v-296h-176v302q0 48 -26 76t-69 28q-44 0 -72 -29.5t-28 -80.5v-296h-176v552h172v-77q23 43 70.5 68.5t100.5 24.5q111 -1 153 -92q30 44 82 68t112 24z" />
    <glyph glyph-name="n" unicode="n" horiz-adv-x="664" 
d="M232 0h-176v552h172v-77q21 40 68 66t105 26q89 0 151 -59t62 -169v-339h-177v292q0 54 -26 84t-71 30q-48 0 -78 -32.5t-30 -86.5v-287z" />
    <glyph glyph-name="o" unicode="o" horiz-adv-x="661" 
d="M330 -15q-133 0 -217 84q-83 85 -83 207t83 207q84 85 217 85q135 0 217 -85q84 -84 84 -207t-84 -207q-83 -84 -217 -84zM330 150q53 0 89 36q36 38 36 91t-37 89q-36 36 -88 36t-88 -37q-36 -36 -36 -88q0 -53 36 -91q36 -36 88 -36z" />
    <glyph glyph-name="p" unicode="p" horiz-adv-x="689" 
d="M389 566q118 0 194 -84q76 -82 76 -205q0 -121 -77 -207q-76 -84 -192 -84q-92 0 -157 60v-273h-177v779h174v-51q65 65 159 65zM479 275q0 54 -35 90.5t-89 36.5t-89.5 -36.5t-35.5 -90.5q0 -52 35 -90q36 -37 90 -37q55 0 89 37q35 38 35 90z" />
    <glyph glyph-name="q" unicode="q" horiz-adv-x="689" 
d="M459 502v50h175v-779h-177v274q-64 -61 -158 -61q-115 0 -192 84q-76 85 -76 207q0 123 75 205q76 84 194 84q94 0 159 -64zM335 148q54 0 88 37q36 37 36 90q0 54 -35 90.5t-89 36.5t-89.5 -36.5t-35.5 -90.5q0 -52 35 -90q34 -37 90 -37z" />
    <glyph glyph-name="r" unicode="r" horiz-adv-x="446" 
d="M232 0h-176v552h169v-68q53 83 147 83q36 0 69 -15l-14 -168q-38 13 -73 13q-122 0 -122 -159v-238z" />
    <glyph glyph-name="s" unicode="s" horiz-adv-x="530" 
d="M263 -15q-144 0 -245 95l79 119q79 -69 165 -69q59 0 59 35q0 19 -30 31l-61 20q-64 23 -76 28q-103 48 -103 150q0 78 62 126q61 49 166 49q117 0 206 -72l-76 -116q-70 47 -133 47q-21 0 -35.5 -9t-14.5 -22q0 -26 50 -40q82 -23 130 -48q94 -46 94 -140
q0 -81 -64 -133q-64 -51 -173 -51z" />
    <glyph glyph-name="t" unicode="t" horiz-adv-x="488" 
d="M438 172l47 -141q-77 -45 -176 -45q-205 0 -205 228v192h-84v146h86v196h175v-196h173v-146h-173v-171q0 -88 70 -88q40 0 87 25z" />
    <glyph glyph-name="u" unicode="u" horiz-adv-x="629" 
d="M49 241v311h177v-313q0 -41 24 -66.5t64 -25.5q41 0 65 25t24 67v313h177v-311q0 -121 -70.5 -188t-195.5 -67t-195 67t-70 188z" />
    <glyph glyph-name="v" unicode="v" horiz-adv-x="622" 
d="M314 237l112 315h193l-237 -551h-142l-236 551h194z" />
    <glyph glyph-name="w" unicode="w" horiz-adv-x="907" 
d="M350 1h-157l-188 551h186l95 -321l105 321h124l107 -321l94 321h186l-188 -551h-157l-104 293z" />
    <glyph glyph-name="x" unicode="x" horiz-adv-x="588" 
d="M412 277l169 -277h-204l-84 162l-91 -162h-201l174 278l-152 274h201l71 -150l84 150h195z" />
    <glyph glyph-name="y" unicode="y" horiz-adv-x="634" 
d="M329 235l109 317h191l-214 -553q-46 -118 -109.5 -176t-157.5 -58q-70 0 -119 31l34 145q37 -19 72 -19q65 0 106 80l3 7l-240 543h203z" />
    <glyph glyph-name="z" unicode="z" horiz-adv-x="562" 
d="M517 425l-239 -280h250v-145h-494v124l247 282h-236v145h472v-126z" />
    <glyph glyph-name="braceleft" unicode="{" horiz-adv-x="436" 
d="M228 290v-3q38 -11 65 -41t27 -73q0 -21 -6 -80q-6 -57 -6 -80q0 -68 67 -68h25v-176h-88q-189 0 -189 197q0 16 5 76t5 81q0 51 -26 70t-89 22v150q63 3 89 22t26 70q0 20 -5 82q-5 63 -5 84q0 94 48.5 141t152.5 47h76v-176h-25q-67 0 -67 -68q0 -23 6 -82t6 -80
q0 -42 -26.5 -72.5t-65.5 -42.5z" />
    <glyph glyph-name="bar" unicode="|" horiz-adv-x="316" 
d="M249 -179h-182v1026h182v-1026z" />
    <glyph glyph-name="braceright" unicode="}" horiz-adv-x="436" 
d="M208 287v3q-39 12 -66 42.5t-27 72.5q0 21 6 80q7 55 7 82q0 68 -67 68h-25v176h76q104 0 152.5 -47t48.5 -141q0 -21 -5 -84q-5 -62 -5 -82q0 -51 26 -70t89 -22v-150q-63 -3 -89 -22t-26 -70q0 -21 5 -81t5 -76q0 -197 -188 -197h-89v176h25q67 0 67 68q0 27 -7 80
q-6 59 -6 80q0 43 27 73t66 41z" />
    <glyph glyph-name="asciitilde" unicode="~" horiz-adv-x="724" 
d="M472 216q-56 0 -133.5 31.5t-95.5 31.5q-21 0 -41 -14.5t-53 -53.5l-113 92q32 64 87.5 98.5t124.5 34.5q54 0 132.5 -31t98.5 -31q22 0 42.5 15.5t51.5 59.5l117 -96q-80 -137 -218 -137z" />
    <glyph glyph-name="exclamdown" unicode="&#xa1;" horiz-adv-x="291" 
d="M165 527q39 0 66 -27.5t27 -68.5q0 -40 -27.5 -67.5t-65.5 -27.5q-41 0 -69.5 27.5t-28.5 67.5q0 41 28.5 68.5t69.5 27.5zM73 -249l11 538h158l13 -538h-182z" />
    <glyph glyph-name="cent" unicode="&#xa2;" horiz-adv-x="627" 
d="M372 397v-242q58 18 80 66l141 -84q-33 -61 -90 -99t-131 -47v-75h-88v75q-112 13 -180 92q-68 80 -68 194q0 113 68 192q67 79 180 94v73h88v-72q76 -9 134.5 -50t88.5 -109l-141 -74q-28 49 -82 66zM210 277q0 -40 20 -71.5t54 -45.5v232q-34 -14 -54 -45t-20 -70z" />
    <glyph glyph-name="sterling" unicode="&#xa3;" horiz-adv-x="602" 
d="M499 298h-193q-4 -67 -52 -127h303v-171h-504v143q66 76 73 155h-81v135h55q-14 54 -14 95q0 94 74 159t175 65q75 0 139 -32.5t94 -84.5l-114 -116q-36 55 -99 55q-37 0 -60.5 -22.5t-23.5 -57.5q0 -24 12 -61h216v-135z" />
    <glyph glyph-name="currency" unicode="&#xa4;" horiz-adv-x="650" 
d="M565 367q0 -66 -35 -119l79 -77l-77 -78l-81 81q-59 -33 -129 -33q-69 0 -124 31l-79 -79l-77 78l76 75q-36 56 -36 121q0 73 42 131l-82 81l77 77l88 -87q54 27 115 27q67 0 120 -28l90 88l77 -77l-84 -83q40 -58 40 -129zM322 265q44 0 74 30.5t30 73.5t-29.5 73
t-74.5 30q-43 0 -72 -30t-29 -73t29.5 -73.5t71.5 -30.5z" />
    <glyph glyph-name="yen" unicode="&#xa5;" horiz-adv-x="732" 
d="M497 739h210l-157 -306h71v-133h-139l-19 -37h158v-134h-162v-129h-187v129h-162v134h159l-19 37h-140v133h72l-155 306h211l128 -295z" />
    <glyph glyph-name="brokenbar" unicode="&#xa6;" horiz-adv-x="316" 
d="M249 434h-182v413h182v-413zM67 234h182v-413h-182v413z" />
    <glyph glyph-name="section" unicode="&#xa7;" horiz-adv-x="660" 
d="M625 215q0 -86 -68 -143q30 -45 30 -99q0 -91 -75 -154q-74 -64 -194 -64q-182 0 -286 140l115 123q30 -39 76.5 -64.5t90.5 -25.5q32 0 50.5 12.5t18.5 33.5q0 25 -34 46q-18 12 -35 20l-21 9q-11 6 -46 22q-76 34 -131 76q-63 54 -63 133q0 83 68 145q-31 46 -31 101
q0 103 76 164q76 63 192 63q144 0 239 -107l-126 -120q-50 53 -109 53q-33 0 -54 -15t-21 -36q0 -26 35 -48q31 -17 38 -20q12 -4 22 -9l49 -20q81 -36 130 -76q64 -52 64 -140zM321 224q18 -9 43 -20q42 -18 59 -27q10 13 10 26q0 17 -20.5 33t-68.5 39q-65 30 -97 47
q-10 -14 -10 -27q0 -18 19.5 -33.5t64.5 -37.5z" />
    <glyph glyph-name="dieresis" unicode="&#xa8;" horiz-adv-x="520" 
d="M42 712q0 40 27.5 67.5t68.5 27.5t68.5 -27.5t27.5 -67.5q0 -42 -27.5 -69t-68.5 -27t-68.5 27t-27.5 69zM273 712q0 40 28 67.5t69 27.5t68.5 -27.5t27.5 -67.5q0 -42 -27.5 -69t-68.5 -27q-42 0 -69.5 27t-27.5 69z" />
    <glyph glyph-name="copyright" unicode="&#xa9;" horiz-adv-x="841" 
d="M35 369q0 157 113 270t272 113t272 -113t113 -270q0 -156 -113 -269q-112 -112 -272 -112t-272 112q-113 113 -113 269zM707 369q0 119 -84 201q-84 84 -203 84q-118 0 -202 -84q-84 -82 -84 -201q0 -117 84 -201q85 -83 202 -83t202 83q85 84 85 201zM424 162
q-91 0 -150 59t-59 148q0 90 58 148q59 59 150 59q60 0 107.5 -28.5t73.5 -81.5l-90 -51q-38 50 -88 50q-41 0 -68 -27.5t-27 -68.5q0 -42 26.5 -69.5t67.5 -27.5q56 0 88 50l90 -58q-59 -102 -179 -102z" />
    <glyph glyph-name="ordfeminine" unicode="&#xaa;" horiz-adv-x="405" 
d="M196 736q72 0 115 -40.5t43 -121.5v-184h-98v33q-37 -40 -103 -40q-56 0 -87 30t-31 78q0 53 40.5 80t112.5 27q4 0 28 -0.5t34 -0.5q-7 46 -68 46q-53 0 -101 -23l-32 80q69 36 147 36zM176 466q31 0 53 19t22 48q-15 -1 -56 -1q-58 -1 -58 -35q0 -31 39 -31z" />
    <glyph glyph-name="guillemotleft" unicode="&#xab;" horiz-adv-x="641" 
d="M346 88h-189l-130 203l131 203h188l-138 -203zM602 88h-189l-131 203l132 203h188l-138 -203z" />
    <glyph glyph-name="logicalnot" unicode="&#xac;" horiz-adv-x="600" 
d="M377 233h-320v162h480v-265h-160v103z" />
    <glyph glyph-name="uni00AD" unicode="&#xad;" horiz-adv-x="491" 
d="M437 246h-382v164h382v-164z" />
    <glyph glyph-name="registered" unicode="&#xae;" horiz-adv-x="614" 
d="M117 712q80 78 190 78q111 0 190 -78t79 -189t-79 -189t-190 -78t-190 78t-79 189t79 189zM171 386q55 -57 136 -57t136 57q55 56 55 137t-55 137q-56 57 -136 57q-81 0 -136 -57q-55 -56 -55 -137t55 -137zM412 564q0 -49 -44 -72l48 -87h-74l-41 78h-25v-78h-69v241
h120q37 0 61 -23t24 -59zM310 590h-34v-52h33q31 0 31 27q0 25 -30 25z" />
    <glyph glyph-name="overscore" unicode="&#xaf;" horiz-adv-x="440" 
d="M383 631l-343 -2v153h343v-151z" />
    <glyph glyph-name="degree" unicode="&#xb0;" horiz-adv-x="368" 
d="M25 679q0 66 46 111q46 46 113 46t113 -46q46 -45 46 -111q0 -65 -46 -110q-47 -45 -113 -45t-113 45q-46 45 -46 110zM184 622q24 0 41 16.5t17 40.5t-17 40.5t-41 16.5q-23 0 -40 -16.5t-17 -40.5t17 -40.5t40 -16.5z" />
    <glyph glyph-name="plusminus" unicode="&#xb1;" 
d="M588 499v-161h-188v-154h188v-157h-538v157h190v154h-190v161h190v189h160v-189h188z" />
    <glyph glyph-name="uni00B2" unicode="&#xb2;" horiz-adv-x="348" 
d="M257 670l-66 -66h124v-97h-281v88l129 129q38 40 38 61q0 12 -10 20.5t-25 8.5q-37 0 -98 -58l-51 81q69 75 156 75q61 0 101 -35.5t40 -91.5q0 -58 -57 -115z" />
    <glyph glyph-name="uni00B3" unicode="&#xb3;" horiz-adv-x="335" 
d="M5 541l44 86q57 -26 93 -26q50 0 50 31q0 14 -14 22t-36 8h-55v93h47q50 0 50 29q0 26 -42 26q-34 0 -74 -25l-53 79q60 48 141 48q60 0 100 -30q41 -30 41 -74q0 -32 -20 -55.5t-53 -33.5v-2q40 -9 62 -34.5t22 -60.5q2 -53 -44 -87t-119 -34t-140 40z" />
    <glyph glyph-name="acute" unicode="&#xb4;" horiz-adv-x="371" 
d="M198 620h-158l64 183h189z" />
    <glyph glyph-name="paragraph" unicode="&#xb6;" horiz-adv-x="841" 
d="M274 734h524v-178h-82v-759h-182v759h-70v-759h-182v463h-29q-99 0 -164 63q-63 63 -63 171q0 111 67 175q68 65 181 65z" />
    <glyph glyph-name="middot" unicode="&#xb7;" horiz-adv-x="273" 
d="M138 -16q-41 0 -69.5 27.5t-28.5 68.5q0 40 28.5 67t69.5 27q39 0 66.5 -27.5t27.5 -66.5q0 -41 -27.5 -68.5t-66.5 -27.5z" />
    <glyph glyph-name="cedilla" unicode="&#xb8;" horiz-adv-x="369" 
d="M252 18l-28 -67q46 -5 76 -33.5t30 -71.5q0 -52 -42 -89q-43 -38 -116 -38q-62 0 -132 32l35 96q42 -21 81 -21q48 0 48 32q0 33 -58 33h-53l-7 31l39 98z" />
    <glyph glyph-name="uni00B9" unicode="&#xb9;" horiz-adv-x="286" 
d="M4 791l153 111h83v-395h-111v243l-68 -48z" />
    <glyph glyph-name="ordmasculine" unicode="&#xba;" horiz-adv-x="419" 
d="M29 556q0 76 51 126q53 50 129 50q77 0 129 -51q52 -49 52 -125t-52 -125q-53 -50 -129 -50t-129 50q-51 50 -51 125zM209 485q33 0 53.5 20.5t20.5 50.5q0 31 -21 52t-53 21q-31 0 -52 -21t-21 -52t21 -51t52 -20z" />
    <glyph glyph-name="guillemotright" unicode="&#xbb;" horiz-adv-x="641" 
d="M359 291l-131 -203h-189l138 203l-138 203h188zM614 291l-130 -203h-189l138 203l-138 203h188z" />
    <glyph glyph-name="onequarter" unicode="&#xbc;" horiz-adv-x="905" 
d="M262 347h-111v243l-68 -48l-57 89l153 111h83v-395zM105 0l578 739h137l-577 -739h-138zM820 170h40v-87h-40v-83h-103v83h-172l-23 66l207 247h91v-226zM717 266l-81 -96h81v96z" />
    <glyph glyph-name="onehalf" unicode="&#xbd;" horiz-adv-x="886" 
d="M263 347h-111v243l-68 -48l-57 89l153 111h83v-395zM85 0l578 739h136l-576 -739h-138zM786 163l-66 -66h124v-97h-281v88l129 129q38 40 38 61q0 12 -10 20.5t-25 8.5q-37 0 -98 -58l-51 81q69 75 156 75q61 0 101 -35.5t40 -91.5q0 -58 -57 -115z" />
    <glyph glyph-name="threequarters" unicode="&#xbe;" horiz-adv-x="856" 
d="M156 441q50 0 50 31q0 14 -14 22t-36 8h-55v93h47q50 0 50 29q0 26 -42 26q-34 0 -74 -25l-53 79q60 48 141 48q60 0 100 -30q41 -30 41 -74q0 -32 -20 -55.5t-53 -33.5v-2q40 -9 62 -34.5t22 -60.5q2 -53 -44 -87t-119 -34t-140 40l44 86q57 -26 93 -26zM95 0l578 739
h136l-576 -739h-138zM671 396h91v-226h40v-87h-40v-83h-103v83h-172l-23 66zM659 266l-81 -96h81v96z" />
    <glyph glyph-name="questiondown" unicode="&#xbf;" horiz-adv-x="575" 
d="M307 528q40 0 68.5 -27.5t28.5 -68.5q0 -40 -28 -67.5t-69 -27.5q-40 0 -67 27.5t-27 67.5q0 41 27.5 68.5t66.5 27.5zM224 297h172v-59q0 -86 -60 -144q-12 -12 -36 -33t-37 -34t-24.5 -32t-11.5 -38q0 -30 20 -47.5t53 -17.5q69 0 146 92l110 -121q-106 -138 -271 -138
q-115 0 -183 63t-68 156q0 90 67 150l40.5 35.5t44 40.5t25 35.5t13.5 45.5v46z" />
    <glyph glyph-name="Agrave" unicode="&#xc0;" horiz-adv-x="713" 
d="M375 991l68 -196h-170l-100 196h202zM709 0h-192l-43 135h-235l-44 -135h-193l270 739h174zM286 297h143l-70 219z" />
    <glyph glyph-name="Aacute" unicode="&#xc1;" horiz-adv-x="713" 
d="M347 989h201l-101 -195h-168zM709 0h-192l-43 135h-235l-44 -135h-193l270 739h174zM286 297h143l-70 219z" />
    <glyph glyph-name="Acircumflex" unicode="&#xc2;" horiz-adv-x="713" 
d="M421 795l-63 90l-63 -90h-170l164 197h142l166 -197h-176zM709 0h-192l-43 135h-235l-44 -135h-193l270 739h174zM286 297h143l-70 219z" />
    <glyph glyph-name="Atilde" unicode="&#xc3;" horiz-adv-x="713" 
d="M294 837q-40 0 -69 -56l-116 58q36 71 75 103t95 32q35 0 78 -23q41 -22 58 -22q32 0 62 53l117 -56q-58 -136 -156 -136q-31 0 -79 23q-45 24 -65 24zM709 0h-192l-43 135h-235l-44 -135h-193l270 739h174zM286 297h143l-70 219z" />
    <glyph glyph-name="Adieresis" unicode="&#xc4;" horiz-adv-x="713" 
d="M231 789q-43 0 -72 28.5t-29 72.5q0 42 29 70.5t72 28.5q42 0 71 -28.5t29 -70.5q0 -44 -29 -72.5t-71 -28.5zM372 890q0 42 29.5 70.5t71.5 28.5q43 0 72 -28.5t29 -70.5q0 -44 -29 -72.5t-72 -28.5t-72 28.5t-29 72.5zM709 0h-192l-43 135h-235l-44 -135h-193l270 739
h174zM286 297h143l-70 219z" />
    <glyph glyph-name="Aring" unicode="&#xc5;" horiz-adv-x="713" 
d="M205 925q0 63 45 107q46 44 110 44t110 -44q45 -44 45 -107q0 -61 -45 -105q-44 -43 -110 -43t-110 43q-45 44 -45 105zM360 980q-23 0 -38.5 -15t-15.5 -38q0 -22 15.5 -38t38.5 -16q22 0 37.5 16t15.5 38t-15.5 37.5t-37.5 15.5zM709 0h-192l-43 135h-235l-44 -135
h-193l270 739h174zM286 297h143l-70 219z" />
    <glyph glyph-name="AE" unicode="&#xc6;" horiz-adv-x="1078" 
d="M1026 739v-173h-348v-109h322v-172h-322v-112h346v-173h-536v139h-231l-76 -139h-202l435 739h612zM488 558l-141 -256h141v256z" />
    <glyph glyph-name="Ccedilla" unicode="&#xc7;" horiz-adv-x="755" 
d="M617 262l124 -119q-43 -58 -113 -98t-152 -52l-18 -42q46 -5 76 -33.5t30 -71.5q0 -52 -42 -89q-43 -38 -116 -38q-62 0 -132 32l35 96q42 -21 81 -21q48 0 48 32q0 33 -58 33h-53l-7 31l29 72q-137 21 -226 122q-88 101 -88 251q0 168 110 276q110 109 271 109
q98 0 181.5 -39t135.5 -107l-119 -125q-86 92 -186 92q-85 0 -143 -58q-57 -59 -57 -147q0 -86 57 -144q57 -57 142 -57q110 0 190 95z" />
    <glyph glyph-name="Egrave" unicode="&#xc8;" horiz-adv-x="659" 
d="M366 991l68 -196h-170l-100 196h202zM606 0h-533v739h534v-173h-346v-109h320v-172h-320v-112h345v-173z" />
    <glyph glyph-name="Eacute" unicode="&#xc9;" horiz-adv-x="659" 
d="M417 794h-168l68 195h201zM606 0h-533v739h534v-173h-346v-109h320v-172h-320v-112h345v-173z" />
    <glyph glyph-name="Ecircumflex" unicode="&#xca;" horiz-adv-x="659" 
d="M275 795h-170l164 197h142l166 -197h-176l-63 90zM606 0h-533v739h534v-173h-346v-109h320v-172h-320v-112h345v-173z" />
    <glyph glyph-name="Edieresis" unicode="&#xcb;" horiz-adv-x="659" 
d="M220 789q-43 0 -72 28.5t-29 72.5q0 42 29 70.5t72 28.5q42 0 71 -28.5t29 -70.5q0 -44 -29 -72.5t-71 -28.5zM361 890q0 42 29.5 70.5t71.5 28.5q43 0 72 -28.5t29 -70.5q0 -44 -29 -72.5t-72 -28.5t-72 28.5t-29 72.5zM606 0h-533v739h534v-173h-346v-109h320v-172
h-320v-112h345v-173z" />
    <glyph glyph-name="Igrave" unicode="&#xcc;" horiz-adv-x="334" 
d="M190 992l68 -196h-170l-100 196h202zM74 0v739h188v-739h-188z" />
    <glyph glyph-name="Iacute" unicode="&#xcd;" horiz-adv-x="334" 
d="M246 796h-168l68 195h201zM73 0v739h188v-739h-188z" />
    <glyph glyph-name="Icircumflex" unicode="&#xce;" horiz-adv-x="334" 
d="M104 797h-170l164 197h142l166 -197h-176l-63 90zM74 0v739h188v-739h-188z" />
    <glyph glyph-name="Idieresis" unicode="&#xcf;" horiz-adv-x="334" 
d="M-55 891q0 43 29 72t72 29t72 -29t29 -72q0 -44 -29 -72.5t-72 -28.5t-72 28.5t-29 72.5zM188 891q0 43 30 72t73 29t72 -29t29 -72q0 -44 -29 -72.5t-72 -28.5t-73 28.5t-30 72.5zM74 0v739h188v-739h-188z" />
    <glyph glyph-name="Eth" unicode="&#xd0;" horiz-adv-x="792" 
d="M86 739h301q173 0 270 -99q98 -100 98 -271t-99 -270q-98 -99 -272 -99h-298v297h-66v146h66v296zM273 179h120q81 0 124 55q44 56 44 136q0 79 -44 135q-43 55 -124 55h-120v-117h174v-146h-174v-118z" />
    <glyph glyph-name="Ntilde" unicode="&#xd1;" horiz-adv-x="806" 
d="M277 787l-116 58q36 71 75 103t95 32q35 0 78 -23q41 -22 58 -22q32 0 62 53l117 -56q-58 -136 -156 -136q-31 0 -79 23q-45 24 -65 24q-40 0 -69 -56zM549 338v401h184v-739h-141l-336 396v-396h-183v739h134z" />
    <glyph glyph-name="Ograve" unicode="&#xd2;" horiz-adv-x="843" 
d="M447 991l68 -196h-170l-100 196h202zM422 -12q-165 0 -277 110q-110 110 -110 271t111 272t275 111q165 0 276 -111t111 -272q0 -160 -111 -271q-110 -110 -275 -110zM421 173q82 0 138 56t56 141q-2 86 -58 141q-56 56 -136 56q-81 0 -137 -57q-56 -56 -56 -140
q0 -85 56 -141t137 -56z" />
    <glyph glyph-name="Oacute" unicode="&#xd3;" horiz-adv-x="843" 
d="M507 794h-168l68 195h201zM422 -12q-165 0 -277 110q-110 110 -110 271t111 272t275 111q165 0 276 -111t111 -272q0 -160 -111 -271q-110 -110 -275 -110zM421 173q82 0 138 56t56 141q-2 86 -58 141q-56 56 -136 56q-81 0 -137 -57q-56 -56 -56 -140q0 -85 56 -141
t137 -56z" />
    <glyph glyph-name="Ocircumflex" unicode="&#xd4;" horiz-adv-x="843" 
d="M358 795h-170l164 197h142l166 -197h-176l-63 90zM422 -12q-165 0 -277 110q-110 110 -110 271t111 272t275 111q165 0 276 -111t111 -272q0 -160 -111 -271q-110 -110 -275 -110zM421 173q82 0 138 56t56 141q-2 86 -58 141q-56 56 -136 56q-81 0 -137 -57
q-56 -56 -56 -140q0 -85 56 -141t137 -56z" />
    <glyph glyph-name="Otilde" unicode="&#xd5;" horiz-adv-x="843" 
d="M297 781l-116 58q36 71 75 103t95 32q35 0 78 -23q41 -22 58 -22q32 0 62 53l117 -56q-58 -136 -156 -136q-31 0 -79 23q-45 24 -65 24q-40 0 -69 -56zM422 -12q-165 0 -277 110q-110 110 -110 271t111 272t275 111q165 0 276 -111t111 -272q0 -160 -111 -271
q-110 -110 -275 -110zM421 173q82 0 138 56t56 141q-2 86 -58 141q-56 56 -136 56q-81 0 -137 -57q-56 -56 -56 -140q0 -85 56 -141t137 -56z" />
    <glyph glyph-name="Odieresis" unicode="&#xd6;" horiz-adv-x="843" 
d="M302 789q-43 0 -72 28.5t-29 72.5q0 42 29 70.5t72 28.5q42 0 71 -28.5t29 -70.5q0 -44 -29 -72.5t-71 -28.5zM443 890q0 42 29.5 70.5t71.5 28.5q43 0 72 -28.5t29 -70.5q0 -44 -29 -72.5t-72 -28.5t-72 28.5t-29 72.5zM422 -12q-165 0 -277 110q-110 110 -110 271
t111 272t275 111q165 0 276 -111t111 -272q0 -160 -111 -271q-110 -110 -275 -110zM421 173q82 0 138 56t56 141q-2 86 -58 141q-56 56 -136 56q-81 0 -137 -57q-56 -56 -56 -140q0 -85 56 -141t137 -56z" />
    <glyph glyph-name="multiply" unicode="&#xd7;" horiz-adv-x="586" 
d="M438 595l110 -106l-148 -149l148 -148l-106 -112l-151 151l-149 -151l-106 112l147 147l-146 146l105 111l149 -148z" />
    <glyph glyph-name="Oslash" unicode="&#xd8;" horiz-adv-x="843" 
d="M765 733l-66 -94q109 -110 109 -270t-111 -271q-110 -110 -275 -110q-87 0 -159 31l-62 -88l-103 70l60 85q-58 52 -90.5 126t-32.5 157q0 161 111 272t275 111q93 0 178 -41l65 92zM228 370q0 -72 42 -125l219 310q-32 12 -68 12q-81 0 -137 -57q-56 -56 -56 -140z
M421 173q82 0 138 56t56 141q0 60 -30 107l-210 -299q28 -5 46 -5z" />
    <glyph glyph-name="Ugrave" unicode="&#xd9;" horiz-adv-x="740" 
d="M395 991l68 -196h-170l-100 196h202zM65 287v452h188v-449q0 -60 31.5 -91.5t85.5 -31.5q53 0 84.5 32t31.5 91v449h189v-452q0 -79 -25.5 -138.5t-69.5 -94t-97 -51t-113 -16.5t-112.5 16.5t-97 51t-70 94t-25.5 138.5z" />
    <glyph glyph-name="Uacute" unicode="&#xda;" horiz-adv-x="740" 
d="M449 794h-168l68 195h201zM65 287v452h188v-449q0 -60 31.5 -91.5t85.5 -31.5q53 0 84.5 32t31.5 91v449h189v-452q0 -79 -25.5 -138.5t-69.5 -94t-97 -51t-113 -16.5t-112.5 16.5t-97 51t-70 94t-25.5 138.5z" />
    <glyph glyph-name="Ucircumflex" unicode="&#xdb;" horiz-adv-x="740" 
d="M306 795h-170l164 197h142l166 -197h-176l-63 90zM65 287v452h188v-449q0 -60 31.5 -91.5t85.5 -31.5q53 0 84.5 32t31.5 91v449h189v-452q0 -79 -25.5 -138.5t-69.5 -94t-97 -51t-113 -16.5t-112.5 16.5t-97 51t-70 94t-25.5 138.5z" />
    <glyph glyph-name="Udieresis" unicode="&#xdc;" horiz-adv-x="740" 
d="M249 789q-43 0 -72 28.5t-29 72.5q0 42 29 70.5t72 28.5q42 0 71 -28.5t29 -70.5q0 -44 -29 -72.5t-71 -28.5zM390 890q0 42 29.5 70.5t71.5 28.5q43 0 72 -28.5t29 -70.5q0 -44 -29 -72.5t-72 -28.5t-72 28.5t-29 72.5zM65 287v452h188v-449q0 -60 31.5 -91.5
t85.5 -31.5q53 0 84.5 32t31.5 91v449h189v-452q0 -79 -25.5 -138.5t-69.5 -94t-97 -51t-113 -16.5t-112.5 16.5t-97 51t-70 94t-25.5 138.5z" />
    <glyph glyph-name="Yacute" unicode="&#xdd;" horiz-adv-x="711" 
d="M435 794h-168l68 195h201zM488 739h219l-259 -491v-248h-186v248l-256 491h220l129 -283z" />
    <glyph glyph-name="Thorn" unicode="&#xde;" horiz-adv-x="676" 
d="M260 627h114q137 0 204 -73t67 -179t-71 -177q-70 -70 -213 -70h-101v-128h-187v739h187v-112zM260 298h106q42 0 64 22.5t22 56.5t-22 56t-60 22h-110v-157z" />
    <glyph glyph-name="germandbls" unicode="&#xdf;" horiz-adv-x="685" 
d="M522 397q62 -18 97.5 -70.5t35.5 -122.5q0 -95 -70 -159q-69 -63 -182 -63q-72 0 -129 23l32 147q29 -13 72 -13q45 0 72 21.5t27 58.5q0 87 -154 87v137q51 0 81.5 26t30.5 65q0 34 -24 56.5t-64 22.5q-54 0 -84 -40.5t-30 -112.5v-637h-177v654q0 88 29.5 151.5
t77 95.5t95 46t97.5 14q111 0 187 -65q75 -65 75 -159q0 -109 -95 -163z" />
    <glyph glyph-name="agrave" unicode="&#xe0;" horiz-adv-x="689" 
d="M361 813l64 -183h-159l-94 183h189zM464 502v50h166v-552h-166v48q-68 -62 -163 -62q-117 0 -194 84q-76 83 -76 208q0 126 76 206q76 82 194 82q96 0 163 -64zM462 277q0 53 -37 90q-38 38 -91 38q-55 0 -91 -38q-36 -37 -36 -90q0 -55 36 -92q38 -38 91 -38t91 38
q37 37 37 92z" />
    <glyph glyph-name="aacute" unicode="&#xe1;" horiz-adv-x="689" 
d="M326 812h189l-95 -183h-158zM464 502v50h166v-552h-166v48q-68 -62 -163 -62q-117 0 -194 84q-76 83 -76 208q0 126 76 206q76 82 194 82q96 0 163 -64zM462 277q0 53 -37 90q-38 38 -91 38q-55 0 -91 -38q-36 -37 -36 -90q0 -55 36 -92q38 -38 91 -38t91 38q37 37 37 92
z" />
    <glyph glyph-name="acircumflex" unicode="&#xe2;" horiz-adv-x="689" 
d="M402 629l-59 84l-59 -84h-160l154 185h134l155 -185h-165zM464 502v50h166v-552h-166v48q-68 -62 -163 -62q-117 0 -194 84q-76 83 -76 208q0 126 76 206q76 82 194 82q96 0 163 -64zM462 277q0 53 -37 90q-38 38 -91 38q-55 0 -91 -38q-36 -37 -36 -90q0 -55 36 -92
q38 -38 91 -38t91 38q37 37 37 92z" />
    <glyph glyph-name="atilde" unicode="&#xe3;" horiz-adv-x="689" 
d="M295 669q-39 0 -67 -54l-111 56q34 68 72 99t91 31q35 0 75 -22q41 -21 56 -21q30 0 60 50l112 -53q-57 -131 -150 -131q-33 0 -76 22q-44 23 -62 23zM464 502v50h166v-552h-166v48q-68 -62 -163 -62q-117 0 -194 84q-76 83 -76 208q0 126 76 206q76 82 194 82
q96 0 163 -64zM462 277q0 53 -37 90q-38 38 -91 38q-55 0 -91 -38q-36 -37 -36 -90q0 -55 36 -92q38 -38 91 -38t91 38q37 37 37 92z" />
    <glyph glyph-name="adieresis" unicode="&#xe4;" horiz-adv-x="689" 
d="M139 713q0 40 27.5 67.5t68.5 27.5t68.5 -27.5t27.5 -67.5q0 -42 -27.5 -69t-68.5 -27t-68.5 27t-27.5 69zM370 713q0 40 28 67.5t69 27.5t68.5 -27.5t27.5 -67.5q0 -42 -27.5 -69t-68.5 -27q-42 0 -69.5 27t-27.5 69zM464 502v50h166v-552h-166v48q-68 -62 -163 -62
q-117 0 -194 84q-76 83 -76 208q0 126 76 206q76 82 194 82q96 0 163 -64zM462 277q0 53 -37 90q-38 38 -91 38q-55 0 -91 -38q-36 -37 -36 -90q0 -55 36 -92q38 -38 91 -38t91 38q37 37 37 92z" />
    <glyph glyph-name="aring" unicode="&#xe5;" horiz-adv-x="689" 
d="M200 750q0 60 42 100q43 42 104 42t103 -42q42 -40 42 -100q0 -58 -42 -99q-41 -40 -103 -40q-61 0 -104 40q-42 41 -42 99zM346 801q-22 0 -36.5 -14t-14.5 -35t14.5 -36t36.5 -15q20 0 34.5 15t14.5 36t-14.5 35t-34.5 14zM464 502v50h166v-552h-166v48
q-68 -62 -163 -62q-117 0 -194 84q-76 83 -76 208q0 126 76 206q76 82 194 82q96 0 163 -64zM462 277q0 53 -37 90q-38 38 -91 38q-55 0 -91 -38q-36 -37 -36 -90q0 -55 36 -92q38 -38 91 -38t91 38q37 37 37 92z" />
    <glyph glyph-name="ae" unicode="&#xe6;" horiz-adv-x="969" 
d="M939 299q0 -44 -6 -74l-379 1q13 -45 46.5 -71t82.5 -26q79 0 155 53l73 -115q-103 -79 -239 -79q-146 0 -223 96q-77 -96 -214 -96q-97 0 -153.5 49.5t-56.5 129.5q0 92 74 133q75 42 191 42h93q-25 85 -124 85q-79 0 -159 -47l-52 121q47 29 109.5 47t119.5 18
q128 0 192 -82q79 82 203 82q114 0 190 -69q77 -69 77 -198zM673 427q-43 0 -74 -22t-44 -63h230q-9 40 -39 62.5t-73 22.5zM257 129q44 0 78 24.5t48 73.5h-87q-107 0 -107 -50q0 -22 18.5 -35t49.5 -13z" />
    <glyph glyph-name="ccedilla" unicode="&#xe7;" horiz-adv-x="607" 
d="M329 150q38 0 70.5 19.5t47.5 51.5l141 -84q-66 -122 -212 -145l-17 -41q46 -5 76 -33.5t30 -71.5q0 -52 -42 -89q-43 -38 -116 -38q-62 0 -132 32l35 96q42 -21 81 -21q48 0 48 32q0 33 -58 33h-53l-7 31l29 74q-100 22 -160 97q-59 77 -59 184q0 127 82 208
q83 81 214 81q88 0 158 -42t105 -119l-141 -74q-42 71 -118 71q-55 0 -91 -36q-35 -37 -35 -89q0 -55 35.5 -91t88.5 -36z" />
    <glyph glyph-name="egrave" unicode="&#xe8;" 
d="M350 812l64 -183h-159l-94 183h189zM609 290q0 -34 -6 -71h-394q30 -87 135 -87q91 0 167 51l69 -119q-106 -76 -244 -76q-146 0 -226 83q-79 83 -79 205q0 125 82 207q83 83 213 83q123 0 203 -74t80 -202zM326 425q-91 0 -119 -85h234q-11 40 -41 62.5t-74 22.5z" />
    <glyph glyph-name="eacute" unicode="&#xe9;" 
d="M298 812h189l-95 -183h-158zM609 290q0 -34 -6 -71h-394q30 -87 135 -87q91 0 167 51l69 -119q-106 -76 -244 -76q-146 0 -226 83q-79 83 -79 205q0 125 82 207q83 83 213 83q123 0 203 -74t80 -202zM326 425q-91 0 -119 -85h234q-11 40 -41 62.5t-74 22.5z" />
    <glyph glyph-name="ecircumflex" unicode="&#xea;" 
d="M383 633l-59 84l-59 -84h-160l154 185h134l155 -185h-165zM609 290q0 -34 -6 -71h-394q30 -87 135 -87q91 0 167 51l69 -119q-106 -76 -244 -76q-146 0 -226 83q-79 83 -79 205q0 125 82 207q83 83 213 83q123 0 203 -74t80 -202zM326 425q-91 0 -119 -85h234
q-11 40 -41 62.5t-74 22.5z" />
    <glyph glyph-name="edieresis" unicode="&#xeb;" 
d="M124 706q0 40 27.5 67.5t68.5 27.5t68.5 -27.5t27.5 -67.5q0 -42 -27.5 -69t-68.5 -27t-68.5 27t-27.5 69zM355 706q0 40 28 67.5t69 27.5t68.5 -27.5t27.5 -67.5q0 -42 -27.5 -69t-68.5 -27q-42 0 -69.5 27t-27.5 69zM609 290q0 -34 -6 -71h-394q30 -87 135 -87
q91 0 167 51l69 -119q-106 -76 -244 -76q-146 0 -226 83q-79 83 -79 205q0 125 82 207q83 83 213 83q123 0 203 -74t80 -202zM326 425q-91 0 -119 -85h234q-11 40 -41 62.5t-74 22.5z" />
    <glyph glyph-name="igrave" unicode="&#xec;" horiz-adv-x="292" 
d="M167 812l64 -183h-159l-94 183h189zM237 552v-552h-177v552h177z" />
    <glyph glyph-name="iacute" unicode="&#xed;" horiz-adv-x="284" 
d="M219 629h-158l64 183h189zM233 552v-552h-177v552h177z" />
    <glyph glyph-name="icircumflex" unicode="&#xee;" horiz-adv-x="288" 
d="M88 631h-160l154 185h134l155 -185h-165l-59 84zM237 552v-552h-177v552h177z" />
    <glyph glyph-name="idieresis" unicode="&#xef;" horiz-adv-x="288" 
d="M-64 711q0 40 27.5 67.5t68.5 27.5t68.5 -27.5t27.5 -67.5q0 -42 -27.5 -69t-68.5 -27t-68.5 27t-27.5 69zM167 711q0 40 28 67.5t69 27.5t68.5 -27.5t27.5 -67.5q0 -42 -27.5 -69t-68.5 -27q-42 0 -69.5 27t-27.5 69zM237 552v-552h-177v552h177z" />
    <glyph glyph-name="eth" unicode="&#xf0;" horiz-adv-x="654" 
d="M557 748l-71 -52q133 -170 133 -352q0 -152 -89 -255q-89 -101 -228 -101q-120 0 -197 77q-76 76 -76 188q0 111 77 182t174 71q96 0 156 -78q-28 92 -87 166l-73 -54l-61 75l68 51q-43 42 -93 81l125 118q54 -41 108 -96l74 55zM427 259q0 47 -31.5 78t-77.5 31
q-48 0 -79.5 -32t-31.5 -80q0 -46 31 -78.5t78 -32.5t79 32.5t32 81.5z" />
    <glyph glyph-name="ntilde" unicode="&#xf1;" horiz-adv-x="664" 
d="M216 618l-111 56q34 68 72 99t91 31q35 0 75 -22q41 -21 56 -21q30 0 60 50l112 -53q-57 -131 -150 -131q-33 0 -76 22q-44 23 -62 23q-39 0 -67 -54zM232 0h-176v552h172v-77q21 40 68 66t105 26q89 0 151 -59t62 -169v-339h-177v292q0 54 -26 84t-71 30
q-48 0 -78 -32.5t-30 -86.5v-287z" />
    <glyph glyph-name="ograve" unicode="&#xf2;" horiz-adv-x="661" 
d="M352 812l64 -183h-159l-94 183h189zM330 -15q-133 0 -217 84q-83 85 -83 207t83 207q84 85 217 85q135 0 217 -85q84 -84 84 -207t-84 -207q-83 -84 -217 -84zM330 150q53 0 89 36q36 38 36 91t-37 89q-36 36 -88 36t-88 -37q-36 -36 -36 -88q0 -53 36 -91q36 -36 88 -36
z" />
    <glyph glyph-name="oacute" unicode="&#xf3;" horiz-adv-x="661" 
d="M401 629h-158l64 183h189zM330 -15q-133 0 -217 84q-83 85 -83 207t83 207q84 85 217 85q135 0 217 -85q84 -84 84 -207t-84 -207q-83 -84 -217 -84zM330 150q53 0 89 36q36 38 36 91t-37 89q-36 36 -88 36t-88 -37q-36 -36 -36 -88q0 -53 36 -91q36 -36 88 -36z" />
    <glyph glyph-name="ocircumflex" unicode="&#xf4;" horiz-adv-x="661" 
d="M268 630h-160l154 185h134l155 -185h-165l-59 84zM330 -15q-133 0 -217 84q-83 85 -83 207t83 207q84 85 217 85q135 0 217 -85q84 -84 84 -207t-84 -207q-83 -84 -217 -84zM330 150q53 0 89 36q36 38 36 91t-37 89q-36 36 -88 36t-88 -37q-36 -36 -36 -88q0 -53 36 -91
q36 -36 88 -36z" />
    <glyph glyph-name="otilde" unicode="&#xf5;" horiz-adv-x="661" 
d="M212 617l-111 56q34 68 72 99t91 31q35 0 75 -22q41 -21 56 -21q30 0 60 50l112 -53q-57 -131 -150 -131q-33 0 -76 22q-44 23 -62 23q-39 0 -67 -54zM330 -15q-133 0 -217 84q-83 85 -83 207t83 207q84 85 217 85q135 0 217 -85q84 -84 84 -207t-84 -207
q-83 -84 -217 -84zM330 150q53 0 89 36q36 38 36 91t-37 89q-36 36 -88 36t-88 -37q-36 -36 -36 -88q0 -53 36 -91q36 -36 88 -36z" />
    <glyph glyph-name="odieresis" unicode="&#xf6;" horiz-adv-x="661" 
d="M118 712q0 40 27.5 67.5t68.5 27.5t68.5 -27.5t27.5 -67.5q0 -42 -27.5 -69t-68.5 -27t-68.5 27t-27.5 69zM349 712q0 40 28 67.5t69 27.5t68.5 -27.5t27.5 -67.5q0 -42 -27.5 -69t-68.5 -27q-42 0 -69.5 27t-27.5 69zM330 -15q-133 0 -217 84q-83 85 -83 207t83 207
q84 85 217 85q135 0 217 -85q84 -84 84 -207t-84 -207q-83 -84 -217 -84zM330 150q53 0 89 36q36 38 36 91t-37 89q-36 36 -88 36t-88 -37q-36 -36 -36 -88q0 -53 36 -91q36 -36 88 -36z" />
    <glyph glyph-name="divide" unicode="&#xf7;" horiz-adv-x="555" 
d="M278 462q-37 0 -63.5 25.5t-26.5 62.5q0 36 26.5 61.5t63.5 25.5q36 0 61.5 -25.5t25.5 -61.5q0 -37 -25.5 -62.5t-61.5 -25.5zM520 280h-485v146h485v-146zM278 71q-37 0 -63.5 25.5t-26.5 62.5q0 36 26.5 61.5t63.5 25.5q36 0 61.5 -25.5t25.5 -61.5q0 -37 -25.5 -62.5
t-61.5 -25.5z" />
    <glyph glyph-name="oslash" unicode="&#xf8;" horiz-adv-x="661" 
d="M583 567l-49 -71q97 -84 97 -220q0 -123 -84 -207q-83 -84 -217 -84q-71 0 -131 26l-55 -79l-73 50l53 77q-94 82 -94 217q0 122 83 207q84 85 217 85q71 0 128 -25l49 72zM206 277q0 -38 20 -70l132 192q-14 3 -28 3q-52 0 -88 -37q-36 -36 -36 -88zM330 150q53 0 89 36
q36 38 36 91q0 41 -22 72l-135 -195q12 -4 32 -4z" />
    <glyph glyph-name="ugrave" unicode="&#xf9;" horiz-adv-x="629" 
d="M334 812l64 -183h-159l-94 183h189zM49 241v311h177v-313q0 -41 24 -66.5t64 -25.5q41 0 65 25t24 67v313h177v-311q0 -121 -70.5 -188t-195.5 -67t-195 67t-70 188z" />
    <glyph glyph-name="uacute" unicode="&#xfa;" horiz-adv-x="629" 
d="M388 629h-158l64 183h189zM49 241v311h177v-313q0 -41 24 -66.5t64 -25.5q41 0 65 25t24 67v313h177v-311q0 -121 -70.5 -188t-195.5 -67t-195 67t-70 188z" />
    <glyph glyph-name="ucircumflex" unicode="&#xfb;" horiz-adv-x="629" 
d="M255 633h-160l154 185h134l155 -185h-165l-59 84zM49 241v311h177v-313q0 -41 24 -66.5t64 -25.5q41 0 65 25t24 67v313h177v-311q0 -121 -70.5 -188t-195.5 -67t-195 67t-70 188z" />
    <glyph glyph-name="udieresis" unicode="&#xfc;" horiz-adv-x="629" 
d="M103 711q0 40 27.5 67.5t68.5 27.5t68.5 -27.5t27.5 -67.5q0 -42 -27.5 -69t-68.5 -27t-68.5 27t-27.5 69zM334 711q0 40 28 67.5t69 27.5t68.5 -27.5t27.5 -67.5q0 -42 -27.5 -69t-68.5 -27q-42 0 -69.5 27t-27.5 69zM49 241v311h177v-313q0 -41 24 -66.5t64 -25.5
q41 0 65 25t24 67v313h177v-311q0 -121 -70.5 -188t-195.5 -67t-195 67t-70 188z" />
    <glyph glyph-name="yacute" unicode="&#xfd;" horiz-adv-x="634" 
d="M297 812h189l-95 -183h-158zM329 235l109 317h191l-214 -553q-46 -118 -109.5 -176t-157.5 -58q-70 0 -119 31l34 145q37 -19 72 -19q65 0 106 80l3 7l-240 543h203z" />
    <glyph glyph-name="thorn" unicode="&#xfe;" horiz-adv-x="692" 
d="M387 566q115 0 195 -84q80 -85 80 -205t-80 -206q-79 -85 -193 -85q-89 0 -157 65v-278h-176v990h173v-261q65 64 158 64zM479 275q0 54 -35.5 90.5t-89.5 36.5t-89.5 -36.5t-35.5 -90.5q0 -52 35 -90q36 -37 90 -37q55 0 89 37q36 37 36 90z" />
    <glyph glyph-name="ydieresis" unicode="&#xff;" horiz-adv-x="634" 
d="M113 712q0 40 27.5 67.5t68.5 27.5t68.5 -27.5t27.5 -67.5q0 -42 -27.5 -69t-68.5 -27t-68.5 27t-27.5 69zM344 712q0 40 28 67.5t69 27.5t68.5 -27.5t27.5 -67.5q0 -42 -27.5 -69t-68.5 -27q-42 0 -69.5 27t-27.5 69zM329 235l109 317h191l-214 -553
q-46 -118 -109.5 -176t-157.5 -58q-70 0 -119 31l34 145q37 -19 72 -19q65 0 106 80l3 7l-240 543h203z" />
    <glyph glyph-name="Amacron" unicode="&#x100;" horiz-adv-x="713" 
d="M164 959h391v-151l-391 -2v153zM709 0h-192l-43 135h-235l-44 -135h-193l270 739h174zM286 297h143l-70 219z" />
    <glyph glyph-name="amacron" unicode="&#x101;" horiz-adv-x="689" 
d="M174 787h343v-151l-343 -2v153zM464 502v50h166v-552h-166v48q-68 -62 -163 -62q-117 0 -194 84q-76 83 -76 208q0 126 76 206q76 82 194 82q96 0 163 -64zM462 277q0 53 -37 90q-38 38 -91 38q-55 0 -91 -38q-36 -37 -36 -90q0 -55 36 -92q38 -38 91 -38t91 38
q37 37 37 92z" />
    <glyph glyph-name="Abreve" unicode="&#x102;" horiz-adv-x="713" 
d="M146 987h143q2 -36 19.5 -58.5t49.5 -22.5t50 23t19 58h145q-8 -95 -65 -148t-149 -53q-93 0 -149 53t-63 148zM709 0h-192l-43 135h-235l-44 -135h-193l270 739h174zM286 297h143l-70 219z" />
    <glyph glyph-name="abreve" unicode="&#x103;" horiz-adv-x="689" 
d="M343 625q-87 0 -139.5 49.5t-59.5 138.5h134q2 -34 19 -55t46 -21q30 0 47 21.5t18 54.5h136q-7 -89 -60.5 -138.5t-140.5 -49.5zM464 502v50h166v-552h-166v48q-68 -62 -163 -62q-117 0 -194 84q-76 83 -76 208q0 126 76 206q76 82 194 82q96 0 163 -64zM462 277
q0 53 -37 90q-38 38 -91 38q-55 0 -91 -38q-36 -37 -36 -90q0 -55 36 -92q38 -38 91 -38t91 38q37 37 37 92z" />
    <glyph glyph-name="Aogonek" unicode="&#x104;" horiz-adv-x="710" 
d="M696 -129l28 -108q-57 -30 -117 -30q-59 0 -93 33.5t-34 85.5q0 83 92 148h-55l-43 135h-235l-44 -135h-193l270 739h174l263 -739q-36 -17 -62.5 -47.5t-26.5 -56.5q0 -17 10 -26.5t25 -9.5q11 0 41 11zM286 297h143l-70 219z" />
    <glyph glyph-name="aogonek" unicode="&#x105;" horiz-adv-x="680" 
d="M617 -129l28 -108q-57 -30 -117 -30q-59 0 -93 33.5t-34 85.5q0 83 92 148h-29v48q-68 -62 -163 -62q-117 0 -194 84q-76 83 -76 208q0 126 76 206q76 82 194 82q96 0 163 -64v50h166v-552q-36 -17 -62.5 -47.5t-26.5 -56.5q0 -17 10 -26.5t25 -9.5q11 0 41 11zM462 277
q0 53 -37 90q-38 38 -91 38q-55 0 -91 -38q-36 -37 -36 -90q0 -55 36 -92q38 -38 91 -38t91 38q37 37 37 92z" />
    <glyph glyph-name="Cacute" unicode="&#x106;" horiz-adv-x="756" 
d="M503 794h-168l68 195h201zM416 -11q-162 0 -271 105q-109 106 -109 273q0 168 110 276q110 109 271 109q98 0 181.5 -39t135.5 -107l-119 -125q-86 92 -186 92q-85 0 -143 -58q-57 -59 -57 -147q0 -86 57 -144q58 -57 142 -57q110 0 190 95l124 -119q-51 -67 -137 -111
q-85 -43 -189 -43z" />
    <glyph glyph-name="cacute" unicode="&#x107;" horiz-adv-x="607" 
d="M398 629h-158l64 183h189zM324 -12q-130 0 -212 81q-81 81 -81 208t82 208q83 81 214 81q88 0 158 -42t105 -119l-141 -74q-42 71 -118 71q-55 0 -91 -36q-35 -37 -35 -89q0 -55 35.5 -91t88.5 -36q38 0 70.5 19.5t47.5 51.5l141 -84q-36 -69 -106.5 -109t-157.5 -40z
" />
    <glyph glyph-name="Ccircumflex" unicode="&#x108;" horiz-adv-x="756" 
d="M349 795h-170l164 197h142l166 -197h-176l-63 90zM416 -11q-162 0 -271 105q-109 106 -109 273q0 168 110 276q110 109 271 109q98 0 181.5 -39t135.5 -107l-119 -125q-86 92 -186 92q-85 0 -143 -58q-57 -59 -57 -147q0 -86 57 -144q58 -57 142 -57q110 0 190 95
l124 -119q-51 -67 -137 -111q-85 -43 -189 -43z" />
    <glyph glyph-name="ccircumflex" unicode="&#x109;" horiz-adv-x="607" 
d="M262 630h-160l154 185h134l155 -185h-165l-59 84zM324 -12q-130 0 -212 81q-81 81 -81 208t82 208q83 81 214 81q88 0 158 -42t105 -119l-141 -74q-42 71 -118 71q-55 0 -91 -36q-35 -37 -35 -89q0 -55 35.5 -91t88.5 -36q38 0 70.5 19.5t47.5 51.5l141 -84
q-36 -69 -106.5 -109t-157.5 -40z" />
    <glyph glyph-name="Cdotaccent" unicode="&#x10a;" horiz-adv-x="756" 
d="M416 791q-44 0 -73 29t-29 73q0 43 29.5 71.5t72.5 28.5t72 -28.5t29 -71.5q0 -44 -29 -73t-72 -29zM416 -11q-162 0 -271 105q-109 106 -109 273q0 168 110 276q110 109 271 109q98 0 181.5 -39t135.5 -107l-119 -125q-86 92 -186 92q-85 0 -143 -58q-57 -59 -57 -147
q0 -86 57 -144q58 -57 142 -57q110 0 190 95l124 -119q-51 -67 -137 -111q-85 -43 -189 -43z" />
    <glyph glyph-name="cdotaccent" unicode="&#x10b;" horiz-adv-x="607" 
d="M324 604q-44 0 -73 29t-29 73q0 43 29.5 71.5t72.5 28.5t72 -28.5t29 -71.5q0 -44 -29 -73t-72 -29zM324 -12q-130 0 -212 81q-81 81 -81 208t82 208q83 81 214 81q88 0 158 -42t105 -119l-141 -74q-42 71 -118 71q-55 0 -91 -36q-35 -37 -35 -89q0 -55 35.5 -91
t88.5 -36q38 0 70.5 19.5t47.5 51.5l141 -84q-36 -69 -106.5 -109t-157.5 -40z" />
    <glyph glyph-name="Ccaron" unicode="&#x10c;" horiz-adv-x="756" 
d="M355 796l-154 185h160l59 -84l59 84h165l-155 -185h-134zM416 -11q-162 0 -271 105q-109 106 -109 273q0 168 110 276q110 109 271 109q98 0 181.5 -39t135.5 -107l-119 -125q-86 92 -186 92q-85 0 -143 -58q-57 -59 -57 -147q0 -86 57 -144q58 -57 142 -57q110 0 190 95
l124 -119q-51 -67 -137 -111q-85 -43 -189 -43z" />
    <glyph glyph-name="ccaron" unicode="&#x10d;" horiz-adv-x="607" 
d="M260 629l-154 185h160l59 -84l59 84h165l-155 -185h-134zM324 -12q-130 0 -212 81q-81 81 -81 208t82 208q83 81 214 81q88 0 158 -42t105 -119l-141 -74q-42 71 -118 71q-55 0 -91 -36q-35 -37 -35 -89q0 -55 35.5 -91t88.5 -36q38 0 70.5 19.5t47.5 51.5l141 -84
q-36 -69 -106.5 -109t-157.5 -40z" />
    <glyph glyph-name="Dcaron" unicode="&#x10e;" horiz-adv-x="780" 
d="M289 796l-154 185h160l59 -84l59 84h165l-155 -185h-134zM371 0h-298v739h301q172 0 270 -99q98 -100 98 -271t-99 -270q-97 -99 -272 -99zM260 560v-381h120q81 0 124 55q44 56 44 136q0 79 -44 135q-43 55 -124 55h-120z" />
    <glyph glyph-name="dcaron" unicode="&#x10f;" horiz-adv-x="711" 
d="M659 627l70 188h181l-101 -188h-150zM450 509v254h177v-763h-172v48q-62 -62 -154 -62q-117 0 -193 82q-77 83 -77 208q0 124 77 207q78 83 193 83q89 0 149 -57zM331 147q54 0 90 37.5t36 92.5q0 54 -36 91t-90 37t-90 -38q-36 -37 -36 -90q0 -55 36 -93q36 -37 90 -37z
" />
    <glyph glyph-name="Dcroat" unicode="&#x110;" horiz-adv-x="792" 
d="M86 739h301q173 0 270 -99q98 -100 98 -271t-99 -270q-98 -99 -272 -99h-298v297h-66v146h66v296zM273 179h120q81 0 124 55q44 56 44 136q0 79 -44 135q-43 55 -124 55h-120v-117h174v-146h-174v-118z" />
    <glyph glyph-name="dslash" unicode="&#x111;" horiz-adv-x="681" 
d="M627 695h72v-104h-72v-591h-172v48q-62 -62 -154 -62q-117 0 -193 82q-77 83 -77 208q0 124 77 207q78 83 193 83q89 0 149 -57v82h-124v104h124v68h177v-68zM331 147q54 0 90 37.5t36 92.5q0 54 -36 91t-90 37t-90 -38q-36 -37 -36 -90q0 -55 36 -93q36 -37 90 -37z" />
    <glyph glyph-name="Emacron" unicode="&#x112;" horiz-adv-x="659" 
d="M538 806l-391 -2v153h391v-151zM606 0h-533v739h534v-173h-346v-109h320v-172h-320v-112h345v-173z" />
    <glyph glyph-name="emacron" unicode="&#x113;" 
d="M150 790h343v-151l-343 -2v153zM609 290q0 -34 -6 -71h-394q30 -87 135 -87q91 0 167 51l69 -119q-106 -76 -244 -76q-146 0 -226 83q-79 83 -79 205q0 125 82 207q83 83 213 83q123 0 203 -74t80 -202zM326 425q-91 0 -119 -85h234q-11 40 -41 62.5t-74 22.5z" />
    <glyph glyph-name="Ebreve" unicode="&#x114;" horiz-adv-x="659" 
d="M136 987h143q2 -36 19.5 -58.5t49.5 -22.5t50 23t19 58h145q-8 -95 -65 -148t-149 -53q-93 0 -149 53t-63 148zM606 0h-533v739h534v-173h-346v-109h320v-172h-320v-112h345v-173z" />
    <glyph glyph-name="ebreve" unicode="&#x115;" 
d="M329 623q-87 0 -139.5 49.5t-59.5 138.5h134q2 -34 19 -55t46 -21q30 0 47 21.5t18 54.5h136q-7 -89 -60.5 -138.5t-140.5 -49.5zM609 290q0 -34 -6 -71h-394q30 -87 135 -87q91 0 167 51l69 -119q-106 -76 -244 -76q-146 0 -226 83q-79 83 -79 205q0 125 82 207
q83 83 213 83q123 0 203 -74t80 -202zM326 425q-91 0 -119 -85h234q-11 40 -41 62.5t-74 22.5z" />
    <glyph glyph-name="Edotaccent" unicode="&#x116;" horiz-adv-x="659" 
d="M342 791q-44 0 -73 29t-29 73q0 43 29.5 71.5t72.5 28.5t72 -28.5t29 -71.5q0 -44 -29 -73t-72 -29zM606 0h-533v739h534v-173h-346v-109h320v-172h-320v-112h345v-173z" />
    <glyph glyph-name="edotaccent" unicode="&#x117;" 
d="M332 608q-44 0 -73 29t-29 73q0 43 29.5 71.5t72.5 28.5t72 -28.5t29 -71.5q0 -44 -29 -73t-72 -29zM609 290q0 -34 -6 -71h-394q30 -87 135 -87q91 0 167 51l69 -119q-106 -76 -244 -76q-146 0 -226 83q-79 83 -79 205q0 125 82 207q83 83 213 83q123 0 203 -74t80 -202
zM326 425q-91 0 -119 -85h234q-11 40 -41 62.5t-74 22.5z" />
    <glyph glyph-name="Eogonek" unicode="&#x118;" horiz-adv-x="652" 
d="M593 -129l28 -108q-57 -30 -117 -30q-59 0 -93 33.5t-34 85.5q0 83 92 148h-396v739h534v-173h-346v-109h320v-172h-320v-112h345v-173q-36 -17 -62.5 -47.5t-26.5 -56.5q0 -17 10 -26.5t25 -9.5q11 0 41 11z" />
    <glyph glyph-name="eogonek" unicode="&#x119;" 
d="M608 290q0 -34 -6 -71h-394q30 -87 135 -87q91 0 167 51l69 -119q-55 -40 -128 -60q-36 -18 -60 -47t-24 -55q0 -17 10 -26.5t25 -9.5q11 0 41 11l28 -108q-57 -30 -117 -30q-59 0 -93 33.5t-34 85.5q0 70 71 132q-128 10 -199 92q-69 81 -69 194q0 125 82 207
q83 83 213 83q123 0 203 -74t80 -202zM325 425q-91 0 -119 -85h234q-11 40 -41 62.5t-74 22.5z" />
    <glyph glyph-name="Ecaron" unicode="&#x11a;" horiz-adv-x="659" 
d="M282 796l-154 185h160l59 -84l59 84h165l-155 -185h-134zM606 0h-533v739h534v-173h-346v-109h320v-172h-320v-112h345v-173z" />
    <glyph glyph-name="ecaron" unicode="&#x11b;" 
d="M549 812l-155 -185h-134l-154 185h160l59 -84l59 84h165zM609 290q0 -34 -6 -71h-394q30 -87 135 -87q91 0 167 51l69 -119q-106 -76 -244 -76q-146 0 -226 83q-79 83 -79 205q0 125 82 207q83 83 213 83q123 0 203 -74t80 -202zM326 425q-91 0 -119 -85h234
q-11 40 -41 62.5t-74 22.5z" />
    <glyph glyph-name="Gcircumflex" unicode="&#x11c;" horiz-adv-x="809" 
d="M369 798h-170l164 197h142l166 -197h-176l-63 90zM426 -11q-172 0 -282 107q-109 108 -109 273q0 167 113 275q114 108 284 108q85 0 162 -29.5t129 -78.5l-119 -139q-77 68 -174 68q-90 0 -147 -58q-57 -59 -57 -144q0 -83 56 -144q56 -60 148 -60q47 0 92.5 16.5
t73.5 42.5v64h-168v160h337v-320q-145 -141 -339 -141z" />
    <glyph glyph-name="gcircumflex" unicode="&#x11d;" horiz-adv-x="681" 
d="M389 628l-59 84l-59 -84h-160l154 185h134l155 -185h-165zM467 506v46h159v-499q0 -131 -89 -209t-225 -78q-148 0 -261 83l64 129q96 -63 190 -63q72 0 112.5 35.5t40.5 91.5v12q-58 -55 -154 -55q-123 0 -198 79q-75 80 -75 203q0 126 80 206q79 79 201 79
q92 0 155 -60zM459 279q0 54 -35.5 89.5t-89.5 35.5t-89.5 -35t-35.5 -90t35.5 -91.5t89.5 -36.5t89.5 36.5t35.5 91.5z" />
    <glyph glyph-name="Gbreve" unicode="&#x11e;" horiz-adv-x="809" 
d="M213 990h143q2 -36 20 -58.5t49 -22.5q32 0 50 23t19 58h145q-8 -95 -65 -148t-149 -53q-93 0 -149 53t-63 148zM426 -11q-172 0 -282 107q-109 108 -109 273q0 167 113 275q114 108 284 108q85 0 162 -29.5t129 -78.5l-119 -139q-77 68 -174 68q-90 0 -147 -58
q-57 -59 -57 -144q0 -83 56 -144q56 -60 148 -60q47 0 92.5 16.5t73.5 42.5v64h-168v160h337v-320q-145 -141 -339 -141z" />
    <glyph glyph-name="gbreve" unicode="&#x11f;" horiz-adv-x="681" 
d="M327 623q-87 0 -139.5 49.5t-59.5 138.5h134q2 -34 19 -55t46 -21q30 0 47 21.5t18 54.5h136q-7 -89 -60.5 -138.5t-140.5 -49.5zM467 506v46h159v-499q0 -131 -89 -209t-225 -78q-148 0 -261 83l64 129q96 -63 190 -63q72 0 112.5 35.5t40.5 91.5v12q-58 -55 -154 -55
q-123 0 -198 79q-75 80 -75 203q0 126 80 206q79 79 201 79q92 0 155 -60zM459 279q0 54 -35.5 89.5t-89.5 35.5t-89.5 -35t-35.5 -90t35.5 -91.5t89.5 -36.5t89.5 36.5t35.5 91.5z" />
    <glyph glyph-name="Gdotaccent" unicode="&#x120;" horiz-adv-x="809" 
d="M428 788q-44 0 -73 29t-29 73q0 43 29.5 71.5t72.5 28.5t72 -28.5t29 -71.5q0 -44 -29 -73t-72 -29zM426 -11q-172 0 -282 107q-109 108 -109 273q0 167 113 275q114 108 284 108q85 0 162 -29.5t129 -78.5l-119 -139q-77 68 -174 68q-90 0 -147 -58q-57 -59 -57 -144
q0 -83 56 -144q56 -60 148 -60q47 0 92.5 16.5t73.5 42.5v64h-168v160h337v-320q-145 -141 -339 -141z" />
    <glyph glyph-name="gdotaccent" unicode="&#x121;" horiz-adv-x="681" 
d="M331 606q-44 0 -73 29t-29 73q0 43 29.5 71.5t72.5 28.5t72 -28.5t29 -71.5q0 -44 -29 -73t-72 -29zM467 506v46h159v-499q0 -131 -89 -209t-225 -78q-148 0 -261 83l64 129q96 -63 190 -63q72 0 112.5 35.5t40.5 91.5v12q-58 -55 -154 -55q-123 0 -198 79
q-75 80 -75 203q0 126 80 206q79 79 201 79q92 0 155 -60zM459 279q0 54 -35.5 89.5t-89.5 35.5t-89.5 -35t-35.5 -90t35.5 -91.5t89.5 -36.5t89.5 36.5t35.5 91.5z" />
    <glyph glyph-name="Gcommaaccent" unicode="&#x122;" horiz-adv-x="809" 
d="M428 290v160h337v-320q-145 -141 -339 -141q-172 0 -282 107q-109 108 -109 273q0 167 113 275q114 108 284 108q85 0 162 -29.5t129 -78.5l-119 -139q-77 68 -174 68q-90 0 -147 -58q-57 -59 -57 -144q0 -83 56 -144q56 -60 148 -60q47 0 92.5 16.5t73.5 42.5v64h-168z
M530 -145q0 -52 -39 -99.5t-129 -113.5l-61 77q51 37 80 65q-23 10 -38.5 33t-15.5 50q0 39 28.5 66t70.5 27q43 0 73.5 -29.5t30.5 -75.5z" />
    <glyph glyph-name="gcommaaccent" unicode="&#x123;" horiz-adv-x="681" 
d="M228 704q0 49 36.5 94t124.5 110l59 -74q-49 -36 -77 -62q23 -10 37.5 -32t14.5 -48q0 -37 -27 -63t-68 -26q-42 0 -71 28t-29 73zM467 506v46h159v-499q0 -131 -89 -209t-225 -78q-148 0 -261 83l64 129q96 -63 190 -63q72 0 112.5 35.5t40.5 91.5v12q-58 -55 -154 -55
q-123 0 -198 79q-75 80 -75 203q0 126 80 206q79 79 201 79q92 0 155 -60zM459 279q0 54 -35.5 89.5t-89.5 35.5t-89.5 -35t-35.5 -90t35.5 -91.5t89.5 -36.5t89.5 36.5t35.5 91.5z" />
    <glyph glyph-name="Hcircumflex" unicode="&#x124;" horiz-adv-x="780" 
d="M327 795h-170l164 197h142l166 -197h-176l-63 90zM260 0h-187v739h187v-282h259v282h188v-739h-188v278h-259v-278z" />
    <glyph glyph-name="hcircumflex" unicode="&#x125;" horiz-adv-x="665" 
d="M80 802h-170l164 197h142l166 -197h-176l-63 90zM234 0h-176v763h172v-286q21 38 68 64t105 26q89 0 151 -59t62 -169v-339h-177v292q0 54 -26 84t-71 30q-48 0 -78 -32.5t-30 -85.5v-288z" />
    <glyph glyph-name="Hbar" unicode="&#x126;" horiz-adv-x="807" 
d="M719 653h70v-116h-70v-537h-188v278h-259v-278h-187v537h-71v116h71v86h187v-86h259v86h188v-86zM272 457h259v80h-259v-80z" />
    <glyph glyph-name="hbar" unicode="&#x127;" horiz-adv-x="665" 
d="M403 567q89 0 151 -59t62 -169v-339h-177v292q0 54 -26 84t-71 30q-48 0 -78 -32.5t-30 -85.5v-288h-176v592h-67v104h67v67h172v-67h134v-104h-134v-115q21 38 68 64t105 26z" />
    <glyph glyph-name="Itilde" unicode="&#x128;" horiz-adv-x="334" 
d="M40 786l-116 58q36 71 75 103t95 32q35 0 78 -23q41 -22 58 -22q32 0 62 53l117 -56q-58 -136 -156 -136q-31 0 -79 23q-45 24 -65 24q-40 0 -69 -56zM74 0v739h188v-739h-188z" />
    <glyph glyph-name="itilde" unicode="&#x129;" horiz-adv-x="288" 
d="M27 616l-111 56q34 68 72 99t91 31q35 0 75 -22q41 -21 56 -21q30 0 60 50l112 -53q-57 -131 -150 -131q-33 0 -76 22q-44 23 -62 23q-38 0 -67 -54zM237 552v-552h-177v552h177z" />
    <glyph glyph-name="Imacron" unicode="&#x12a;" horiz-adv-x="334" 
d="M363 811l-391 -2v153h391v-151zM74 0v739h188v-739h-188z" />
    <glyph glyph-name="imacron" unicode="&#x12b;" horiz-adv-x="288" 
d="M320 640l-343 -2v153h343v-151zM237 552v-552h-177v552h177z" />
    <glyph glyph-name="Ibreve" unicode="&#x12c;" horiz-adv-x="334" 
d="M-45 990h143q2 -36 20 -58.5t49 -22.5q32 0 50 23t19 58h145q-8 -95 -65 -148t-149 -53q-93 0 -149 53t-63 148zM74 0v739h188v-739h-188z" />
    <glyph glyph-name="ibreve" unicode="&#x12d;" horiz-adv-x="288" 
d="M147 626q-87 0 -139.5 49.5t-59.5 138.5h134q2 -34 19 -55t46 -21q30 0 47 21.5t18 54.5h136q-7 -89 -60.5 -138.5t-140.5 -49.5zM237 552v-552h-177v552h177z" />
    <glyph glyph-name="Iogonek" unicode="&#x12e;" horiz-adv-x="334" 
d="M249 -129l28 -108q-57 -30 -117 -30q-59 0 -93 33.5t-34 85.5q0 83 92 148h-52v739h188v-739h1q-36 -17 -62.5 -47.5t-26.5 -56.5q0 -17 10 -26.5t25 -9.5q11 0 41 11z" />
    <glyph glyph-name="iogonek" unicode="&#x12f;" horiz-adv-x="288" 
d="M149 601q-44 0 -73 29t-29 73q0 43 29.5 71.5t72.5 28.5t72 -28.5t29 -71.5q0 -44 -29 -73t-72 -29zM224 -129l28 -108q-57 -30 -117 -30q-59 0 -93 33.5t-34 85.5q0 83 92 148h-40v552h177v-552q-36 -17 -62.5 -47.5t-26.5 -56.5q0 -17 10 -26.5t25 -9.5q11 0 41 11z
" />
    <glyph glyph-name="Idot" unicode="&#x130;" horiz-adv-x="334" 
d="M162 788q-44 0 -73 29t-29 73q0 43 29.5 71.5t72.5 28.5t72 -28.5t29 -71.5q0 -44 -29 -73t-72 -29zM68 0v739h188v-739h-188z" />
    <glyph glyph-name="dotlessi" unicode="&#x131;" horiz-adv-x="288" 
d="M233 552v-552h-177v552h177z" />
    <glyph glyph-name="IJ" unicode="&#x132;" horiz-adv-x="933" 
d="M73 0v739h188v-739h-188zM572 -12q-147 0 -241 88l80 150q68 -59 141 -59q63 0 99 39t36 106v427h187v-433q0 -84 -24.5 -147t-67.5 -99.5t-95.5 -54t-114.5 -17.5z" />
    <glyph glyph-name="ij" unicode="&#x133;" horiz-adv-x="623" 
d="M148 601q-44 0 -73 29t-29 73q0 43 29.5 71.5t72.5 28.5t72 -28.5t29 -71.5q0 -44 -29 -73t-72 -29zM439 601q-44 0 -73 29t-29 73q0 43 29.5 71.5t72.5 28.5t72 -28.5t29 -71.5q0 -44 -29 -73t-72 -29zM237 552v-552h-177v552h177zM294 -235q-98 0 -148 33l32 137
q51 -17 83 -17q90 0 90 105v529h177v-547q0 -121 -66 -180q-64 -60 -168 -60z" />
    <glyph glyph-name="Jcircumflex" unicode="&#x134;" horiz-adv-x="600" 
d="M382 795h-170l164 197h142l166 -197h-176l-63 90zM239 -12q-147 0 -241 88l80 150q68 -59 141 -59q63 0 99 39t36 106v427h187v-433q0 -84 -24.5 -147t-67.5 -99.5t-95.5 -54t-114.5 -17.5z" />
    <glyph glyph-name="jcircumflex" unicode="&#x135;" horiz-adv-x="312" 
d="M105 631h-160l154 185h134l155 -185h-165l-59 84zM23 -235q-99 0 -148 33l32 137q51 -17 83 -17q90 0 90 105v529h177v-547q0 -121 -66 -180q-65 -60 -168 -60z" />
    <glyph glyph-name="Kcommaaccent" unicode="&#x136;" horiz-adv-x="720" 
d="M719 739l-256 -327l269 -412h-228l-164 266l-80 -97v-169h-187v739h187v-304l233 304h226zM479 -136q0 -52 -39 -99.5t-129 -113.5l-61 77q51 37 80 65q-23 10 -38.5 33t-15.5 50q0 39 28.5 66t70.5 27q43 0 73.5 -29.5t30.5 -75.5z" />
    <glyph glyph-name="kcommaaccent" unicode="&#x137;" horiz-adv-x="614" 
d="M258 219l-26 -24v-195h-176v763h176v-371l166 160h215l-237 -222l255 -330h-210zM422 -116q0 -49 -36.5 -94t-124.5 -110l-59 74q49 36 77 62q-23 10 -37.5 32t-14.5 48q0 37 27 63t68 26q42 0 71 -28t29 -73z" />
    <glyph glyph-name="kgreenlandic" unicode="&#x138;" horiz-adv-x="597" 
d="M610 0h-202l-147 202l-35 -36v-166h-170v552h170v-182l174 182h203l-229 -235z" />
    <glyph glyph-name="Lacute" unicode="&#x139;" horiz-adv-x="633" 
d="M253 794h-168l68 195h201zM620 0h-547v739h188v-561h359v-178z" />
    <glyph glyph-name="lacute" unicode="&#x13a;" horiz-adv-x="285" 
d="M226 797h-168l68 195h201zM232 763v-763h-176v763h176z" />
    <glyph glyph-name="Lcommaaccent" unicode="&#x13b;" horiz-adv-x="633" 
d="M261 739v-561h359v-178h-547v739h188zM459 -137q0 -52 -39 -99.5t-129 -113.5l-61 77q51 37 80 65q-23 10 -38.5 33t-15.5 50q0 39 28.5 66t70.5 27q43 0 73.5 -29.5t30.5 -75.5z" />
    <glyph glyph-name="lcommaaccent" unicode="&#x13c;" horiz-adv-x="287" 
d="M59 763h176v-763h-176v763zM241 -143q0 -49 -36.5 -94t-124.5 -110l-59 74q49 36 77 62q-23 10 -37.5 32t-14.5 48q0 37 27 63t68 26q42 0 71 -28t29 -73z" />
    <glyph glyph-name="Lcaron" unicode="&#x13d;" horiz-adv-x="639" 
d="M526 628h-150l70 188h181zM620 0h-547v739h188v-561h359v-178z" />
    <glyph glyph-name="lcaron" unicode="&#x13e;" horiz-adv-x="315" 
d="M405 627h-150l70 188h181zM232 763v-763h-176v763h176z" />
    <glyph glyph-name="Ldot" unicode="&#x13f;" horiz-adv-x="636" 
d="M620 0h-547v739h188v-561h359v-178zM485 329q-41 0 -69.5 27.5t-28.5 68.5q0 40 28.5 67t69.5 27q39 0 66.5 -27.5t27.5 -66.5q0 -41 -27.5 -68.5t-66.5 -27.5z" />
    <glyph glyph-name="ldot" unicode="&#x140;" horiz-adv-x="456" 
d="M232 763v-763h-176v763h176zM373 272q-41 0 -69.5 27.5t-28.5 68.5q0 40 28.5 67t69.5 27q39 0 66.5 -27.5t27.5 -66.5q0 -41 -27.5 -68.5t-66.5 -27.5z" />
    <glyph glyph-name="Lslash" unicode="&#x141;" horiz-adv-x="650" 
d="M278 347v-169h359v-178h-547v233l-66 -40v162l66 40v344h188v-230l100 61v-163z" />
    <glyph glyph-name="lslash" unicode="&#x142;" horiz-adv-x="377" 
d="M277 538l71 52v-168l-71 -52v-370h-176v243l-64 -47v168l64 47v352h176v-225z" />
    <glyph glyph-name="Nacute" unicode="&#x143;" horiz-adv-x="806" 
d="M477 794h-168l68 195h201zM549 338v401h184v-739h-141l-336 396v-396h-183v739h134z" />
    <glyph glyph-name="nacute" unicode="&#x144;" horiz-adv-x="664" 
d="M410 629h-158l64 183h189zM232 0h-176v552h172v-77q21 40 68 66t105 26q89 0 151 -59t62 -169v-339h-177v292q0 54 -26 84t-71 30q-48 0 -78 -32.5t-30 -86.5v-287z" />
    <glyph glyph-name="Ncommaaccent" unicode="&#x145;" horiz-adv-x="806" 
d="M549 338v401h184v-739h-141l-336 396v-396h-183v739h134zM519 -125q0 -52 -39 -99.5t-129 -113.5l-61 77q51 37 80 65q-23 10 -38.5 33t-15.5 50q0 39 28.5 66t70.5 27q43 0 73.5 -29.5t30.5 -75.5z" />
    <glyph glyph-name="ncommaaccent" unicode="&#x146;" horiz-adv-x="664" 
d="M401 567q89 0 151 -59t62 -169v-339h-177v292q0 54 -26 84t-71 30q-48 0 -78 -32.5t-30 -86.5v-287h-176v552h172v-77q21 40 68 66t105 26zM436 -125q0 -49 -36.5 -94t-124.5 -110l-59 74q49 36 77 62q-23 10 -37.5 32t-14.5 48q0 37 27 63t68 26q42 0 71 -28t29 -73z
" />
    <glyph glyph-name="Ncaron" unicode="&#x147;" horiz-adv-x="806" 
d="M342 796l-154 185h160l59 -84l59 84h165l-155 -185h-134zM549 338v401h184v-739h-141l-336 396v-396h-183v739h134z" />
    <glyph glyph-name="ncaron" unicode="&#x148;" horiz-adv-x="664" 
d="M270 626l-154 185h160l59 -84l59 84h165l-155 -185h-134zM232 0h-176v552h172v-77q21 40 68 66t105 26q89 0 151 -59t62 -169v-339h-177v292q0 54 -26 84t-71 30q-48 0 -78 -32.5t-30 -86.5v-287z" />
    <glyph glyph-name="napostrophe" unicode="&#x149;" horiz-adv-x="742" 
d="M102 628h-150l70 188h181zM310 0h-176v552h172v-77q21 40 68 66t105 26q89 0 151 -59t62 -169v-339h-177v292q0 54 -26 84t-71 30q-48 0 -78 -32.5t-30 -86.5v-287z" />
    <glyph glyph-name="Eng" unicode="&#x14a;" horiz-adv-x="806" 
d="M549 335v404h184v-672q0 -162 -84 -240q-83 -78 -210 -78q-78 0 -150 29l38 168q42 -21 99 -21q56 0 90 31.5t35 89.5l-295 351v-397h-183v739h134z" />
    <glyph glyph-name="eng" unicode="&#x14b;" horiz-adv-x="664" 
d="M314 -230v154q64 -5 93.5 16t29.5 79v275q0 53 -25.5 82.5t-70.5 29.5q-48 0 -78.5 -32.5t-30.5 -86.5v-287h-176v552h172v-75q22 39 68.5 64.5t104.5 25.5q90 0 151 -60q62 -59 62 -169v-324q0 -157 -95 -210q-81 -48 -205 -34z" />
    <glyph glyph-name="Omacron" unicode="&#x14c;" horiz-adv-x="843" 
d="M618 808l-391 -2v153h391v-151zM422 -12q-165 0 -277 110q-110 110 -110 271t111 272t275 111q165 0 276 -111t111 -272q0 -160 -111 -271q-110 -110 -275 -110zM421 173q82 0 138 56t56 141q-2 86 -58 141q-56 56 -136 56q-81 0 -137 -57q-56 -56 -56 -140
q0 -85 56 -141t137 -56z" />
    <glyph glyph-name="omacron" unicode="&#x14d;" horiz-adv-x="661" 
d="M503 638l-343 -2v153h343v-151zM330 -15q-133 0 -217 84q-83 85 -83 207t83 207q84 85 217 85q135 0 217 -85q84 -84 84 -207t-84 -207q-83 -84 -217 -84zM330 150q53 0 89 36q36 38 36 91t-37 89q-36 36 -88 36t-88 -37q-36 -36 -36 -88q0 -53 36 -91q36 -36 88 -36z
" />
    <glyph glyph-name="Obreve" unicode="&#x14e;" horiz-adv-x="843" 
d="M214 987h143q2 -36 19.5 -58.5t49.5 -22.5t50 23t19 58h145q-8 -95 -65 -148t-149 -53q-93 0 -149 53t-63 148zM422 -12q-165 0 -277 110q-110 110 -110 271t111 272t275 111q165 0 276 -111t111 -272q0 -160 -111 -271q-110 -110 -275 -110zM421 173q82 0 138 56t56 141
q-2 86 -58 141q-56 56 -136 56q-81 0 -137 -57q-56 -56 -56 -140q0 -85 56 -141t137 -56z" />
    <glyph glyph-name="obreve" unicode="&#x14f;" horiz-adv-x="661" 
d="M327 627q-87 0 -139.5 49.5t-59.5 138.5h134q2 -34 19 -55t46 -21q30 0 47 21.5t18 54.5h136q-7 -89 -60.5 -138.5t-140.5 -49.5zM330 -15q-133 0 -217 84q-83 85 -83 207t83 207q84 85 217 85q135 0 217 -85q84 -84 84 -207t-84 -207q-83 -84 -217 -84zM330 150
q53 0 89 36q36 38 36 91t-37 89q-36 36 -88 36t-88 -37q-36 -36 -36 -88q0 -53 36 -91q36 -36 88 -36z" />
    <glyph glyph-name="Ohungarumlaut" unicode="&#x150;" horiz-adv-x="843" 
d="M384 795h-156l46 195h190zM618 795h-161l71 195h197zM422 -12q-165 0 -277 110q-110 110 -110 271t111 272t275 111q165 0 276 -111t111 -272q0 -160 -111 -271q-110 -110 -275 -110zM421 173q82 0 138 56t56 141q-2 86 -58 141q-56 56 -136 56q-81 0 -137 -57
q-56 -56 -56 -140q0 -85 56 -141t137 -56z" />
    <glyph glyph-name="ohungarumlaut" unicode="&#x151;" horiz-adv-x="661" 
d="M297 629h-146l43 183h178zM517 629h-151l66 183h185zM330 -15q-133 0 -217 84q-83 85 -83 207t83 207q84 85 217 85q135 0 217 -85q84 -84 84 -207t-84 -207q-83 -84 -217 -84zM330 150q53 0 89 36q36 38 36 91t-37 89q-36 36 -88 36t-88 -37q-36 -36 -36 -88
q0 -53 36 -91q36 -36 88 -36z" />
    <glyph glyph-name="OE" unicode="&#x152;" horiz-adv-x="1062" 
d="M1010 739v-173h-346v-109h320v-172h-320v-112h345v-173h-525q-32 -3 -63 -3q-189 0 -286 103q-98 104 -98 269q0 166 97 269q98 104 284 104q30 0 63 -3h529zM231 370q0 -48 17 -91q18 -45 64.5 -74.5t111.5 -29.5q19 0 52 4v381q-33 4 -52 4q-100 0 -146 -58
q-47 -59 -47 -136z" />
    <glyph glyph-name="oe" unicode="&#x153;" horiz-adv-x="1060" 
d="M1031 290q0 -34 -6 -71h-394q30 -87 135 -87q90 0 167 51l69 -119q-106 -76 -244 -76q-140 0 -223 80q-83 -80 -210 -80q-131 0 -213 84q-82 83 -82 205t82 204q82 84 213 84q125 0 211 -80q82 81 212 81q123 0 203 -74t80 -202zM748 425q-91 0 -119 -85h234
q-11 40 -41 62.5t-74 22.5zM325 150q53 0 89 37q37 37 37 91q0 53 -37 89q-36 37 -89 37q-52 0 -88 -37q-36 -36 -36 -89q0 -54 36 -91t88 -37z" />
    <glyph glyph-name="Racute" unicode="&#x154;" horiz-adv-x="701" 
d="M291 989h201l-101 -195h-168zM677 0h-214l-130 245h-73v-245h-187v739h308q133 0 202 -70q69 -69 69 -175q0 -72 -34.5 -130.5t-100.5 -89.5zM379 568h-119v-160h112q61 -3 81 47q18 44 -8 82q-23 34 -66 31z" />
    <glyph glyph-name="racute" unicode="&#x155;" horiz-adv-x="460" 
d="M319 629h-158l64 183h189zM232 0h-176v552h169v-68q53 83 147 83q36 0 69 -15l-14 -168q-38 13 -73 13q-122 0 -122 -159v-238z" />
    <glyph glyph-name="Rcommaaccent" unicode="&#x156;" horiz-adv-x="701" 
d="M517 274l160 -274h-214l-130 245h-73v-245h-187v739h308q133 0 202 -70q69 -69 69 -175q0 -72 -34.5 -130.5t-100.5 -89.5zM379 568h-119v-160h112q61 -3 81 47q18 44 -8 82q-23 34 -66 31zM460 -128q0 -52 -39 -99.5t-129 -113.5l-61 77q51 37 80 65q-23 10 -38.5 33
t-15.5 50q0 39 28.5 66t70.5 27q43 0 73.5 -29.5t30.5 -75.5z" />
    <glyph glyph-name="rcommaaccent" unicode="&#x157;" horiz-adv-x="461" 
d="M374 567q36 0 69 -15l-14 -168q-38 13 -73 13q-122 0 -122 -159v-238h-176v552h169v-68q53 83 147 83zM242 -133q0 -49 -36.5 -94t-124.5 -110l-59 74q49 36 77 62q-23 10 -37.5 32t-14.5 48q0 37 27 63t68 26q42 0 71 -28t29 -73z" />
    <glyph glyph-name="Rcaron" unicode="&#x158;" horiz-adv-x="701" 
d="M554 981l-155 -185h-134l-154 185h160l59 -84l59 84h165zM677 0h-214l-130 245h-73v-245h-187v739h308q133 0 202 -70q69 -69 69 -175q0 -72 -34.5 -130.5t-100.5 -89.5zM379 568h-119v-160h112q61 -3 81 47q18 44 -8 82q-23 34 -66 31z" />
    <glyph glyph-name="rcaron" unicode="&#x159;" horiz-adv-x="460" 
d="M190 629l-154 185h160l59 -84l59 84h165l-155 -185h-134zM234 0h-176v552h169v-68q53 83 147 83q36 0 69 -15l-14 -168q-38 13 -73 13q-122 0 -122 -159v-238z" />
    <glyph glyph-name="Sacute" unicode="&#x15a;" horiz-adv-x="625" 
d="M399 792h-168l68 195h201zM314 -13q-185 0 -301 128l94 137q93 -93 210 -93q35 0 59 14.5t24 39.5q0 35 -60 57l-66 22q-71 26 -94 38q-122 65 -122 192q0 98 77 163t198 65q151 0 263 -93l-87 -142q-33 27 -82 44t-91 17q-37 0 -58 -13.5t-21 -34.5q0 -32 59 -55l65 -24
q54 -19 85 -32q141 -60 141 -194q0 -102 -80 -170q-79 -66 -213 -66z" />
    <glyph glyph-name="sacute" unicode="&#x15b;" horiz-adv-x="519" 
d="M343 629h-158l64 183h189zM263 -15q-144 0 -245 95l79 119q79 -69 165 -69q59 0 59 35q0 19 -30 31l-61 20q-64 23 -76 28q-103 48 -103 150q0 78 62 126q61 49 166 49q117 0 206 -72l-76 -116q-70 47 -133 47q-21 0 -35.5 -9t-14.5 -22q0 -26 50 -40q82 -23 130 -48
q94 -46 94 -140q0 -81 -64 -133q-64 -51 -173 -51z" />
    <glyph glyph-name="Scircumflex" unicode="&#x15c;" horiz-adv-x="625" 
d="M269 793h-170l164 197h142l166 -197h-176l-63 90zM314 -13q-185 0 -301 128l94 137q93 -93 210 -93q35 0 59 14.5t24 39.5q0 35 -60 57l-66 22q-71 26 -94 38q-122 65 -122 192q0 98 77 163t198 65q151 0 263 -93l-87 -142q-33 27 -82 44t-91 17q-37 0 -58 -13.5
t-21 -34.5q0 -32 59 -55l65 -24q54 -19 85 -32q141 -60 141 -194q0 -102 -80 -170q-79 -66 -213 -66z" />
    <glyph glyph-name="scircumflex" unicode="&#x15d;" horiz-adv-x="515" 
d="M207 630h-160l154 185h134l155 -185h-165l-59 84zM263 -15q-144 0 -245 95l79 119q79 -69 165 -69q59 0 59 35q0 19 -30 31l-61 20q-64 23 -76 28q-103 48 -103 150q0 78 62 126q61 49 166 49q117 0 206 -72l-76 -116q-70 47 -133 47q-21 0 -35.5 -9t-14.5 -22
q0 -26 50 -40q82 -23 130 -48q94 -46 94 -140q0 -81 -64 -133q-64 -51 -173 -51z" />
    <glyph glyph-name="Scedilla" unicode="&#x15e;" horiz-adv-x="625" 
d="M607 223q0 -92 -64 -156q-65 -64 -174 -77l-17 -39q46 -5 76 -33.5t30 -71.5q0 -52 -42 -89q-43 -38 -116 -38q-62 0 -132 32l35 96q42 -21 81 -21q48 0 48 32q0 33 -58 33h-53l-7 31l28 71q-137 21 -229 122l94 137q93 -93 210 -93q35 0 59 14.5t24 39.5q0 35 -60 57
l-66 22q-71 26 -94 38q-122 65 -122 192q0 98 77 163t198 65q151 0 263 -93l-87 -142q-33 27 -82 44t-91 17q-37 0 -58 -13.5t-21 -34.5q0 -32 59 -55l65 -24q54 -19 85 -32q141 -60 141 -194z" />
    <glyph glyph-name="scedilla" unicode="&#x15f;" horiz-adv-x="519" 
d="M500 169q0 -75 -54 -124.5t-147 -57.5l-14 -34q46 -5 76 -33.5t30 -71.5q0 -52 -42 -89q-43 -38 -116 -38q-62 0 -132 32l35 96q42 -21 81 -21q48 0 48 32q0 33 -58 33h-53l-7 31l28 71q-91 22 -157 85l79 119q79 -69 165 -69q59 0 59 35q0 19 -30 31l-61 20
q-64 23 -76 28q-103 48 -103 150q0 78 62 126q61 49 166 49q117 0 206 -72l-76 -116q-70 47 -133 47q-21 0 -35.5 -9t-14.5 -22q0 -26 50 -40q82 -23 130 -48q94 -46 94 -140z" />
    <glyph glyph-name="Scaron" unicode="&#x160;" horiz-adv-x="625" 
d="M268 795l-154 185h160l59 -84l59 84h165l-155 -185h-134zM314 -13q-185 0 -301 128l94 137q93 -93 210 -93q35 0 59 14.5t24 39.5q0 35 -60 57l-66 22q-71 26 -94 38q-122 65 -122 192q0 98 77 163t198 65q151 0 263 -93l-87 -142q-33 27 -82 44t-91 17q-37 0 -58 -13.5
t-21 -34.5q0 -32 59 -55l65 -24q54 -19 85 -32q141 -60 141 -194q0 -102 -80 -170q-79 -66 -213 -66z" />
    <glyph glyph-name="scaron" unicode="&#x161;" horiz-adv-x="515" 
d="M202 628l-154 185h160l59 -84l59 84h165l-155 -185h-134zM263 -15q-144 0 -245 95l79 119q79 -69 165 -69q59 0 59 35q0 19 -30 31l-61 20q-64 23 -76 28q-103 48 -103 150q0 78 62 126q61 49 166 49q117 0 206 -72l-76 -116q-70 47 -133 47q-21 0 -35.5 -9t-14.5 -22
q0 -26 50 -40q82 -23 130 -48q94 -46 94 -140q0 -81 -64 -133q-64 -51 -173 -51z" />
    <glyph glyph-name="Tcaron" unicode="&#x164;" horiz-adv-x="626" 
d="M250 796l-154 185h160l59 -84l59 84h165l-155 -185h-134zM219 0v559h-205v180h598v-180h-204v-559h-189z" />
    <glyph glyph-name="tcaron" unicode="&#x165;" horiz-adv-x="480" 
d="M359 626l70 188h181l-101 -188h-150zM351 147q40 0 87 25l47 -141q-77 -45 -176 -45q-205 0 -205 228v192h-84v146h86v196h175v-196h173v-146h-173v-171q0 -88 70 -88z" />
    <glyph glyph-name="Tbar" unicode="&#x166;" 
d="M618 739v-180h-204v-119h119v-146h-119v-294h-189v294h-119v146h119v119h-205v180h598z" />
    <glyph glyph-name="tbar" unicode="&#x167;" horiz-adv-x="493" 
d="M442 172l47 -141q-77 -45 -176 -45q-205 0 -205 228v23h-82v108h82v61h-84v146h86v196h175v-196h173v-146h-173v-61h165v-108h-165v-2q0 -88 70 -88q40 0 87 25z" />
    <glyph glyph-name="Utilde" unicode="&#x168;" horiz-adv-x="740" 
d="M246 784l-116 58q36 71 75 103t95 32q35 0 78 -23q41 -22 58 -22q32 0 62 53l117 -56q-58 -136 -156 -136q-31 0 -79 23q-45 24 -65 24q-40 0 -69 -56zM65 287v452h188v-449q0 -60 31.5 -91.5t85.5 -31.5q53 0 84.5 32t31.5 91v449h189v-452q0 -79 -25.5 -138.5
t-69.5 -94t-97 -51t-113 -16.5t-112.5 16.5t-97 51t-70 94t-25.5 138.5z" />
    <glyph glyph-name="utilde" unicode="&#x169;" horiz-adv-x="629" 
d="M191 618l-111 56q34 68 72 99t91 31q35 0 75 -22q41 -21 56 -21q30 0 60 50l112 -53q-57 -131 -150 -131q-33 0 -76 22q-44 23 -62 23q-38 0 -67 -54zM49 241v311h177v-313q0 -41 24 -66.5t64 -25.5q41 0 65 25t24 67v313h177v-311q0 -121 -70.5 -188t-195.5 -67t-195 67
t-70 188z" />
    <glyph glyph-name="Umacron" unicode="&#x16a;" horiz-adv-x="740" 
d="M567 812l-391 -2v153h391v-151zM65 287v452h188v-449q0 -60 31.5 -91.5t85.5 -31.5q53 0 84.5 32t31.5 91v449h189v-452q0 -79 -25.5 -138.5t-69.5 -94t-97 -51t-113 -16.5t-112.5 16.5t-97 51t-70 94t-25.5 138.5z" />
    <glyph glyph-name="umacron" unicode="&#x16b;" horiz-adv-x="629" 
d="M486 639l-343 -2v153h343v-151zM49 241v311h177v-313q0 -41 24 -66.5t64 -25.5q41 0 65 25t24 67v313h177v-311q0 -121 -70.5 -188t-195.5 -67t-195 67t-70 188z" />
    <glyph glyph-name="Ubreve" unicode="&#x16c;" horiz-adv-x="740" 
d="M159 987h143q2 -36 20 -58.5t49 -22.5q32 0 50 23t19 58h145q-8 -95 -65 -148t-149 -53q-93 0 -149 53t-63 148zM65 287v452h188v-449q0 -60 31.5 -91.5t85.5 -31.5q53 0 84.5 32t31.5 91v449h189v-452q0 -79 -25.5 -138.5t-69.5 -94t-97 -51t-113 -16.5t-112.5 16.5
t-97 51t-70 94t-25.5 138.5z" />
    <glyph glyph-name="ubreve" unicode="&#x16d;" horiz-adv-x="629" 
d="M314 623q-87 0 -139.5 49.5t-59.5 138.5h134q2 -34 19 -55t46 -21q31 0 47.5 21t17.5 55h136q-7 -89 -60.5 -138.5t-140.5 -49.5zM49 241v311h177v-313q0 -41 24 -66.5t64 -25.5q41 0 65 25t24 67v313h177v-311q0 -121 -70.5 -188t-195.5 -67t-195 67t-70 188z" />
    <glyph glyph-name="Uring" unicode="&#x16e;" horiz-adv-x="740" 
d="M215 925q0 63 45 107q46 44 110 44t110 -44q45 -44 45 -107q0 -61 -45 -105q-44 -43 -110 -43t-110 43q-45 44 -45 105zM370 873q22 0 37.5 16t15.5 38t-15.5 37.5t-37.5 15.5q-23 0 -38.5 -15t-15.5 -38q0 -22 15.5 -38t38.5 -16zM65 287v452h188v-449q0 -60 31.5 -91.5
t85.5 -31.5q53 0 84.5 32t31.5 91v449h189v-452q0 -79 -25.5 -138.5t-69.5 -94t-97 -51t-113 -16.5t-112.5 16.5t-97 51t-70 94t-25.5 138.5z" />
    <glyph glyph-name="uring" unicode="&#x16f;" horiz-adv-x="629" 
d="M168 743q0 59 42 100q43 42 104 42t103 -42q42 -41 42 -100t-42 -99q-41 -40 -103 -40q-61 0 -104 40q-42 40 -42 99zM314 694q20 0 34.5 15t14.5 36t-14.5 35t-34.5 14q-22 0 -36.5 -14t-14.5 -35t14.5 -36t36.5 -15zM49 241v311h177v-313q0 -41 24 -66.5t64 -25.5
q41 0 65 25t24 67v313h177v-311q0 -121 -70.5 -188t-195.5 -67t-195 67t-70 188z" />
    <glyph glyph-name="Uhungarumlaut" unicode="&#x170;" horiz-adv-x="741" 
d="M331 795h-156l46 195h190zM565 795h-161l71 195h197zM65 287v452h188v-449q0 -60 31.5 -91.5t85.5 -31.5q53 0 84.5 32t31.5 91v449h189v-452q0 -79 -25.5 -138.5t-69.5 -94t-97 -51t-113 -16.5t-112.5 16.5t-97 51t-70 94t-25.5 138.5z" />
    <glyph glyph-name="uhungarumlaut" unicode="&#x171;" horiz-adv-x="622" 
d="M273 629h-146l43 183h178zM493 629h-151l66 183h185zM49 241v311h177v-313q0 -41 24 -66.5t64 -25.5q41 0 65 25t24 67v313h177v-311q0 -121 -70.5 -188t-195.5 -67t-195 67t-70 188z" />
    <glyph glyph-name="Uogonek" unicode="&#x172;" horiz-adv-x="740" 
d="M486 290v449h189v-452q0 -111 -50 -182.5t-138 -99.5q-36 -18 -61 -47.5t-25 -55.5q0 -17 10 -26.5t25 -9.5q11 0 41 11l28 -108q-57 -30 -117 -30q-59 0 -93 33.5t-34 85.5q0 71 70 131q-114 10 -191 84q-75 73 -75 214v452h188v-449q0 -60 31.5 -91.5t85.5 -31.5
q53 0 84.5 32t31.5 91z" />
    <glyph glyph-name="uogonek" unicode="&#x173;" horiz-adv-x="629" 
d="M403 239v313h177v-311q0 -94 -43 -156t-122 -85q-36 -18 -61 -47.5t-25 -55.5q0 -17 10 -26.5t25 -9.5q11 0 41 11l28 -108q-57 -30 -117 -30q-59 0 -93 33.5t-34 85.5q0 75 76 136q-103 13 -159.5 78.5t-56.5 173.5v311h177v-313q0 -41 24 -66.5t64 -25.5q41 0 65 25
t24 67z" />
    <glyph glyph-name="Wcircumflex" unicode="&#x174;" horiz-adv-x="1093" 
d="M483 795h-170l164 197h142l166 -197h-176l-63 90zM419 0h-180l-238 739h207l126 -462l146 462h133l147 -462l125 462h207l-238 -739h-179l-128 430z" />
    <glyph glyph-name="wcircumflex" unicode="&#x175;" horiz-adv-x="907" 
d="M395 627h-160l154 185h134l155 -185h-165l-59 84zM350 1h-157l-188 551h186l95 -321l105 321h124l107 -321l94 321h186l-188 -551h-157l-104 293z" />
    <glyph glyph-name="Ycircumflex" unicode="&#x176;" horiz-adv-x="711" 
d="M293 795h-170l164 197h142l166 -197h-176l-63 90zM488 739h219l-259 -491v-248h-186v248l-256 491h220l129 -283z" />
    <glyph glyph-name="ycircumflex" unicode="&#x177;" horiz-adv-x="634" 
d="M384 629l-59 84l-59 -84h-160l154 185h134l155 -185h-165zM329 235l109 317h191l-214 -553q-46 -118 -109.5 -176t-157.5 -58q-70 0 -119 31l34 145q37 -19 72 -19q65 0 106 80l3 7l-240 543h203z" />
    <glyph glyph-name="Ydieresis" unicode="&#x178;" horiz-adv-x="711" 
d="M234 789q-43 0 -72 28.5t-29 72.5q0 42 29 70.5t72 28.5q42 0 71 -28.5t29 -70.5q0 -44 -29 -72.5t-71 -28.5zM375 890q0 42 29.5 70.5t71.5 28.5q43 0 72 -28.5t29 -70.5q0 -44 -29 -72.5t-72 -28.5t-72 28.5t-29 72.5zM488 739h219l-259 -491v-248h-186v248l-256 491
h220l129 -283z" />
    <glyph glyph-name="Zacute" unicode="&#x179;" horiz-adv-x="677" 
d="M421 796h-168l68 195h201zM638 0h-600v141l337 428h-325v170h577v-147l-328 -422h339v-170z" />
    <glyph glyph-name="zacute" unicode="&#x17a;" horiz-adv-x="562" 
d="M354 629h-158l64 183h189zM517 425l-239 -280h250v-145h-494v124l247 282h-236v145h472v-126z" />
    <glyph glyph-name="Zdotaccent" unicode="&#x17b;" horiz-adv-x="677" 
d="M345 791q-44 0 -73 29t-29 73q0 43 29.5 71.5t72.5 28.5t72 -28.5t29 -71.5q0 -44 -29 -73t-72 -29zM638 0h-600v141l337 428h-325v170h577v-147l-328 -422h339v-170z" />
    <glyph glyph-name="zdotaccent" unicode="&#x17c;" horiz-adv-x="562" 
d="M287 604q-44 0 -73 29t-29 73q0 43 29.5 71.5t72.5 28.5t72 -28.5t29 -71.5q0 -44 -29 -73t-72 -29zM517 425l-239 -280h250v-145h-494v124l247 282h-236v145h472v-126z" />
    <glyph glyph-name="Zcaron" unicode="&#x17d;" horiz-adv-x="677" 
d="M280 798l-154 185h160l59 -84l59 84h165l-155 -185h-134zM638 0h-600v141l337 428h-325v170h577v-147l-328 -422h339v-170z" />
    <glyph glyph-name="zcaron" unicode="&#x17e;" horiz-adv-x="562" 
d="M213 630l-154 185h160l59 -84l59 84h165l-155 -185h-134zM517 425l-239 -280h250v-145h-494v124l247 282h-236v145h472v-126z" />
    <glyph glyph-name="Scommaaccent" unicode="&#x218;" horiz-adv-x="625" 
d="M466 417q141 -60 141 -194q0 -102 -80 -170q-79 -66 -213 -66q-185 0 -301 128l94 137q93 -93 210 -93q35 0 59 14.5t24 39.5q0 35 -60 57l-66 22q-71 26 -94 38q-122 65 -122 192q0 98 77 163t198 65q151 0 263 -93l-87 -142q-33 27 -82 44t-91 17q-37 0 -58 -13.5
t-21 -34.5q0 -32 59 -55l65 -24q54 -19 85 -32zM414 -147q0 -52 -39 -99.5t-129 -113.5l-61 77q51 37 80 65q-23 10 -38.5 33t-15.5 50q0 39 28.5 66t70.5 27q43 0 73.5 -29.5t30.5 -75.5z" />
    <glyph glyph-name="scommaaccent" unicode="&#x219;" horiz-adv-x="519" 
d="M406 309q94 -46 94 -140q0 -81 -64 -133q-64 -51 -173 -51q-144 0 -245 95l79 119q79 -69 165 -69q59 0 59 35q0 19 -30 31l-61 20q-64 23 -76 28q-103 48 -103 150q0 78 62 126q61 49 166 49q117 0 206 -72l-76 -116q-70 47 -133 47q-21 0 -35.5 -9t-14.5 -22
q0 -26 50 -40q82 -23 130 -48zM358 -149q0 -49 -36.5 -94t-124.5 -110l-59 74q49 36 77 62q-23 10 -37.5 32t-14.5 48q0 37 27 63t68 26q42 0 71 -28t29 -73z" />
    <glyph glyph-name="uni021A" unicode="&#x21a;" horiz-adv-x="626" 
d="M14 559v180h598v-180h-204v-559h-189v559h-205zM415 -132q0 -52 -39 -99.5t-129 -113.5l-61 77q51 37 80 65q-23 10 -38.5 33t-15.5 50q0 39 28.5 66t70.5 27q43 0 73.5 -29.5t30.5 -75.5z" />
    <glyph glyph-name="uni021B" unicode="&#x21b;" horiz-adv-x="488" 
d="M438 172l47 -141q-77 -45 -176 -45q-205 0 -205 228v192h-84v146h86v196h175v-196h173v-146h-173v-171q0 -88 70 -88q40 0 87 25zM388 -147q0 -49 -36.5 -94t-124.5 -110l-59 74q49 36 77 62q-23 10 -37.5 32t-14.5 48q0 37 27 63t68 26q42 0 71 -28t29 -73z" />
    <glyph glyph-name="uni0237" unicode="&#x237;" horiz-adv-x="312" 
d="M23 -235q-99 0 -148 33l32 137q51 -17 83 -17q90 0 90 105v529h177v-547q0 -121 -66 -180q-65 -60 -168 -60z" />
    <glyph glyph-name="circumflex" unicode="&#x2c6;" horiz-adv-x="551" 
d="M200 619h-160l154 185h134l155 -185h-165l-59 84z" />
    <glyph glyph-name="caron" unicode="&#x2c7;" horiz-adv-x="547" 
d="M194 623l-154 185h160l59 -84l59 84h165l-155 -185h-134z" />
    <glyph glyph-name="breve" unicode="&#x2d8;" horiz-adv-x="484" 
d="M239 618q-87 0 -139.5 49.5t-59.5 138.5h134q2 -34 19 -55t46 -21q30 0 47 21.5t18 54.5h136q-7 -89 -60.5 -138.5t-140.5 -49.5z" />
    <glyph glyph-name="dotaccent" unicode="&#x2d9;" horiz-adv-x="300" 
d="M142 588q-44 0 -73 29t-29 73q0 43 29.5 71.5t72.5 28.5t72 -28.5t29 -71.5q0 -44 -29 -73t-72 -29z" />
    <glyph glyph-name="ring" unicode="&#x2da;" horiz-adv-x="385" 
d="M40 730q0 60 42 100q44 42 104 42q61 0 103 -42q42 -40 42 -100q0 -58 -42 -99q-41 -40 -103 -40q-61 0 -104 40q-42 41 -42 99zM186 681q20 0 34.5 15t14.5 36t-14.5 35t-34.5 14q-22 0 -36.5 -14t-14.5 -35t14.5 -36t36.5 -15z" />
    <glyph glyph-name="ogonek" unicode="&#x2db;" horiz-adv-x="342" 
d="M256 -129l28 -108q-57 -30 -117 -30q-59 0 -93 33.5t-34 85.5q0 96 122 167l107 -19q-36 -17 -62.5 -47.5t-26.5 -56.5q0 -17 10 -26.5t25 -9.5q11 0 41 11z" />
    <glyph glyph-name="tilde" unicode="&#x2dc;" horiz-adv-x="563" 
d="M151 615l-111 56q34 68 72 99t91 31q35 0 75 -22q40 -21 56 -21q30 0 60 50l112 -53q-57 -131 -150 -131q-33 0 -76 22q-44 23 -62 23q-39 0 -67 -54z" />
    <glyph glyph-name="hungarumlaut" unicode="&#x2dd;" horiz-adv-x="565" 
d="M188 620h-146l43 183h178zM408 620h-151l66 183h185z" />
    <glyph glyph-name="uni0394" unicode="&#x394;" horiz-adv-x="767" 
d="M751 0h-734v126l313 613h108l313 -613v-126zM383 490l-149 -311h300z" />
    <glyph glyph-name="uni03A9" unicode="&#x3a9;" horiz-adv-x="861" 
d="M394 0h-349v164h131q-52 35 -85 98.5t-33 143.5q0 149 107 247q108 99 266 99q159 0 265 -99q107 -98 107 -247q0 -80 -33 -143.5t-85 -98.5h131v-164h-349v172q66 24 104 78t38 123q0 84 -52 133q-53 51 -126 51q-75 0 -127 -51q-52 -49 -52 -133q0 -69 38 -123t104 -78
v-172z" />
    <glyph glyph-name="uni03BC" unicode="&#x3bc;" horiz-adv-x="678" 
d="M445 294v241h177v-535h-169v71q-37 -82 -123 -82q-74 0 -105 64v-271h-169v753h177v-265q0 -57 26.5 -88.5t73.5 -31.5q52 0 82 37t30 107z" />
    <glyph glyph-name="pi" unicode="&#x3c0;" horiz-adv-x="644" 
d="M274 0h-177v379h-66v156h581v-156h-65v-379h-179v379h-94v-379z" />
    <glyph glyph-name="uni0401" unicode="&#x401;" horiz-adv-x="659" 
d="M222 789q-43 0 -72 28.5t-29 72.5q0 42 29 70.5t72 28.5q42 0 71 -28.5t29 -70.5q0 -44 -29 -72.5t-71 -28.5zM363 890q0 42 29.5 70.5t71.5 28.5q43 0 72 -28.5t29 -70.5q0 -44 -29 -72.5t-72 -28.5t-72 28.5t-29 72.5zM606 0h-533v739h534v-173h-346v-109h320v-172
h-320v-112h345v-173z" />
    <glyph glyph-name="uni0410" unicode="&#x410;" horiz-adv-x="713" 
d="M709 0h-192l-43 135h-235l-44 -135h-193l270 739h174zM286 297h143l-70 219z" />
    <glyph glyph-name="uni0411" unicode="&#x411;" horiz-adv-x="681" 
d="M256 471h131q74 0 129.5 -22.5t83.5 -61.5q53 -70 53 -155q0 -101 -68 -167q-68 -65 -183 -65h-329v739h503v-158h-320v-110zM256 160h114q44 0 67.5 21t23.5 55q0 32 -22.5 53.5t-62.5 21.5h-120v-151z" />
    <glyph glyph-name="uni0412" unicode="&#x412;" horiz-adv-x="707" 
d="M534 406q67 -17 103.5 -67.5t36.5 -120.5q0 -94 -66 -156q-67 -62 -172 -62h-363v739h346q103 0 159 -55q57 -54 57 -128q0 -49 -28 -91.5t-73 -58.5zM384 581h-128v-125h120q37 0 56.5 17.5t19.5 45.5q0 26 -18.5 44t-49.5 18zM256 160h140q42 0 64 21t22 52
q0 32 -22 53t-60 21h-144v-147z" />
    <glyph glyph-name="uni0413" unicode="&#x413;" horiz-adv-x="565" 
d="M256 0h-183v739h483v-164h-300v-575z" />
    <glyph glyph-name="uni0414" unicode="&#x414;" horiz-adv-x="828" 
d="M518 739l192 -571h87v-318h-178v150h-411v-150h-178v318h83l198 571h207zM414 537l-113 -369h222z" />
    <glyph glyph-name="uni0415" unicode="&#x415;" horiz-adv-x="659" 
d="M606 0h-533v739h534v-173h-346v-109h320v-172h-320v-112h345v-173z" />
    <glyph glyph-name="uni0416" unicode="&#x416;" horiz-adv-x="1065" 
d="M1030 159l9 -154q-36 -16 -91 -16q-78 -5 -139 54q-17 15 -52 78q-18 35 -22 45q-12 27 -21 44q-21 41 -37 57.5t-36 16.5h-15v-284h-187v284h-15q-20 0 -36 -16.5t-37 -57.5q-9 -17 -21 -44q-4 -10 -22 -45q-3 -6 -23 -40q-13 -22 -26.5 -35t-38.5 -31q-37 -26 -103 -26
q-55 0 -91 16l9 154q24 -8 55 -8q30 0 49 22q17 20 64 104l29 52q17 30 29 46q-19 16 -36 46l-5 11l-9 18l-13 28q-31 61 -53 86q-20 23 -52 23q-21 0 -41 -4l-8 145q34 22 85 22q71 0 112 -41q40 -40 84 -137q42 -90 54 -105q12 -14 47 -14h13v286h187v-286h13q35 0 47 14
q12 15 54 105q44 97 84 137q41 41 112 41q51 0 85 -22l-8 -145q-20 4 -41 4q-33 0 -53 -23t-52 -86q-38 -75 -64 -102q13 -16 30 -47q73 -131 84 -144q28 -33 58 -34q29 0 55 8z" />
    <glyph glyph-name="uni0417" unicode="&#x417;" horiz-adv-x="629" 
d="M282 -12q-143 0 -267 73l66 150q105 -54 207 -54q52 0 81 18t29 49q0 28 -25 44.5t-69 16.5h-131v163h85q54 0 84 19.5t30 50.5q1 29 -23 46t-66 17q-78 0 -171 -54l-83 133q52 43 127 67.5t153 24.5q117 0 187 -58t70 -136q0 -48 -28 -87t-81 -62l-1 -4q66 -18 102 -67
t36 -114q0 -97 -81 -167q-81 -69 -231 -69z" />
    <glyph glyph-name="uni0418" unicode="&#x418;" horiz-adv-x="788" 
d="M192 0h-119v739h183v-431l338 431h121v-739h-183v426z" />
    <glyph glyph-name="uni0419" unicode="&#x419;" horiz-adv-x="788" 
d="M182 896l92 94q40 -50 72 -69t72 -19t72 19t72 69l92 -94q-99 -124 -237 -124t-235 124zM192 0h-119v739h183v-431l338 431h121v-739h-183v426z" />
    <glyph glyph-name="uni041A" unicode="&#x41a;" horiz-adv-x="720" 
d="M732 0h-228l-164 266l-80 -97v-169h-187v739h187v-304l233 304h226l-256 -327z" />
    <glyph glyph-name="uni041B" unicode="&#x41b;" horiz-adv-x="718" 
d="M205 0h-202l256 739h208l248 -739h-202l-151 511z" />
    <glyph glyph-name="uni041C" unicode="&#x41c;" horiz-adv-x="954" 
d="M256 0h-183v739h138l266 -380l265 380h139v-739h-185v355l-185 -259h-70l-185 259v-355z" />
    <glyph glyph-name="uni041D" unicode="&#x41d;" horiz-adv-x="780" 
d="M260 0h-187v739h187v-282h259v282h188v-739h-188v278h-259v-278z" />
    <glyph glyph-name="uni041E" unicode="&#x41e;" horiz-adv-x="843" 
d="M422 -12q-165 0 -277 110q-110 110 -110 271t111 272t275 111q165 0 276 -111t111 -272q0 -160 -111 -271q-110 -110 -275 -110zM421 173q82 0 138 56t56 141q-2 86 -58 141q-56 56 -136 56q-81 0 -137 -57q-56 -56 -56 -140q0 -85 56 -141t137 -56z" />
    <glyph glyph-name="uni041F" unicode="&#x41f;" horiz-adv-x="780" 
d="M260 0h-187v739h634v-739h-188v560h-259v-560z" />
    <glyph glyph-name="uni0420" unicode="&#x420;" horiz-adv-x="664" 
d="M73 739h294q141 0 209 -74q69 -73 69 -183q0 -109 -71 -180q-70 -70 -220 -70h-94v-232h-187v739zM260 400h103q43 0 66.5 23.5t23.5 60.5q0 36 -23.5 60t-62.5 24h-107v-168z" />
    <glyph glyph-name="uni0421" unicode="&#x421;" horiz-adv-x="756" 
d="M416 -11q-162 0 -271 105q-109 106 -109 273q0 168 110 276q110 109 271 109q98 0 181.5 -39t135.5 -107l-119 -125q-86 92 -186 92q-85 0 -143 -58q-57 -59 -57 -147q0 -86 57 -144q58 -57 142 -57q110 0 190 95l124 -119q-51 -67 -137 -111q-85 -43 -189 -43z" />
    <glyph glyph-name="uni0422" unicode="&#x422;" horiz-adv-x="626" 
d="M219 0v559h-205v180h598v-180h-204v-559h-189z" />
    <glyph glyph-name="uni0423" unicode="&#x423;" horiz-adv-x="653" 
d="M157 -11q-63 0 -110 25l13 149q34 -14 64 -14q84 0 126 96l-230 494h220l110 -289l97 289h218l-78 -178q-97 -228 -136 -307q-22 -46 -27 -55q-10 -22 -27 -52q-19 -35 -33 -51q-49 -59 -85 -77q-58 -30 -122 -30z" />
    <glyph glyph-name="uni0424" unicode="&#x424;" horiz-adv-x="969" 
d="M938 370q0 -148 -97 -245q-98 -98 -263 -111v-94h-188v94q-165 13 -263 111q-96 97 -96 245t98 246q97 98 261 111v92h188v-92q165 -14 262 -111q98 -98 98 -246zM578 564v-390q81 7 127 59t46 135t-46 135t-127 61zM218 368q0 -82 46 -134t126 -59v389q-80 -10 -126 -62
t-46 -134z" />
    <glyph glyph-name="uni0425" unicode="&#x425;" horiz-adv-x="703" 
d="M218 0h-217l230 373l-211 366h215l117 -226l128 226h217l-226 -366l221 -373h-214l-128 233z" />
    <glyph glyph-name="uni0426" unicode="&#x426;" horiz-adv-x="779" 
d="M741 -150h-187v150h-481v739h188v-560h210v560h188v-560h82v-329z" />
    <glyph glyph-name="uni0427" unicode="&#x427;" horiz-adv-x="712" 
d="M451 392v347h188v-739h-188v218q-71 -23 -131 -23q-278 0 -278 278v266h189v-242q0 -65 26 -93.5t81 -28.5q51 0 113 17z" />
    <glyph glyph-name="uni0428" unicode="&#x428;" horiz-adv-x="1106" 
d="M1033 0h-960v739h188v-560h198v560h188v-560h197v560h189v-739z" />
    <glyph glyph-name="uni0429" unicode="&#x429;" horiz-adv-x="1152" 
d="M1114 -150h-186v150h-855v739h188v-560h198v560h188v-560h197v560h189v-560h81v-329z" />
    <glyph glyph-name="uni042A" unicode="&#x42a;" horiz-adv-x="767" 
d="M467 525q125 0 202 -71q78 -70 78 -194q0 -107 -69 -184t-203 -76h-309v581h-152v158h335v-232q57 18 118 18zM349 165h90q57 0 86 25.5t29 72.5q0 97 -114 97q-43 0 -91 -14v-181z" />
    <glyph glyph-name="uni042B" unicode="&#x42b;" horiz-adv-x="998" 
d="M259 499h128q60 0 107.5 -15.5t77 -40.5t49 -59t27.5 -67t8 -68q0 -109 -69 -179q-67 -70 -184 -70h-327v739h183v-240zM737 0v739h188v-739h-188zM259 161h112q44 0 68.5 25t24.5 65q0 37 -24.5 61.5t-65.5 24.5h-115v-176z" />
    <glyph glyph-name="uni042C" unicode="&#x42c;" horiz-adv-x="674" 
d="M374 525q125 0 202 -71q78 -70 78 -194q0 -107 -69 -184t-203 -76h-309v739h183v-232q57 18 118 18zM256 165h90q57 0 86 25.5t29 72.5q0 97 -114 97q-43 0 -91 -14v-181z" />
    <glyph glyph-name="uni042D" unicode="&#x42d;" horiz-adv-x="759" 
d="M342 752q161 0 270 -109q111 -108 111 -276q0 -167 -109 -273q-110 -105 -271 -105q-104 0 -189 43q-86 44 -137 111l124 119q80 -95 190 -95q62 0 110.5 31.5t71.5 85.5h-265v164h267q-22 57 -72 91t-113 34q-100 0 -186 -92l-119 125q52 68 135.5 107t181.5 39z" />
    <glyph glyph-name="uni042E" unicode="&#x42e;" horiz-adv-x="1146" 
d="M724 752q165 0 276 -111t111 -272q0 -160 -111 -271q-110 -110 -275 -110q-139 0 -243 80q-103 81 -133 208h-88v-276h-188v739h188v-283h86q30 131 133 213q104 83 244 83zM724 173q82 0 138 56t56 141q-2 86 -58 141q-56 56 -136 56t-137 -57q-56 -56 -56 -140
q0 -85 56 -141t137 -56z" />
    <glyph glyph-name="uni042F" unicode="&#x42f;" horiz-adv-x="701" 
d="M352 739h277v-739h-184v234q-41 -7 -87 -8l-130 -226h-208l161 258q-127 61 -127 225q0 115 75 185q77 71 223 71zM361 385q36 0 84 8v178h-85q-115 0 -115 -92q0 -94 116 -94z" />
    <glyph glyph-name="uni0430" unicode="&#x430;" horiz-adv-x="689" 
d="M464 502v50h166v-552h-166v48q-68 -62 -163 -62q-117 0 -194 84q-76 83 -76 208q0 126 76 206q76 82 194 82q96 0 163 -64zM462 277q0 53 -37 90q-38 38 -91 38q-55 0 -91 -38q-36 -37 -36 -90q0 -55 36 -92q38 -38 91 -38t91 38q37 37 37 92z" />
    <glyph glyph-name="uni0431" unicode="&#x431;" horiz-adv-x="701" 
d="M396 544q111 0 192 -75q82 -73 82 -198q0 -121 -83 -204q-82 -82 -223 -82q-88 0 -154.5 34t-104.5 95q-70 117 -70 273q0 168 70 260q70 94 182 121q32 7 71 14l68 13q64 18 139 72l65 -135q-42 -42 -93 -63q-48 -19 -163 -42q-86 -17 -129 -55q-41 -37 -52 -135
q30 51 83.5 79t119.5 28zM365 142q54 0 90 36.5t36 90.5q0 53 -36 87q-36 36 -89 36q-51 0 -89 -35q-36 -35 -36 -88q0 -52 35 -90q36 -37 89 -37z" />
    <glyph glyph-name="uni0432" unicode="&#x432;" horiz-adv-x="664" 
d="M497 431q66 -19 101.5 -72t35.5 -131q0 -96 -78 -169q-78 -72 -211 -72q-84 0 -150 27q-43 18 -75 48q-33 33 -53.5 90.5t-20.5 131.5v186q0 170 91 246q81 67 204 67q115 0 185 -55q72 -56 72 -146q0 -52 -27.5 -93t-73.5 -58zM337 621q-67 0 -93 -57q-20 -43 -20 -86
v-6h91q106 0 106 78q0 34 -23 52.5t-61 18.5zM346 148q49 0 78 25.5t29 62.5q0 43 -25.5 65t-85.5 22h-118v-37q0 -138 122 -138z" />
    <glyph glyph-name="uni0433" unicode="&#x433;" horiz-adv-x="520" 
d="M256 -13q-109 0 -167.5 43t-58.5 113q0 57 26 96.5t63.5 59t74.5 32.5t63 26.5t26 31.5q0 35 -58 35q-62 0 -138 -32l-42 128q104 46 218 46q98 0 156 -41t58 -108q0 -49 -24.5 -87t-62.5 -58q-19 -10 -53 -23.5t-54 -22.5t-36.5 -23t-16.5 -29q0 -41 72 -41q74 0 159 41
l34 -136q-115 -51 -239 -51z" />
    <glyph glyph-name="uni0434" unicode="&#x434;" horiz-adv-x="680" 
d="M467 506v46h159v-473q0 -152 -85 -233t-240 -81q-102 0 -230 43l36 141q90 -34 189 -34q81 0 121.5 33.5t40.5 93.5v13q-59 -56 -154 -56q-123 -1 -198 78t-75 204q0 126 80 206q79 79 201 79q92 0 155 -60zM459 279q0 54 -35.5 89.5t-89.5 35.5t-89.5 -35t-35.5 -90
t35.5 -91.5t89.5 -36.5t89.5 36.5t35.5 91.5z" />
    <glyph glyph-name="uni0435" unicode="&#x435;" 
d="M609 290q0 -34 -6 -71h-394q30 -87 135 -87q91 0 167 51l69 -119q-106 -76 -244 -76q-146 0 -226 83q-79 83 -79 205q0 125 82 207q83 83 213 83q123 0 203 -74t80 -202zM326 425q-91 0 -119 -85h234q-11 40 -41 62.5t-74 22.5z" />
    <glyph glyph-name="uni0436" unicode="&#x436;" horiz-adv-x="926" 
d="M893 139l7 -135q-35 -13 -82 -13q-31 0 -61 8q-29 9 -45 18t-33 28q-19 25 -23 31l-20 36l-15 30q-15 29 -28 39.5t-31 10.5h-12v-192h-175v192h-12q-18 0 -30.5 -10.5t-27.5 -39.5q-2 -3 -17 -31q-14 -28 -19 -35q-7 -12 -23 -31q-42 -49 -138 -54q-47 0 -82 13l7 135
q22 -5 40 -5q26 0 49 23q19 19 67 94l18 27q-16 13 -39 56q-13 23 -28 47q-24 35 -59 35l-35 -2l-5 127q30 18 76 18q60 0 96.5 -26t64.5 -83l13 -26l21 -40q5 -8 21 -22q10 -8 31 -8h11v198h175v-198h12q25 0 41 16q8 8 19 30l25 50q28 57 64.5 83t97.5 26q46 0 76 -18
l-5 -127l-35 2q-19 0 -36 -12q-15 -11 -23 -23q-15 -24 -28 -47q-23 -42 -39 -56l17 -27q45 -71 67 -94q23 -23 49 -23q19 0 41 5z" />
    <glyph glyph-name="uni0437" unicode="&#x437;" horiz-adv-x="567" 
d="M261 -232q-142 0 -261 82l57 136q97 -60 174 -60q57 0 88.5 23.5t31.5 64.5q0 40 -28.5 61.5t-81.5 21.5h-94v147h65q58 0 87.5 23t29.5 61q0 36 -26.5 57.5t-68.5 21.5q-63 0 -152 -58l-73 124q43 41 114 66q71 27 143 27q109 0 179 -61q70 -60 70 -144
q0 -51 -27.5 -93.5t-77.5 -65.5v-4q61 -18 95.5 -69.5t34.5 -119.5q0 -102 -73 -171q-73 -70 -206 -70z" />
    <glyph glyph-name="uni0438" unicode="&#x438;" horiz-adv-x="667" 
d="M435 552h176v-552h-171v78q-20 -38 -70.5 -65t-111.5 -27q-87 0 -148 59q-60 60 -60 178v329h177v-295q0 -53 24.5 -81.5t70.5 -28.5q51 0 82 33t31 89v283z" />
    <glyph glyph-name="uni0439" unicode="&#x439;" horiz-adv-x="667" 
d="M122 699l83 85q35 -45 64 -62t65 -17q37 0 66 16.5t64 62.5l83 -85q-90 -111 -214 -111t-211 111zM435 552h176v-552h-171v78q-20 -38 -70.5 -65t-111.5 -27q-87 0 -148 59q-60 60 -60 178v329h177v-295q0 -53 24.5 -81.5t70.5 -28.5q51 0 82 33t31 89v283z" />
    <glyph glyph-name="uni043A" unicode="&#x43a;" horiz-adv-x="614" 
d="M631 0h-210l-163 219l-26 -24v-195h-176v763h176v-371l166 160h215l-237 -222z" />
    <glyph glyph-name="uni043B" unicode="&#x43b;" horiz-adv-x="641" 
d="M202 0h-197l218 552h202l210 -552h-196l-115 358z" />
    <glyph glyph-name="uni043C" unicode="&#x43c;" horiz-adv-x="791" 
d="M226 0h-170v552h135l205 -256l204 256h135v-552h-170v245l-136 -160h-68l-135 160v-245z" />
    <glyph glyph-name="uni043D" unicode="&#x43d;" horiz-adv-x="644" 
d="M413 354v198h175v-552h-175v194h-182v-194h-175v552h175v-198h182z" />
    <glyph glyph-name="uni043E" unicode="&#x43e;" horiz-adv-x="661" 
d="M330 -15q-133 0 -217 84q-83 85 -83 207t83 207q84 85 217 85q135 0 217 -85q84 -84 84 -207t-84 -207q-83 -84 -217 -84zM330 150q53 0 89 36q36 38 36 91t-37 89q-36 36 -88 36t-88 -37q-36 -36 -36 -88q0 -53 36 -91q36 -36 88 -36z" />
    <glyph glyph-name="uni043F" unicode="&#x43f;" horiz-adv-x="664" 
d="M232 0h-176v552h172v-77q21 40 68 66t105 26q89 0 151 -59t62 -169v-339h-177v292q0 54 -26 84t-71 30q-48 0 -78 -32.5t-30 -86.5v-287z" />
    <glyph glyph-name="uni0440" unicode="&#x440;" horiz-adv-x="689" 
d="M389 566q118 0 194 -84q76 -82 76 -205q0 -121 -77 -207q-76 -84 -192 -84q-92 0 -157 60v-273h-177v779h174v-51q65 65 159 65zM479 275q0 54 -35 90.5t-89 36.5t-89.5 -36.5t-35.5 -90.5q0 -52 35 -90q36 -37 90 -37q55 0 89 37q35 38 35 90z" />
    <glyph glyph-name="uni0441" unicode="&#x441;" horiz-adv-x="607" 
d="M324 -12q-130 0 -212 81q-81 81 -81 208t82 208q83 81 214 81q88 0 158 -42t105 -119l-141 -74q-42 71 -118 71q-55 0 -91 -36q-35 -37 -35 -89q0 -55 35.5 -91t88.5 -36q38 0 70.5 19.5t47.5 51.5l141 -84q-36 -69 -106.5 -109t-157.5 -40z" />
    <glyph glyph-name="uni0442" unicode="&#x442;" horiz-adv-x="1025" 
d="M746 568q96 0 162 -60q67 -58 67 -171v-337h-177v302q0 50 -25.5 77t-66.5 27q-46 0 -74.5 -29.5t-28.5 -80.5v-296h-176v302q0 48 -26 76t-69 28q-44 0 -72 -29.5t-28 -80.5v-296h-176v552h172v-77q23 43 70.5 68.5t100.5 24.5q111 -1 153 -92q30 44 82 68t112 24z" />
    <glyph glyph-name="uni0443" unicode="&#x443;" horiz-adv-x="634" 
d="M328 235l109 317h191l-214 -553q-46 -118 -109.5 -176t-157.5 -58q-70 0 -119 31l34 145q37 -19 72 -19q65 0 106 80l3 7l-240 543h203z" />
    <glyph glyph-name="uni0444" unicode="&#x444;" horiz-adv-x="875" 
d="M846 277q0 -131 -85.5 -206t-237.5 -83v-218h-170v218q-145 7 -235 82q-87 74 -87 207q0 130 86 207q84 75 236 83v196h170v-196q149 -8 235 -83q88 -75 88 -207zM523 414v-276q71 1 109.5 38t38.5 100t-37.5 99t-110.5 39zM353 138v276q-73 -4 -110.5 -39.5t-37.5 -98.5
t38.5 -99.5t109.5 -38.5z" />
    <glyph glyph-name="uni0445" unicode="&#x445;" horiz-adv-x="590" 
d="M413 277l169 -277h-204l-84 162l-91 -162h-201l174 278l-152 274h201l71 -150l84 150h195z" />
    <glyph glyph-name="uni0446" unicode="&#x446;" horiz-adv-x="755" 
d="M612 552v-345q-3 -56 27.5 -74.5t109.5 -18.5v-294h-153v169q-57 0 -94.5 30t-43.5 88q-19 -54 -74 -87.5t-126 -33.5q-87 0 -148 59q-60 60 -60 178v329h177v-295q0 -53 24.5 -81.5t70.5 -28.5q51 0 82 33t31 89v283h177z" />
    <glyph glyph-name="uni0447" unicode="&#x447;" horiz-adv-x="608" 
d="M376 307v245h177v-552h-177v151q-65 -14 -108 -14q-93 0 -158 39q-75 45 -75 185v191h177v-179q0 -75 80 -75q44 0 84 9z" />
    <glyph glyph-name="uni0448" unicode="&#x448;" horiz-adv-x="989" 
d="M756 256v296h177v-552h-168v78q-19 -38 -65.5 -65t-99.5 -27q-47 0 -88 22t-62 63q-28 -41 -77 -63t-103 -22q-91 0 -156 62q-64 61 -64 183v321h177v-305q0 -48 22.5 -74t61.5 -26q43 0 67.5 29.5t24.5 79.5v296h178v-306q0 -47 21 -73t60 -26q42 0 68 30.5t26 78.5z
" />
    <glyph glyph-name="uni0449" unicode="&#x449;" horiz-adv-x="1081" 
d="M933 552v-345q0 -56 31 -74.5t110 -18.5v-294h-152v169q-58 0 -95 30t-43 88q-20 -54 -72.5 -87.5t-118.5 -33.5q-44 0 -83.5 22t-59.5 63q-28 -41 -77 -63t-103 -22q-91 0 -156 62q-64 61 -64 183v321h177v-305q0 -48 22.5 -74t61.5 -26q43 0 67.5 29.5t24.5 79.5v296
h177v-306q0 -47 21.5 -73t59.5 -26q43 0 69 30.5t26 78.5v296h177z" />
    <glyph glyph-name="uni044A" unicode="&#x44a;" horiz-adv-x="664" 
d="M407 455q96 0 163 -64q68 -65 68 -165q0 -46 -14.5 -87t-44 -76t-81.5 -56t-121 -21q-115 0 -179 62q-74 77 -74 219v142h-110v143h283v-126q53 29 110 29zM382 137q40 0 61.5 23.5t21.5 61.5q0 40 -22.5 61.5t-66.5 21.5q-38 0 -79 -15v-52q-2 -40 18 -69.5t67 -31.5z
" />
    <glyph glyph-name="uni044B" unicode="&#x44b;" horiz-adv-x="827" 
d="M222 395h96q115 0 169 -58q55 -58 55 -137q0 -88 -59 -144t-160 -56h-267v552h167zM597 0v552h175v-552h-175zM221 141h86q31 0 47.5 16t16.5 41q0 24 -17 40t-46 16h-86z" />
    <glyph glyph-name="uni044C" unicode="&#x44c;" horiz-adv-x="587" 
d="M328 455q98 0 165 -64q68 -63 68 -165q0 -98 -64.5 -169t-195.5 -71q-149 0 -205 95q-48 81 -48 186v285h173v-123q50 26 107 26zM306 137q40 0 61 23t21 62q0 40 -22.5 61.5t-66.5 21.5q-37 0 -78 -15v-52q0 -101 85 -101z" />
    <glyph glyph-name="uni044D" unicode="&#x44d;" horiz-adv-x="604" 
d="M280 566q130 0 211 -81q82 -81 82 -208t-81 -208t-210 -81q-89 0 -159 40t-106 109l136 82q15 -32 50 -54t73 -22q36 0 67 20.5t48 53.5h-164v118h164q-16 33 -47.5 53.5t-69.5 20.5q-77 0 -123 -76l-135 72q34 78 104.5 119.5t159.5 41.5z" />
    <glyph glyph-name="uni044E" unicode="&#x44e;" horiz-adv-x="910" 
d="M579 568q135 0 217 -85q84 -84 84 -207t-84 -207q-82 -84 -217 -84q-112 0 -191 61q-79 62 -101 158h-58v-204h-173v763h173v-418h58q23 99 100 160q79 63 192 63zM704 277q0 53 -36 89t-89 36q-52 0 -88 -36t-36 -89t35 -91q36 -36 89 -36t89 36q36 38 36 91z" />
    <glyph glyph-name="uni044F" unicode="&#x44f;" horiz-adv-x="601" 
d="M309 552h236v-552h-170v162q-43 -6 -74 -7l-96 -155h-188l125 185q-95 50 -95 169q0 94 67 146t195 52zM305 291q32 0 70 7v116h-59q-92 0 -92 -63q0 -60 81 -60z" />
    <glyph glyph-name="uni0451" unicode="&#x451;" 
d="M124 697q0 40 27.5 67.5t68.5 27.5t68.5 -27.5t27.5 -67.5q0 -42 -27.5 -69t-68.5 -27t-68.5 27t-27.5 69zM355 697q0 40 28 67.5t69 27.5t68.5 -27.5t27.5 -67.5q0 -42 -27.5 -69t-68.5 -27q-42 0 -69.5 27t-27.5 69zM609 290q0 -34 -6 -71h-394q30 -87 135 -87
q91 0 167 51l69 -119q-106 -76 -244 -76q-146 0 -226 83q-79 83 -79 205q0 125 82 207q83 83 213 83q123 0 203 -74t80 -202zM326 425q-91 0 -119 -85h234q-11 40 -41 62.5t-74 22.5z" />
    <glyph glyph-name="Wgrave" unicode="&#x1e80;" horiz-adv-x="1093" 
d="M566 991l68 -196h-170l-100 196h202zM419 0h-180l-238 739h207l126 -462l146 462h133l147 -462l125 462h207l-238 -739h-179l-128 430z" />
    <glyph glyph-name="wgrave" unicode="&#x1e81;" horiz-adv-x="907" 
d="M475 812l64 -183h-159l-94 183h189zM350 1h-157l-188 551h186l95 -321l105 321h124l107 -321l94 321h186l-188 -551h-157l-104 293z" />
    <glyph glyph-name="Wacute" unicode="&#x1e82;" horiz-adv-x="1093" 
d="M637 794h-168l68 195h201zM419 0h-180l-238 739h207l126 -462l146 462h133l147 -462l125 462h207l-238 -739h-179l-128 430z" />
    <glyph glyph-name="wacute" unicode="&#x1e83;" horiz-adv-x="907" 
d="M533 629h-158l64 183h189zM350 1h-157l-188 551h186l95 -321l105 321h124l107 -321l94 321h186l-188 -551h-157l-104 293z" />
    <glyph glyph-name="Wdieresis" unicode="&#x1e84;" horiz-adv-x="1093" 
d="M427 789q-43 0 -72 28.5t-29 72.5q0 42 29 70.5t72 28.5q42 0 71 -28.5t29 -70.5q0 -44 -29 -72.5t-71 -28.5zM568 890q0 42 29.5 70.5t71.5 28.5q43 0 72 -28.5t29 -70.5q0 -44 -29 -72.5t-72 -28.5t-72 28.5t-29 72.5zM419 0h-180l-238 739h207l126 -462l146 462h133
l147 -462l125 462h207l-238 -739h-179l-128 430z" />
    <glyph glyph-name="wdieresis" unicode="&#x1e85;" horiz-adv-x="907" 
d="M242 712q0 40 27.5 67.5t68.5 27.5t68.5 -27.5t27.5 -67.5q0 -42 -27.5 -69t-68.5 -27t-68.5 27t-27.5 69zM473 712q0 40 28 67.5t69 27.5t68.5 -27.5t27.5 -67.5q0 -42 -27.5 -69t-68.5 -27q-42 0 -69.5 27t-27.5 69zM350 1h-157l-188 551h186l95 -321l105 321h124
l107 -321l94 321h186l-188 -551h-157l-104 293z" />
    <glyph glyph-name="Ygrave" unicode="&#x1ef2;" horiz-adv-x="711" 
d="M383 991l68 -196h-170l-100 196h202zM488 739h219l-259 -491v-248h-186v248l-256 491h220l129 -283z" />
    <glyph glyph-name="ygrave" unicode="&#x1ef3;" horiz-adv-x="634" 
d="M340 812l64 -183h-159l-94 183h189zM329 235l109 317h191l-214 -553q-46 -118 -109.5 -176t-157.5 -58q-70 0 -119 31l34 145q37 -19 72 -19q65 0 106 80l3 7l-240 543h203z" />
    <glyph glyph-name="uni2009" unicode="&#x2009;" horiz-adv-x="78" 
 />
    <glyph glyph-name="endash" unicode="&#x2013;" horiz-adv-x="723" 
d="M668 195h-613v164h613v-164z" />
    <glyph glyph-name="emdash" unicode="&#x2014;" horiz-adv-x="1042" 
d="M987 195h-932v164h932v-164z" />
    <glyph glyph-name="quoteleft" unicode="&#x2018;" horiz-adv-x="263" 
d="M142 697q34 -1 58 -26t24 -59q0 -39 -29 -67t-69 -28q-44 0 -72.5 31t-28.5 78q0 117 166 226l47 -67q-77 -59 -96 -88z" />
    <glyph glyph-name="quoteright" unicode="&#x2019;" horiz-adv-x="261" 
d="M141 845q44 0 72.5 -31t28.5 -78q0 -117 -166 -226l-47 67q77 59 96 88q-34 1 -58 26t-24 59q0 41 29 68t69 27z" />
    <glyph glyph-name="quotesinglbase" unicode="&#x201a;" horiz-adv-x="272" 
d="M133 174q44 0 72.5 -31t28.5 -78q0 -117 -166 -226l-47 67q77 59 96 88q-34 1 -58 26t-24 59q0 41 29 68t69 27z" />
    <glyph glyph-name="quotedblleft" unicode="&#x201c;" horiz-adv-x="525" 
d="M193 852l47 -67q-77 -59 -96 -88q34 -1 58 -26t24 -59q0 -39 -29 -67t-69 -28q-44 0 -72.5 31t-28.5 78q0 117 166 226zM404 697q34 -1 58 -26t24 -59q0 -39 -29 -67t-69 -28q-44 0 -72.5 31t-28.5 78q0 117 166 226l47 -67q-77 -59 -96 -88z" />
    <glyph glyph-name="quotedblright" unicode="&#x201d;" horiz-adv-x="522" 
d="M140 848q44 0 72.5 -31t28.5 -78q0 -117 -166 -226l-47 67q77 59 96 88q-34 1 -58 26t-24 59q0 39 29 67t69 28zM401 848q44 0 72.5 -31t28.5 -78q0 -117 -166 -226l-47 67q77 59 96 88q-34 1 -58 26t-24 59q0 39 29 67t69 28z" />
    <glyph glyph-name="quotedblbase" unicode="&#x201e;" horiz-adv-x="532" 
d="M131 173q44 0 72.5 -31t28.5 -78q0 -117 -166 -226l-47 67q77 59 96 88q-34 1 -58 26t-24 59q0 39 29 67t69 28zM393 173q44 0 72.5 -31t28.5 -78q0 -117 -166 -226l-47 67q77 59 96 88q-34 1 -58 26t-24 59q0 39 29 67t69 28z" />
    <glyph glyph-name="dagger" unicode="&#x2020;" horiz-adv-x="530" 
d="M354 551h138v-162h-138v-567h-178v567h-138v162h138v298h178v-298z" />
    <glyph glyph-name="daggerdbl" unicode="&#x2021;" horiz-adv-x="530" 
d="M492 593v-162h-138v-191h138v-162h-138v-256h-178v256h-138v162h138v191h-138v162h138v256h178v-256h138z" />
    <glyph glyph-name="bullet" unicode="&#x2022;" horiz-adv-x="490" 
d="M243 153q-76 0 -131 55t-55 131q0 78 55 133q56 56 131 56q77 0 133 -56t56 -133q0 -76 -56 -132q-56 -54 -133 -54z" />
    <glyph glyph-name="ellipsis" unicode="&#x2026;" horiz-adv-x="781" 
d="M132 -16q-41 0 -69.5 27.5t-28.5 68.5q0 40 28.5 67t69.5 27q39 0 66.5 -27.5t27.5 -66.5q0 -41 -27.5 -68.5t-66.5 -27.5zM392 -16q-41 0 -69.5 27.5t-28.5 68.5q0 40 28.5 67t69.5 27q39 0 66.5 -27.5t27.5 -66.5q0 -41 -27.5 -68.5t-66.5 -27.5zM652 -16
q-41 0 -69.5 27.5t-28.5 68.5q0 40 28.5 67t69.5 27q39 0 66.5 -27.5t27.5 -66.5q0 -41 -27.5 -68.5t-66.5 -27.5z" />
    <glyph glyph-name="perthousand" unicode="&#x2030;" horiz-adv-x="1329" 
d="M221 382q-81 0 -137 53q-56 54 -56 130q0 77 56 131q55 55 137 55q81 0 136 -55q57 -54 57 -131q0 -76 -57 -130q-56 -53 -136 -53zM274 0h-167l534 739h167zM288 567q0 27 -20 46.5t-47 19.5t-46.5 -19.5t-19.5 -46.5q0 -29 19.5 -48t46.5 -19t47 19t20 48zM699 -12
q-81 0 -136 54q-56 54 -56 129q0 77 56 131q55 55 136 55q82 0 137 -55q57 -54 57 -131q0 -75 -57 -129q-56 -54 -137 -54zM920 171q0 77 56 131t136 54t136 -54q57 -54 57 -131q0 -75 -57 -129q-56 -54 -136 -54t-136 54t-56 129zM1183 172q0 29 -21.5 50t-49.5 21
t-49.5 -21t-21.5 -50q0 -30 21.5 -50.5t49.5 -20.5t49.5 20.5t21.5 50.5zM699 106q28 0 47.5 19t19.5 48q0 27 -20 46.5t-47 19.5t-46.5 -19.5t-19.5 -46.5q0 -29 19.5 -48t46.5 -19z" />
    <glyph glyph-name="guilsinglleft" unicode="&#x2039;" horiz-adv-x="385" 
d="M346 88h-189l-130 203l131 203h188l-138 -203z" />
    <glyph glyph-name="guilsinglright" unicode="&#x203a;" horiz-adv-x="385" 
d="M358 291l-130 -203h-189l138 203l-138 203h188z" />
    <glyph glyph-name="fraction" unicode="&#x2044;" horiz-adv-x="230" 
d="M-103 0h-138l578 739h137z" />
    <glyph glyph-name="uni2070" unicode="&#x2070;" horiz-adv-x="398" 
d="M199 501q-85 0 -131 55t-46 150t46 150q47 56 131 56q83 0 129.5 -55.5t46.5 -150.5q0 -94 -46.5 -149.5t-129.5 -55.5zM138 706q0 -103 61 -103t61 103t-61 103t-61 -103z" />
    <glyph glyph-name="uni2074" unicode="&#x2074;" horiz-adv-x="374" 
d="M306 677h40v-87h-40v-83h-103v83h-172l-23 66l207 247h91v-226zM203 773l-81 -96h81v96z" />
    <glyph glyph-name="uni2075" unicode="&#x2075;" horiz-adv-x="337" 
d="M175 764q62 0 99.5 -35.5t37.5 -93.5t-43.5 -96t-114.5 -38q-82 0 -144 44l41 86q53 -32 97 -32q27 0 42.5 11.5t15.5 30.5q0 16 -14.5 27t-38.5 11q-31 0 -64 -24l-51 54l24 191h222v-92h-149l-7 -51q22 7 47 7z" />
    <glyph glyph-name="uni2076" unicode="&#x2076;" horiz-adv-x="359" 
d="M200 764q60 0 97 -35.5t37 -92.5q0 -58 -42 -96.5t-106 -38.5q-77 0 -119 53t-42 139q0 94 47 156q48 63 139 63q70 0 118 -36l-41 -78q-34 22 -71 22q-38 0 -63.5 -22.5t-32.5 -61.5q28 28 79 28zM234 636q2 32 -33 41t-55 -13q-11 -12 -9 -29q0 -19 13.5 -32t34.5 -13
t35 13t14 33z" />
    <glyph glyph-name="uni2077" unicode="&#x2077;" horiz-adv-x="309" 
d="M12 800v102h282v-78l-143 -314h-120l136 290h-155z" />
    <glyph glyph-name="uni2078" unicode="&#x2078;" horiz-adv-x="370" 
d="M27 617q0 67 78 102v1q-61 25 -61 83q0 48 39 78.5t102 30.5t102.5 -30.5t39.5 -78.5q0 -59 -63 -83v-1q80 -33 80 -101q0 -51 -43 -84t-116 -33t-115.5 32.5t-42.5 83.5zM227 790q3 23 -19.5 33t-45 0t-20.5 -33q-2 -22 20.5 -31.5t45 0t19.5 31.5zM185 673
q-24 0 -38.5 -12t-14.5 -31t15 -30.5t38 -11.5q32 -3 45.5 19.5t0 45t-45.5 20.5z" />
    <glyph glyph-name="uni2079" unicode="&#x2079;" horiz-adv-x="357" 
d="M169 912q76 0 118 -53t42 -141q0 -94 -48 -155q-47 -62 -138 -62q-69 0 -118 35l41 79q35 -22 72 -22q39 0 64 23t32 63q-34 -30 -82 -30q-61 0 -97 35t-36 91q0 61 42 99t108 38zM169 733q20 0 33.5 12.5t13.5 31.5q0 20 -13.5 33t-33.5 13q-21 0 -35 -13t-14 -33
q0 -19 14 -31.5t35 -12.5z" />
    <glyph glyph-name="uni2080" unicode="&#x2080;" horiz-adv-x="398" 
d="M199 -161q-84 0 -131 56q-46 55 -46 149q0 95 46 150q47 56 131 56q83 0 129.5 -55.5t46.5 -150.5q0 -94 -46.5 -149.5t-129.5 -55.5zM138 44q0 -103 61 -103t61 103t-61 103t-61 -103z" />
    <glyph glyph-name="uni2081" unicode="&#x2081;" horiz-adv-x="286" 
d="M4 129l153 111h83v-395h-111v243l-68 -48z" />
    <glyph glyph-name="uni2082" unicode="&#x2082;" horiz-adv-x="348" 
d="M257 8l-66 -66h124v-97h-281v88l129 129q38 40 38 61q0 12 -10 20.5t-25 8.5q-37 0 -98 -58l-51 81q69 75 156 75q61 0 101 -35.5t40 -91.5q0 -58 -57 -115z" />
    <glyph glyph-name="uni2083" unicode="&#x2083;" horiz-adv-x="335" 
d="M5 -121l44 86q57 -26 93 -26q50 0 50 31q0 14 -14 22t-36 8h-55v93h47q50 0 50 29q0 26 -42 26q-34 0 -74 -25l-53 79q60 48 141 48q60 0 100 -30q41 -30 41 -74q0 -32 -20 -55.5t-53 -33.5v-2q40 -9 62 -34.5t22 -60.5q2 -53 -44 -87t-119 -34t-140 40z" />
    <glyph glyph-name="uni2084" unicode="&#x2084;" horiz-adv-x="374" 
d="M306 15h40v-87h-40v-83h-103v83h-172l-23 66l207 247h91v-226zM203 111l-81 -96h81v96z" />
    <glyph glyph-name="uni2085" unicode="&#x2085;" horiz-adv-x="337" 
d="M175 102q62 0 99.5 -35.5t37.5 -93.5t-43.5 -96t-114.5 -38q-82 0 -144 44l41 86q53 -32 97 -32q27 0 42.5 11.5t15.5 30.5q0 16 -14.5 27t-38.5 11q-31 0 -64 -24l-51 54l24 191h222v-92h-149l-7 -51q22 7 47 7z" />
    <glyph glyph-name="uni2086" unicode="&#x2086;" horiz-adv-x="359" 
d="M200 102q60 0 97 -35.5t37 -92.5q0 -58 -42 -96.5t-106 -38.5q-77 0 -119 53t-42 139q0 94 47 156q48 63 139 63q70 0 118 -36l-41 -78q-34 22 -71 22q-38 0 -63.5 -22.5t-32.5 -61.5q28 28 79 28zM234 -26q2 32 -33 41t-55 -13q-11 -12 -9 -29q0 -19 13.5 -32t34.5 -13
t35 13t14 33z" />
    <glyph glyph-name="uni2087" unicode="&#x2087;" horiz-adv-x="309" 
d="M12 138v102h282v-78l-143 -314h-120l136 290h-155z" />
    <glyph glyph-name="uni2088" unicode="&#x2088;" horiz-adv-x="370" 
d="M27 -45q0 67 78 102v1q-61 25 -61 83q0 48 39 78.5t102 30.5t102.5 -30.5t39.5 -78.5q0 -59 -63 -83v-1q80 -33 80 -101q0 -51 -43 -84t-116 -33t-115.5 32.5t-42.5 83.5zM227 128q3 23 -19.5 33t-45 0t-20.5 -33q-2 -22 20.5 -31.5t45 0t19.5 31.5zM185 11
q-24 0 -38.5 -12t-14.5 -31t15 -30.5t38 -11.5q32 -3 45.5 19.5t0 45t-45.5 20.5z" />
    <glyph glyph-name="uni2089" unicode="&#x2089;" horiz-adv-x="357" 
d="M169 250q76 0 118 -53t42 -141q0 -93 -48 -155q-47 -62 -138 -62q-69 0 -118 35l41 79q35 -22 72 -22q39 0 64 23t32 63q-34 -30 -82 -30q-61 0 -97 35t-36 91q0 61 42 99t108 38zM169 71q20 0 33.5 12.5t13.5 31.5q0 20 -13.5 33t-33.5 13q-21 0 -35 -13t-14 -33
q0 -19 14 -31.5t35 -12.5z" />
    <glyph glyph-name="Euro" unicode="&#x20ac;" horiz-adv-x="782" 
d="M569 241h-200q57 -77 159 -77q44 0 92 13q54 15 82 32v-174q-34 -19 -93 -33q-55 -13 -107 -13q-124 0 -219 69q-94 69 -130 183h-128l43 107h65v21v20h-84l42 107h60q36 117 130 186q94 70 221 70q66 0 133 -18.5t111 -50.5l-86 -146q-61 40 -131 40q-103 0 -162 -81
h307l-48 -107h-298q-1 -4 -1 -19q0 -17 1 -22h286z" />
    <glyph glyph-name="trademark" unicode="&#x2122;" horiz-adv-x="818" 
d="M126 643h-95v96h289v-96h-95v-254h-99v254zM552 564l116 175h83v-350h-98v156l-78 -114h-44l-78 114v-156h-98v350h83z" />
    <glyph glyph-name="estimated" unicode="&#x212e;" horiz-adv-x="947" 
d="M480 -17q-184 0 -312 110q-127 109 -127 273q0 165 127 274q128 111 312 111q183 0 310 -109q129 -109 129 -281v-21q0 -5 -7 -5h-686v-230q0 -3 4 -4q104 -72 250 -72q103 0 189 37t137 105l35 -29q-60 -75 -155.5 -117t-205.5 -42zM226 628v-243h508v244q0 3 -3 4
q-106 73 -251 73q-146 0 -252 -73q-2 -2 -2 -5z" />
    <glyph glyph-name="uni2150" unicode="&#x2150;" horiz-adv-x="911" 
d="M152 347v243l-68 -48l-57 89l153 111h83v-395h-111zM82 0l578 739h137l-577 -739h-138zM586 293v102h282v-78l-143 -314h-120l136 290h-155z" />
    <glyph glyph-name="uni2151" unicode="&#x2151;" horiz-adv-x="939" 
d="M263 347h-111v243l-68 -48l-57 89l153 111h83v-395zM96 0l578 739h137l-577 -739h-138zM736 405q76 0 118 -53t42 -141q0 -93 -48 -155q-47 -62 -138 -62q-69 0 -118 35l41 79q35 -22 72 -22q39 0 64 23t32 63q-35 -30 -82 -30q-61 0 -97 35t-36 91q0 61 42 99t108 38z
M736 226q20 0 33.5 12.5t13.5 31.5q0 20 -13.5 33t-33.5 13q-21 0 -35 -13t-14 -33q0 -19 14 -31.5t35 -12.5z" />
    <glyph glyph-name="uni2153" unicode="&#x2153;" horiz-adv-x="905" 
d="M263 347h-111v243l-68 -48l-57 89l153 111h83v-395zM88 0l578 739h136l-576 -739h-138zM775 213v-2q40 -9 62 -34.5t22 -60.5q2 -53 -44 -87t-119 -34t-140 40l44 86q57 -26 93 -26q50 0 50 31q0 30 -50 30h-55v93h47q50 0 50 29q0 26 -42 26q-34 0 -74 -25l-53 79
q60 48 141 48q59 0 100 -30t41 -74q0 -32 -20 -55.5t-53 -33.5z" />
    <glyph glyph-name="uni2154" unicode="&#x2154;" horiz-adv-x="900" 
d="M46 347v88l129 129q38 40 38 61q0 12 -10 20.5t-25 8.5q-37 0 -98 -58l-51 81q69 75 156 75q61 0 101 -35.5t40 -91.5q0 -58 -57 -115l-66 -66h124v-97h-281zM111 0l578 739h137l-577 -739h-138zM768 211v-2q40 -9 62 -34.5t22 -60.5q2 -53 -44 -87t-119 -34t-140 40
l44 86q57 -26 93 -26q50 0 50 31q0 14 -14 22t-36 8h-55v93h47q50 0 50 29q0 26 -42 26q-34 0 -74 -25l-53 79q60 48 141 48q60 0 100 -30q41 -30 41 -74q0 -32 -20 -55.5t-53 -33.5z" />
    <glyph glyph-name="uni2155" unicode="&#x2155;" horiz-adv-x="893" 
d="M263 347h-111v243l-68 -48l-57 89l153 111h83v-395zM92 0l578 739h137l-577 -739h-138zM721 257q62 0 99.5 -35.5t37.5 -93.5t-43.5 -96t-114.5 -38q-82 0 -144 44l41 86q53 -32 97 -32q27 0 42.5 11.5t15.5 30.5q0 16 -14.5 27t-38.5 11q-31 0 -64 -24l-51 54l24 191
h222v-92h-149l-7 -51q22 7 47 7z" />
    <glyph glyph-name="uni2156" unicode="&#x2156;" horiz-adv-x="885" 
d="M45 347v88l129 129q38 40 38 61q0 12 -10 20.5t-25 8.5q-37 0 -98 -58l-51 81q69 75 156 75q61 0 101 -35.5t40 -91.5q0 -58 -57 -115l-66 -66h124v-97h-281zM106 0l578 739h137l-577 -739h-138zM692 257q62 0 99.5 -35.5t37.5 -93.5t-43.5 -96t-114.5 -38q-82 0 -144 44
l41 86q53 -32 97 -32q27 0 42.5 11.5t15.5 30.5q0 16 -14.5 27t-38.5 11q-31 0 -64 -24l-51 54l24 191h222v-92h-149l-7 -51q24 7 47 7z" />
    <glyph glyph-name="uni2157" unicode="&#x2157;" horiz-adv-x="842" 
d="M156 441q50 0 50 31q0 14 -14 22t-36 8h-55v93h47q50 0 50 29q0 26 -42 26q-34 0 -74 -25l-53 79q60 48 141 48q60 0 100 -30q41 -30 41 -74q0 -32 -20 -55.5t-53 -33.5v-2q40 -9 62 -34.5t22 -60.5q2 -53 -44 -87t-119 -34t-140 40l44 86q57 -26 93 -26zM67 0l578 739
h137l-577 -739h-138zM660 257q62 0 99.5 -35.5t37.5 -93.5t-43.5 -96t-114.5 -38q-82 0 -144 44l41 86q53 -32 97 -32q27 0 42.5 11.5t15.5 30.5q0 16 -14.5 27t-38.5 11q-31 0 -64 -24l-51 54l24 191h222v-92h-149l-7 -51q24 7 47 7z" />
    <glyph glyph-name="uni2158" unicode="&#x2158;" horiz-adv-x="905" 
d="M322 347h-103v83h-172l-23 66l207 247h91v-226h40v-87h-40v-83zM118 0l578 739h137l-577 -739h-138zM219 613l-81 -96h81v96zM707 257q62 0 99.5 -35.5t37.5 -93.5t-43.5 -96t-114.5 -38q-82 0 -144 44l41 86q53 -32 97 -32q27 0 42.5 11.5t15.5 30.5q0 16 -14.5 27
t-38.5 11q-31 0 -64 -24l-51 54l24 191h222v-92h-149l-7 -51q22 7 47 7z" />
    <glyph glyph-name="uni2159" unicode="&#x2159;" horiz-adv-x="877" 
d="M263 347h-111v243l-68 -48l-57 89l153 111h83v-395zM87 0l578 739h137l-577 -739h-138zM716 257q62 0 99.5 -35.5t37.5 -93.5t-43.5 -96t-114.5 -38q-82 0 -144 44l41 86q53 -32 97 -32q27 0 42.5 11.5t15.5 30.5q0 16 -14.5 27t-38.5 11q-31 0 -64 -24l-51 54l24 191
h222v-92h-149l-7 -51q24 7 47 7z" />
    <glyph glyph-name="uni215A" unicode="&#x215a;" horiz-adv-x="887" 
d="M160 439q27 0 42.5 11.5t15.5 30.5q0 16 -14.5 27t-38.5 11q-31 0 -64 -24l-51 54l24 191h222v-92h-149l-7 -51q22 7 47 7q62 0 99.5 -35.5t37.5 -93.5t-43.5 -96t-114.5 -38q-82 0 -144 44l41 86q53 -32 97 -32zM92 0l578 739h137l-577 -739h-138zM713 257
q60 0 97 -35.5t37 -92.5q0 -58 -42 -96.5t-106 -38.5q-77 0 -119 53t-42 139q0 94 47 156q48 63 139 63q70 0 118 -36l-41 -78q-34 22 -71 22q-38 0 -63.5 -22.5t-32.5 -61.5q28 28 79 28zM747 129q2 32 -33 41t-55 -13q-11 -12 -9 -29q0 -19 13.5 -32t34.5 -13t35 13t14 33
z" />
    <glyph glyph-name="oneeighth" unicode="&#x215b;" horiz-adv-x="907" 
d="M263 347h-111v243l-68 -48l-57 89l153 111h83v-395zM93 0l578 739h137l-577 -739h-138zM791 213v-1q80 -33 80 -101q0 -51 -43 -84t-116 -33t-115.5 32.5t-42.5 83.5q0 68 78 102v1q-61 25 -61 83q0 48 39 78.5t102 30.5t102.5 -30.5t39.5 -78.5q0 -58 -63 -83zM669 283
q-2 -22 20.5 -31.5t45 0t19.5 31.5q3 23 -19.5 33t-45 0t-20.5 -33zM712 166q-24 0 -38.5 -12t-14.5 -31t15 -30.5t38 -11.5q32 -3 45.5 19.5t0 45t-45.5 20.5z" />
    <glyph glyph-name="threeeighths" unicode="&#x215c;" horiz-adv-x="874" 
d="M19 381l44 86q57 -26 93 -26q50 0 50 31q0 14 -14 22t-36 8h-55v93h47q50 0 50 29q0 26 -42 26q-34 0 -74 -25l-53 79q60 48 141 48q60 0 100 -30q41 -30 41 -74q0 -32 -20 -55.5t-53 -33.5v-2q40 -9 62 -34.5t22 -60.5q2 -53 -44 -87t-119 -34t-140 40zM228 0h-138
l578 739h137zM527 110q0 68 78 102v1q-61 25 -61 83q0 48 39 78.5t102 30.5t102.5 -30.5t39.5 -78.5q0 -58 -63 -83v-1q80 -33 80 -101q0 -51 -43 -84t-116 -33t-115.5 32.5t-42.5 83.5zM727 283q3 23 -19.5 33t-45 0t-20.5 -33q-2 -22 20.5 -31.5t45 0t19.5 31.5zM685 166
q-24 0 -38.5 -12t-14.5 -31t15 -30.5t38 -11.5q32 -3 45.5 19.5t0 45t-45.5 20.5z" />
    <glyph glyph-name="fiveeighths" unicode="&#x215d;" horiz-adv-x="895" 
d="M160 439q27 0 42.5 11.5t15.5 30.5q0 16 -14.5 27t-38.5 11q-31 0 -64 -24l-51 54l24 191h222v-92h-149l-7 -51q22 7 47 7q62 0 99.5 -35.5t37.5 -93.5t-43.5 -96t-114.5 -38q-82 0 -144 44l41 86q53 -32 97 -32zM111 0l578 739h137l-577 -739h-138zM784 213v-1
q80 -33 80 -101q0 -51 -43 -84t-116 -33t-115.5 32.5t-42.5 83.5q0 68 78 102v1q-61 25 -61 83q0 48 39 78.5t102 30.5t102.5 -30.5t39.5 -78.5q0 -58 -63 -83zM662 283q-2 -22 20.5 -31.5t45 0t19.5 31.5q3 23 -19.5 33t-45 0t-20.5 -33zM705 166q-24 0 -38.5 -12
t-14.5 -31t15 -30.5t38 -11.5q32 -3 45.5 19.5t0 45t-45.5 20.5z" />
    <glyph glyph-name="seveneighths" unicode="&#x215e;" horiz-adv-x="824" 
d="M176 350h-120l136 290h-155v102h282v-78zM37 0l578 739h137l-577 -739h-138zM714 213v-1q80 -33 80 -101q0 -51 -43 -84t-116 -33t-115.5 32.5t-42.5 83.5q0 68 78 102v1q-61 25 -61 83q0 48 39 78.5t102 30.5t102.5 -30.5t39.5 -78.5q0 -58 -63 -83zM592 283
q-2 -22 20.5 -31.5t45 0t19.5 31.5q3 23 -19.5 33t-45 0t-20.5 -33zM635 166q-24 0 -38.5 -12t-14.5 -31t15 -30.5t38 -11.5q32 -3 45.5 19.5t0 45t-45.5 20.5z" />
    <glyph glyph-name="partialdiff" unicode="&#x2202;" horiz-adv-x="619" 
d="M290 -12q-114 0 -187 72q-74 72 -74 182q0 107 67 178q68 73 171 74q66 1 124 -47q-64 138 -228 239l105 127q90 -46 165 -121q44 -44 76 -94q76 -116 76 -259q0 -151 -82 -251q-81 -100 -213 -100zM396 243q0 42 -28 71t-68 29q-41 0 -69 -30t-28 -72t27 -71.5t68 -29.5
t69.5 30t28.5 73z" />
    <glyph glyph-name="product" unicode="&#x220f;" horiz-adv-x="773" 
d="M33 734h708v-180h-90v-672h-188v672h-152v-672h-189v672h-89v180z" />
    <glyph glyph-name="summation" unicode="&#x2211;" horiz-adv-x="666" 
d="M631 -179h-587v146l198 312l-198 314v146h587v-172h-353l171 -288l-171 -286h353v-172z" />
    <glyph glyph-name="minus" unicode="&#x2212;" horiz-adv-x="578" 
d="M520 246h-462v164h462v-164z" />
    <glyph glyph-name="radical" unicode="&#x221a;" horiz-adv-x="783" 
d="M463 -118h-158l-168 432h-134v162h271l113 -329l225 661h197z" />
    <glyph glyph-name="infinity" unicode="&#x221e;" horiz-adv-x="967" 
d="M708 589q93 0 157 -64q65 -65 65 -154q0 -91 -66 -156q-65 -64 -158 -64q-65 0 -117 36q-29 21 -48 39l-56 53q-73 -71 -121 -99q-49 -28 -107 -28q-93 0 -157 64q-63 64 -63 154q0 89 65 154q67 65 157 65q50 0 99 -26q44 -23 125 -94q74 68 123 94q50 26 102 26z
M257 294q45 0 128 80q-79 68 -120 68q-33 0 -55 -22t-22 -53q0 -30 20.5 -51.5t48.5 -21.5zM701 294q32 0 55 22t23 53t-23.5 52t-55.5 21q-48 0 -118 -67q49 -48 74 -66q22 -15 45 -15z" />
    <glyph glyph-name="integral" unicode="&#x222b;" horiz-adv-x="518" 
d="M118 -210q-77 0 -139 32l36 151q35 -19 71 -19q41 0 65.5 28t24.5 85v514q0 125 60 184q62 59 156 59q80 0 150 -37l-46 -149q-33 18 -71 18q-41 0 -65 -28t-24 -86v-511q0 -65 -21 -114.5t-55 -76t-69.5 -38.5t-72.5 -12z" />
    <glyph glyph-name="approxequal" unicode="&#x2248;" horiz-adv-x="648" 
d="M401 379q-53 0 -116 29t-83 29q-18 0 -35 -13t-46 -49l-98 85q27 59 75 90.5t109 31.5q53 0 114 -29q60 -28 86 -28q19 0 37 14.5t44 54.5l101 -88q-69 -127 -188 -127zM407 141q-53 0 -116 29t-83 29q-18 0 -35 -13t-46 -49l-98 85q27 59 75 90.5t109 31.5q53 0 114 -29
q60 -28 86 -28q19 0 37 14.5t44 54.5l101 -88q-69 -127 -188 -127z" />
    <glyph glyph-name="notequal" unicode="&#x2260;" horiz-adv-x="580" 
d="M521 504v-142h-172l-28 -69h200v-141h-256l-40 -101h-89l40 101h-117v141h173l28 69h-201v142h257l40 101h89l-40 -101h116z" />
    <glyph glyph-name="lessequal" unicode="&#x2264;" horiz-adv-x="568" 
d="M504 356v-162l-454 174v124l454 181v-162l-245 -79zM504 169v-142h-457v142h457z" />
    <glyph glyph-name="greaterequal" unicode="&#x2265;" horiz-adv-x="568" 
d="M518 368l-454 -174v162l245 76l-245 79v162l454 -181v-124zM521 27h-457v142h457v-142z" />
    <glyph glyph-name="lozenge" unicode="&#x25ca;" horiz-adv-x="710" 
d="M431 -42h-152l-250 418l250 416h152l250 -416zM236 377l119 -204l119 204l-119 202z" />
    <glyph glyph-name="NULL" horiz-adv-x="0" 
 />
    <glyph glyph-name="Euro.osf" horiz-adv-x="609" 
d="M457 200h-186q49 -84 157 -84q64 0 147 43v-134q-26 -14 -76 -25t-89 -11q-104 0 -183 58q-79 59 -107 153h-114l39 87h-30l42 94h61q25 100 106 164q80 63 188 63q56 0 112.5 -15t92.5 -41l-57 -110q-65 34 -129 34q-57 0 -101 -25t-66 -70h279l-44 -94z" />
    <glyph glyph-name="I_J.loclNLD" horiz-adv-x="939" 
d="M73 0v739h188v-739h-188zM572 -12q-147 0 -241 88l80 150q68 -59 141 -59q63 0 99 39t36 106v427h187v-433q0 -84 -24.5 -147t-67.5 -99.5t-95.5 -54t-114.5 -17.5z" />
    <glyph glyph-name="Iacute_J.loclNLD" horiz-adv-x="933" 
d="M250 796h-168l68 195h201zM859 794h-168l68 195h201zM73 0v739h188v-739h-188zM572 -12q-147 0 -241 88l80 150q68 -59 141 -59q63 0 99 39t36 106v427h187v-433q0 -84 -24.5 -147t-67.5 -99.5t-95.5 -54t-114.5 -17.5z" />
    <glyph glyph-name="J.loclNLD" horiz-adv-x="600" 
d="M526 794h-168l68 195h201zM239 -12q-147 0 -241 88l80 150q68 -59 141 -59q63 0 99 39t36 106v427h187v-433q0 -84 -24.5 -147t-67.5 -99.5t-95.5 -54t-114.5 -17.5z" />
    <glyph glyph-name="Jacute" horiz-adv-x="600" 
d="M527 794h-168l68 195h201zM239 -12q-147 0 -241 88l80 150q68 -59 141 -59q63 0 99 39t36 106v427h187v-433q0 -84 -24.5 -147t-67.5 -99.5t-95.5 -54t-114.5 -17.5z" />
    <glyph glyph-name="_1" horiz-adv-x="0" 
 />
    <glyph glyph-name="a.ss02" horiz-adv-x="591" 
d="M285 566q103 0 173 -48q83 -53 83 -194v-324h-157v51q-61 -64 -165 -64q-91 0 -142 49t-51 127q0 87 67.5 131.5t186.5 46.5h40l58 2q-10 72 -103 72q-89 0 -174 -42l-55 130q120 63 239 63zM254 122q46 0 82 28t42 72l-52 -2q-21 -1 -38 -1q-96 -1 -96 -50
q0 -21 16.5 -34t45.5 -13z" />
    <glyph glyph-name="aacute.ss02" horiz-adv-x="591" 
d="M276 812h189l-95 -183h-158zM285 566q103 0 173 -48q83 -53 83 -194v-324h-157v51q-61 -64 -165 -64q-91 0 -142 49t-51 127q0 87 67.5 131.5t186.5 46.5h40l58 2q-10 72 -103 72q-89 0 -174 -42l-55 130q120 63 239 63zM254 122q46 0 82 28t42 72l-52 -2q-21 -1 -38 -1
q-96 -1 -96 -50q0 -21 16.5 -34t45.5 -13z" />
    <glyph glyph-name="abreve.ss02" horiz-adv-x="591" 
d="M298 625q-87 0 -139.5 49.5t-59.5 138.5h134q2 -34 19 -55t46 -21q31 0 47.5 21t17.5 55h136q-7 -89 -60.5 -138.5t-140.5 -49.5zM285 566q103 0 173 -48q83 -53 83 -194v-324h-157v51q-61 -64 -165 -64q-91 0 -142 49t-51 127q0 87 67.5 131.5t186.5 46.5h40l58 2
q-10 72 -103 72q-89 0 -174 -42l-55 130q120 63 239 63zM254 122q46 0 82 28t42 72l-52 -2q-21 -1 -38 -1q-96 -1 -96 -50q0 -21 16.5 -34t45.5 -13z" />
    <glyph glyph-name="acircumflex.ss02" horiz-adv-x="591" 
d="M348 629l-59 84l-59 -84h-160l154 185h134l155 -185h-165zM285 566q103 0 173 -48q83 -53 83 -194v-324h-157v51q-61 -64 -165 -64q-91 0 -142 49t-51 127q0 87 67.5 131.5t186.5 46.5h40l58 2q-10 72 -103 72q-89 0 -174 -42l-55 130q120 63 239 63zM254 122q46 0 82 28
t42 72l-52 -2q-21 -1 -38 -1q-96 -1 -96 -50q0 -21 16.5 -34t45.5 -13z" />
    <glyph glyph-name="acute.case" horiz-adv-x="362" 
d="M209 796h-168l68 195h201z" />
    <glyph glyph-name="adieresis.ss02" horiz-adv-x="591" 
d="M88 713q0 40 27.5 67.5t68.5 27.5t68.5 -27.5t27.5 -67.5q0 -42 -27.5 -69t-68.5 -27t-68.5 27t-27.5 69zM319 713q0 40 28 67.5t69 27.5t68.5 -27.5t27.5 -67.5q0 -42 -27.5 -69t-68.5 -27q-42 0 -69.5 27t-27.5 69zM285 566q103 0 173 -48q83 -53 83 -194v-324h-157v51
q-61 -64 -165 -64q-91 0 -142 49t-51 127q0 87 67.5 131.5t186.5 46.5h40l58 2q-10 72 -103 72q-89 0 -174 -42l-55 130q120 63 239 63zM254 122q46 0 82 28t42 72l-52 -2q-21 -1 -38 -1q-96 -1 -96 -50q0 -21 16.5 -34t45.5 -13z" />
    <glyph glyph-name="agrave.ss02" horiz-adv-x="591" 
d="M329 813l64 -183h-159l-94 183h189zM285 566q103 0 173 -48q83 -53 83 -194v-324h-157v51q-61 -64 -165 -64q-91 0 -142 49t-51 127q0 87 67.5 131.5t186.5 46.5h40l58 2q-10 72 -103 72q-89 0 -174 -42l-55 130q120 63 239 63zM254 122q46 0 82 28t42 72l-52 -2
q-21 -1 -38 -1q-96 -1 -96 -50q0 -21 16.5 -34t45.5 -13z" />
    <glyph glyph-name="amacron.ss02" horiz-adv-x="591" 
d="M130 791h343v-151l-343 -2v153zM285 566q103 0 173 -48q83 -53 83 -194v-324h-157v51q-61 -64 -165 -64q-91 0 -142 49t-51 127q0 87 67.5 131.5t186.5 46.5h40l58 2q-10 72 -103 72q-89 0 -174 -42l-55 130q120 63 239 63zM254 122q46 0 82 28t42 72l-52 -2
q-21 -1 -38 -1q-96 -1 -96 -50q0 -21 16.5 -34t45.5 -13z" />
    <glyph glyph-name="aogonek.ss02" horiz-adv-x="587" 
d="M528 -129l28 -108q-57 -30 -117 -30q-59 0 -93 33.5t-34 85.5q0 83 92 148h-20v51q-61 -64 -165 -64q-91 0 -142 49t-51 127q0 87 67.5 131.5t186.5 46.5h40l58 2q-10 72 -103 72q-89 0 -174 -42l-55 130q120 63 239 63q103 0 173 -48q83 -53 83 -194v-324
q-36 -17 -62.5 -47.5t-26.5 -56.5q0 -17 10 -26.5t25 -9.5q11 0 41 11zM254 122q46 0 82 28t42 72l-52 -2q-21 -1 -38 -1q-96 -1 -96 -50q0 -21 16.5 -34t45.5 -13z" />
    <glyph glyph-name="aring.ss02" horiz-adv-x="591" 
d="M152 750q0 60 42 100q44 42 104 42q61 0 103 -42q42 -40 42 -100q0 -58 -42 -99q-41 -40 -103 -40q-61 0 -104 40q-42 41 -42 99zM298 801q-22 0 -36.5 -14t-14.5 -35t14.5 -36t36.5 -15q20 0 34.5 15t14.5 36t-14.5 35t-34.5 14zM285 566q103 0 173 -48q83 -53 83 -194
v-324h-157v51q-61 -64 -165 -64q-91 0 -142 49t-51 127q0 87 67.5 131.5t186.5 46.5h40l58 2q-10 72 -103 72q-89 0 -174 -42l-55 130q120 63 239 63zM254 122q46 0 82 28t42 72l-52 -2q-21 -1 -38 -1q-96 -1 -96 -50q0 -21 16.5 -34t45.5 -13z" />
    <glyph glyph-name="at.case" horiz-adv-x="960" 
d="M564 538v34h130v-245q0 -26 10 -40t25 -14q28 0 52 40q25 40 25 101q0 129 -93 213t-224 81q-139 -4 -235 -102q-95 -98 -95 -235q0 -143 100 -243t242 -100q67 0 136 23.5t122 63.5l56 -98q-48 -41 -135 -72q-88 -32 -182 -32q-128 0 -235 63q-105 61 -166 167
q-60 107 -60 230q0 189 132 319q133 131 325 131t313 -117q123 -117 123 -284q0 -119 -64 -195t-159 -76q-82 0 -120 68q-53 -68 -145 -68q-87 0 -145 61t-58 156q0 93 57 156t145 63q75 0 123 -49zM469 466q-39 0 -66.5 -28t-27.5 -69q-2 -30 15 -53.5t42 -34t54 -6
t48 25.5q22 19 26.5 48.5t-6 55.5t-34 44.5t-51.5 16.5z" />
    <glyph glyph-name="atilde.ss02" horiz-adv-x="591" 
d="M241 669q-39 0 -67 -54l-111 56q34 68 72 99t91 31q35 0 75 -22q41 -21 56 -21q30 0 60 50l112 -53q-57 -131 -150 -131q-33 0 -76 22q-44 23 -62 23zM285 566q103 0 173 -48q83 -53 83 -194v-324h-157v51q-61 -64 -165 -64q-91 0 -142 49t-51 127q0 87 67.5 131.5
t186.5 46.5h40l58 2q-10 72 -103 72q-89 0 -174 -42l-55 130q120 63 239 63zM254 122q46 0 82 28t42 72l-52 -2q-21 -1 -38 -1q-96 -1 -96 -50q0 -21 16.5 -34t45.5 -13z" />
    <glyph glyph-name="backslash.case" horiz-adv-x="637" 
d="M218 739l401 -739h-199l-404 739h202z" />
    <glyph glyph-name="braceleft.case" horiz-adv-x="445" 
d="M233 374v-3q39 -11 66 -41t27 -73q0 -25 -7 -80q-6 -57 -6 -80q0 -68 68 -68h24v-176h-88q-188 0 -188 197q0 28 4 76q5 60 5 81q0 51 -26 70t-89 22v149q63 4 89 22.5t26 69.5q0 20 -5 83q-4 51 -4 84q0 94 48.5 141t151.5 47h76v-176h-24q-68 0 -68 -68q0 -23 6 -82
q7 -55 7 -80q0 -42 -27 -72.5t-66 -42.5z" />
    <glyph glyph-name="braceright.case" horiz-adv-x="445" 
d="M212 373v3q-39 12 -66 42t-27 73q0 21 6 80q7 55 7 82q0 67 -68 67h-24v176h76q104 0 152 -46.5t48 -140.5q0 -21 -5 -84t-5 -83q0 -50 26 -69t89 -23v-149q-63 -3 -89 -22t-26 -70q0 -20 5 -82q5 -60 5 -76q0 -197 -188 -197h-88v177h24q68 0 68 67q0 26 -7 81
q-6 59 -6 80q0 42 27 72t66 42z" />
    <glyph glyph-name="bracketleft.case" horiz-adv-x="447" 
d="M421 -141h-347v1038h347v-161h-167v-715h167v-162z" />
    <glyph glyph-name="bracketright.case" horiz-adv-x="447" 
d="M373 -141h-347v162h167v715h-167v161h347v-1038z" />
    <glyph glyph-name="breve.case" horiz-adv-x="510" 
d="M41 989h143q2 -36 20 -58.5t49 -22.5q32 0 50 23t19 58h145q-8 -95 -65 -148t-149 -53q-93 0 -149 53t-63 148z" />
    <glyph glyph-name="brevecombcy" horiz-adv-x="0" 
d="M-492 708l92 94q40 -50 72 -69t72 -19t72 19t72 69l92 -94q-99 -124 -237 -124t-235 124z" />
    <glyph glyph-name="caron.alt" horiz-adv-x="320" 
d="M172 627h-150l70 188h181z" />
    <glyph glyph-name="caron.case" horiz-adv-x="579" 
d="M228 795l-154 185h160l59 -84l59 84h165l-155 -185h-134z" />
    <glyph glyph-name="cedilla.case" horiz-adv-x="369" 
d="M252 18l-28 -67q46 -5 76 -33.5t30 -71.5q0 -52 -42 -89q-43 -38 -116 -38q-62 0 -132 32l35 96q42 -21 81 -21q48 0 48 32q0 33 -58 33h-53l-7 31l39 98z" />
    <glyph glyph-name="circumflex.case" horiz-adv-x="564" 
d="M210 796h-170l164 197h142l166 -197h-176l-63 90z" />
    <glyph glyph-name="colon.case" horiz-adv-x="311" 
d="M157 428q-41 0 -69.5 27.5t-28.5 68.5q0 40 28.5 67t69.5 27q39 0 66.5 -27.5t27.5 -66.5q0 -41 -27.5 -68.5t-66.5 -27.5zM157 90q-41 0 -69.5 27.5t-28.5 68.5q0 40 28.5 67t69.5 27q39 0 66.5 -27.5t27.5 -66.5q0 -41 -27.5 -68.5t-66.5 -27.5z" />
    <glyph glyph-name="comma.ss03" horiz-adv-x="291" 
d="M1 -183l86 332h171l-116 -332h-141z" />
    <glyph glyph-name="commaccent" horiz-adv-x="264" 
d="M245 -159q0 -49 -36.5 -94t-124.5 -110l-59 74q49 36 77 62q-23 10 -37.5 32t-14.5 48q0 37 27 63t68 26q42 0 71 -28t29 -73z" />
    <glyph glyph-name="commaccent.case" horiz-adv-x="273" 
d="M257 -165q0 -52 -39 -99.5t-129 -113.5l-61 77q51 37 80 65q-23 10 -38.5 33t-15.5 50q0 39 28.5 66t70.5 27q43 0 73.5 -29.5t30.5 -75.5z" />
    <glyph glyph-name="dieresis.case" horiz-adv-x="531" 
d="M143 792q-43 0 -72 28.5t-29 72.5q0 42 29 70.5t72 28.5q42 0 71 -28.5t29 -70.5q0 -44 -29 -72.5t-71 -28.5zM284 893q0 42 29.5 70.5t71.5 28.5q43 0 72 -28.5t29 -70.5q0 -44 -29 -72.5t-72 -28.5t-72 28.5t-29 72.5z" />
    <glyph glyph-name="dollar.osf" horiz-adv-x="542" 
d="M519 176q0 -65 -43.5 -112.5t-116.5 -66.5v-120h-153v115q-117 22 -183 116l102 101q27 -34 67 -55.5t83 -21.5q30 0 47 10t17 28q0 14 -11.5 23.5t-39.5 21.5q-92 37 -139 66q-49 30 -71 63.5t-22 79.5q0 67 40.5 112.5t111.5 61.5v113h153v-111q78 -17 144 -68
l-82 -115q-75 48 -138 48q-29 0 -45.5 -10t-16.5 -26q0 -14 15 -24.5t59 -29.5l46 -20q56 -21 84 -37q92 -53 92 -142z" />
    <glyph glyph-name="dotaccent.case" horiz-adv-x="300" 
d="M142 791q-44 0 -73 29t-29 73q0 43 29.5 71.5t72.5 28.5t72 -28.5t29 -71.5q0 -44 -29 -73t-72 -29z" />
    <glyph glyph-name="eight.dnom" horiz-adv-x="370" 
d="M27 110q0 68 78 102v1q-61 25 -61 83q0 48 39 78.5t102 30.5t102.5 -30.5t39.5 -78.5q0 -58 -63 -83v-1q80 -33 80 -101q0 -51 -43 -84t-116 -33t-115.5 32.5t-42.5 83.5zM227 283q3 23 -19.5 33t-45 0t-20.5 -33q-2 -22 20.5 -31.5t45 0t19.5 31.5zM185 166
q-24 0 -38.5 -12t-14.5 -31t15 -30.5t38 -11.5q32 -3 45.5 19.5t0 45t-45.5 20.5z" />
    <glyph glyph-name="eight.lf" horiz-adv-x="644" 
d="M323 -12q-129 0 -208 61q-78 61 -78 158q0 63 36.5 113.5t97.5 72.5v2q-47 22 -75 63t-28 94q0 89 70 144q71 56 185 56q113 0 184 -56q70 -55 70 -144q0 -107 -104 -157v-3q61 -21 97.5 -71.5t36.5 -113.5q0 -97 -78 -158q-77 -61 -206 -61zM322 461q39 0 62 19.5
t23 50.5q0 30 -23.5 50t-61.5 20t-62 -20t-24 -50q0 -31 23.5 -50.5t62.5 -19.5zM323 151q42 0 69 22t27 55q0 34 -27 55q-25 22 -70 22q-44 0 -71 -21q-26 -21 -26 -55t27 -56t71 -22z" />
    <glyph glyph-name="eight.num" horiz-adv-x="370" 
d="M27 457q0 67 78 102v1q-61 25 -61 83q0 48 39 78.5t102 30.5t102.5 -30.5t39.5 -78.5q0 -59 -63 -83v-1q80 -33 80 -101q0 -51 -43 -84t-116 -33t-115.5 32.5t-42.5 83.5zM227 630q3 23 -19.5 33t-45 0t-20.5 -33q-2 -22 20.5 -31.5t45 0t19.5 31.5zM185 513
q-24 0 -38.5 -12t-14.5 -31t15 -30.5t38 -11.5q32 -3 45.5 19.5t0 45t-45.5 20.5z" />
    <glyph glyph-name="eight.osf" horiz-adv-x="637" 
d="M320 -11q-129 0 -208 58q-78 59 -78 152q0 59 36.5 107.5t97.5 69.5v2q-103 46 -103 149q0 84 70 138t185 54q114 0 183 -54q70 -54 70 -138q0 -104 -104 -149v-3q62 -20 98.5 -68t36.5 -108q0 -93 -78 -152q-77 -58 -206 -58zM319 441q38 0 62 18.5t24 46.5t-24 47
t-62 19q-39 0 -63.5 -19t-24.5 -47t24.5 -46.5t63.5 -18.5zM320 148q43 0 70 20t27 51t-27 51t-71 20q-45 0 -72 -19.5t-27 -50.5q0 -32 27.5 -52t72.5 -20z" />
    <glyph glyph-name="eight.tf" horiz-adv-x="639" 
d="M320 -12q-129 0 -208 61q-78 61 -78 158q0 63 36.5 113.5t97.5 72.5v2q-47 22 -75 63t-28 94q0 89 70 144q71 56 185 56q113 0 184 -56q70 -55 70 -144q0 -107 -104 -157v-3q61 -21 97.5 -71.5t36.5 -113.5q0 -97 -78 -158q-77 -61 -206 -61zM319 461q39 0 62 19.5
t23 50.5q0 30 -23.5 50t-61.5 20q-39 0 -62.5 -20t-23.5 -50q0 -31 23.5 -50.5t62.5 -19.5zM320 151q42 0 69 22t27 55q0 34 -27 55q-25 22 -70 22q-44 0 -71 -21q-26 -21 -26 -55t27 -56t71 -22z" />
    <glyph glyph-name="eight_fraction_nine" horiz-adv-x="893" 
d="M349 458q0 -51 -43 -84t-116 -33t-115.5 32.5t-42.5 83.5q0 67 78 102v1q-61 25 -61 83q0 48 39 78.5t102 30.5t102.5 -30.5t39.5 -78.5q0 -59 -63 -83v-1q80 -33 80 -101zM88 0l578 739h136l-576 -739h-138zM147 630q-2 -22 20.5 -31.5t45 0t19.5 31.5q3 23 -19.5 33
t-45 0t-20.5 -33zM190 513q-24 0 -38.5 -12t-14.5 -31t15 -30.5t38 -11.5q32 -3 45.5 19.5t0 45t-45.5 20.5zM694 405q76 0 118 -53t42 -141q0 -93 -48 -155q-47 -62 -138 -62q-69 0 -118 35l41 79q35 -22 72 -22q39 0 64 23t32 63q-35 -30 -82 -30q-61 0 -97 35t-36 91
q0 61 42 99t108 38zM694 226q20 0 33.5 12.5t13.5 31.5q0 20 -13.5 33t-33.5 13q-21 0 -35 -13t-14 -33q0 -19 14 -31.5t35 -12.5z" />
    <glyph glyph-name="emdash.case" horiz-adv-x="1050" 
d="M991 280h-932v179h932v-179z" />
    <glyph glyph-name="endash.case" horiz-adv-x="731" 
d="M672 280h-613v179h613v-179z" />
    <glyph glyph-name="exclamdown.case" horiz-adv-x="313" 
d="M176 757q39 0 66 -27.5t27 -68.5q0 -40 -27.5 -67.5t-65.5 -27.5q-41 0 -69.5 27.5t-28.5 67.5q0 41 28.5 68.5t69.5 27.5zM84 -19l11 538h158l13 -538h-182z" />
    <glyph glyph-name="five.dnom" horiz-adv-x="337" 
d="M175 257q62 0 99.5 -35.5t37.5 -93.5t-43.5 -96t-114.5 -38q-82 0 -144 44l41 86q53 -32 97 -32q27 0 42.5 11.5t15.5 30.5q0 16 -14.5 27t-38.5 11q-31 0 -64 -24l-51 54l24 191h222v-92h-149l-7 -51q22 7 47 7z" />
    <glyph glyph-name="five.lf" horiz-adv-x="601" 
d="M317 472q106 0 177 -64q73 -64 73 -169q0 -108 -78 -180q-77 -71 -209 -71q-138 0 -256 76l67 150q97 -55 179 -55q52 0 81.5 23t29.5 58q0 33 -28 54.5t-70 21.5q-61 0 -112 -42l-102 94l38 371h409v-172h-272l-11 -107q43 12 84 12z" />
    <glyph glyph-name="five.num" horiz-adv-x="337" 
d="M175 604q62 0 99.5 -35.5t37.5 -93.5t-43.5 -96t-114.5 -38q-82 0 -144 44l41 86q53 -32 97 -32q27 0 42.5 11.5t15.5 30.5q0 16 -14.5 27t-38.5 11q-31 0 -64 -24l-51 54l24 191h222v-92h-149l-7 -51q22 7 47 7z" />
    <glyph glyph-name="five.osf" horiz-adv-x="586" 
d="M310 341q105 0 177 -60q73 -60 73 -158q0 -102 -78 -169q-77 -68 -209 -68q-138 0 -256 70l68 143q98 -50 179 -50q51 0 80.5 20t29.5 51q0 29 -28.5 49t-69.5 20q-59 0 -112 -38l-101 93l37 348h409v-163h-271l-12 -100q44 12 84 12z" />
    <glyph glyph-name="five.tf" horiz-adv-x="639" 
d="M329 472q106 0 177 -64q73 -64 73 -169q0 -108 -78 -180q-77 -71 -209 -71q-138 0 -256 76l67 150q97 -55 179 -55q52 0 81.5 23t29.5 58q0 33 -28 54.5t-70 21.5q-61 0 -112 -42l-102 94l38 371h409v-172h-272l-11 -107q43 12 84 12z" />
    <glyph glyph-name="five_fraction_nine" horiz-adv-x="890" 
d="M160 439q27 0 42.5 11.5t15.5 30.5q0 16 -14.5 27t-38.5 11q-31 0 -64 -24l-51 54l24 191h222v-92h-149l-7 -51q22 7 47 7q62 0 99.5 -35.5t37.5 -93.5t-43.5 -96t-114.5 -38q-82 0 -144 44l41 86q53 -32 97 -32zM84 0l578 739h137l-577 -739h-138zM690 405q76 0 118 -53
t42 -141q0 -93 -48 -155q-47 -62 -138 -62q-69 0 -118 35l41 79q35 -22 72 -22q39 0 64 23t32 63q-35 -30 -82 -30q-61 0 -97 35t-36 91q0 61 42 99t108 38zM690 226q20 0 33.5 12.5t13.5 31.5q0 20 -13.5 33t-33.5 13q-21 0 -35 -13t-14 -33q0 -19 14 -31.5t35 -12.5z" />
    <glyph glyph-name="five_fraction_seven" horiz-adv-x="881" 
d="M164 439q27 0 42.5 11.5t15.5 30.5q0 16 -14.5 27t-38.5 11q-31 0 -64 -24l-51 54l24 191h222v-92h-149l-7 -51q22 7 47 7q62 0 99.5 -35.5t37.5 -93.5t-43.5 -96t-114.5 -38q-82 0 -144 44l41 86q53 -32 97 -32zM77 0l578 739h137l-577 -739h-138zM558 293v102h282v-78
l-143 -314h-120l136 290h-155z" />
    <glyph glyph-name="four.dnom" horiz-adv-x="374" 
d="M306 170h40v-87h-40v-83h-103v83h-172l-23 66l207 247h91v-226zM203 266l-81 -96h81v96z" />
    <glyph glyph-name="four.lf" horiz-adv-x="633" 
d="M519 312h77v-152h-77v-160h-172v160h-310l-36 123l373 456h145v-427zM347 499l-150 -187h150v187z" />
    <glyph glyph-name="four.num" horiz-adv-x="374" 
d="M306 517h40v-87h-40v-83h-103v83h-172l-23 66l207 247h91v-226zM203 613l-81 -96h81v96z" />
    <glyph glyph-name="four.osf" horiz-adv-x="637" 
d="M527 207h77v-148h-77v-159h-171v159h-308l-37 120l372 414h144v-386zM356 368l-142 -161h142v161z" />
    <glyph glyph-name="four.tf" horiz-adv-x="639" 
d="M532 312h77v-152h-77v-160h-172v160h-310l-36 123l373 456h145v-427zM360 499l-150 -187h150v187z" />
    <glyph glyph-name="four_fraction_nine" horiz-adv-x="984" 
d="M322 347h-103v83h-172l-23 66l207 247h91v-226h40v-87h-40v-83zM161 0l578 739h137l-577 -739h-138zM219 613l-81 -96h81v96zM775 405q76 0 118 -53t42 -141q0 -93 -48 -155q-47 -62 -138 -62q-69 0 -118 35l41 79q35 -22 72 -22q39 0 64 23t32 63q-34 -30 -82 -30
q-61 0 -97 35t-36 91q0 61 42 99t108 38zM775 226q20 0 33.5 12.5t13.5 31.5q0 20 -13.5 33t-33.5 13q-21 0 -35 -13t-14 -33q0 -19 14 -31.5t35 -12.5z" />
    <glyph glyph-name="four_fraction_seven" horiz-adv-x="940" 
d="M322 347h-103v83h-172l-23 66l207 247h91v-226h40v-87h-40v-83zM132 0l578 739h136l-576 -739h-138zM219 613l-81 -96h81v96zM612 293v102h282v-78l-143 -314h-120l136 290h-155z" />
    <glyph glyph-name="grave.case" horiz-adv-x="359" 
d="M243 992l68 -196h-170l-100 196h202z" />
    <glyph glyph-name="guillemotleft.case" horiz-adv-x="648" 
d="M350 169h-189l-131 203l132 203h188l-138 -203zM605 169h-189l-130 203l131 203h188l-138 -203z" />
    <glyph glyph-name="guillemotright.case" horiz-adv-x="648" 
d="M362 372l-131 -203h-189l138 203l-138 203h188zM617 372l-130 -203h-189l138 203l-138 203h188z" />
    <glyph glyph-name="guilsinglleft.case" horiz-adv-x="392" 
d="M350 169h-189l-131 203l132 203h188l-138 -203z" />
    <glyph glyph-name="guilsinglright.case" horiz-adv-x="392" 
d="M361 372l-130 -203h-189l138 203l-138 203h188z" />
    <glyph glyph-name="hungarumlaut.case" horiz-adv-x="596" 
d="M198 796h-156l46 195h190zM432 796h-161l71 195h197z" />
    <glyph glyph-name="hyphen.case" horiz-adv-x="548" 
d="M490 280h-431v179h431v-179z" />
    <glyph glyph-name="i.loclTRK" horiz-adv-x="288" 
d="M149 601q-44 0 -73 29t-29 73q0 43 29.5 71.5t72.5 28.5t72 -28.5t29 -71.5q0 -44 -29 -73t-72 -29zM237 552v-552h-177v552h177z" />
    <glyph glyph-name="i_j.loclNLD" horiz-adv-x="627" 
d="M148 601q-44 0 -73 29t-29 73q0 43 29.5 71.5t72.5 28.5t72 -28.5t29 -71.5q0 -44 -29 -73t-72 -29zM439 601q-44 0 -73 29t-29 73q0 43 29.5 71.5t72.5 28.5t72 -28.5t29 -71.5q0 -44 -29 -73t-72 -29zM237 552v-552h-177v552h177zM294 -235q-98 0 -148 33l32 137
q51 -17 83 -17q90 0 90 105v529h177v-547q0 -121 -66 -180q-64 -60 -168 -60z" />
    <glyph glyph-name="iacute_j.loclNLD" horiz-adv-x="583" 
d="M219 629h-158l64 183h189zM520 629h-158l64 183h189zM233 552v-552h-177v552h177zM294 -235q-98 0 -148 33l32 137q51 -17 83 -17q90 0 90 105v529h177v-547q0 -121 -66 -180q-64 -60 -168 -60z" />
    <glyph glyph-name="j.loclNLD" horiz-adv-x="312" 
d="M168 601q-44 0 -73 29t-29 73q0 43 29.5 71.5t72.5 28.5t72 -28.5t29 -71.5q0 -44 -29 -73t-72 -29zM23 -235q-99 0 -148 33l32 137q51 -17 83 -17q90 0 90 105v529h177v-547q0 -121 -66 -180q-65 -60 -168 -60z" />
    <glyph glyph-name="jacute" horiz-adv-x="312" 
d="M239 629h-158l64 183h189zM23 -235q-99 0 -148 33l32 137q51 -17 83 -17q90 0 90 105v529h177v-547q0 -121 -66 -180q-65 -60 -168 -60z" />
    <glyph glyph-name="macron.case" horiz-adv-x="483" 
d="M432 811l-391 -2v153h391v-151z" />
    <glyph glyph-name="nine.dnom" horiz-adv-x="357" 
d="M169 405q76 0 118 -53t42 -141q0 -93 -48 -155q-47 -62 -138 -62q-69 0 -118 35l41 79q35 -22 72 -22q39 0 64 23t32 63q-34 -30 -82 -30q-61 0 -97 35t-36 91q0 61 42 99t108 38zM169 226q20 0 33.5 12.5t13.5 31.5q0 20 -13.5 33t-33.5 13q-21 0 -35 -13t-14 -33
q0 -19 14 -31.5t35 -12.5z" />
    <glyph glyph-name="nine.lf" horiz-adv-x="630" 
d="M309 752q140 0 215 -100q76 -98 76 -254q0 -110 -35 -203q-35 -92 -110 -149q-76 -58 -184 -58q-122 0 -213 68l67 136q67 -41 133 -41q65 0 106 40.5t54 115.5q-56 -42 -142 -42q-104 0 -172 66q-68 68 -68 170q0 109 75 180q77 71 198 71zM306 418q29 -2 52 14.5
t33 40.5t5.5 51.5t-24.5 45.5q-25 25 -65 25q-39 0 -65.5 -25t-26.5 -64t26 -63.5t65 -24.5z" />
    <glyph glyph-name="nine.num" horiz-adv-x="357" 
d="M169 752q76 0 118 -53t42 -141q0 -94 -48 -155q-47 -62 -138 -62q-69 0 -118 35l41 79q35 -22 72 -22q39 0 64 23t32 63q-34 -30 -82 -30q-61 0 -97 35t-36 91q0 61 42 99t108 38zM169 573q20 0 33.5 12.5t13.5 31.5q0 20 -13.5 33t-33.5 13q-21 0 -35 -13t-14 -33
q0 -19 14 -31.5t35 -12.5z" />
    <glyph glyph-name="nine.osf" horiz-adv-x="617" 
d="M298 612q136 0 210 -95q75 -94 75 -241q0 -107 -34 -193q-35 -86 -109 -141q-74 -56 -179 -56q-124 0 -210 65l67 132q64 -38 130 -38q63 0 103 37.5t53 106.5q-52 -40 -139 -40q-101 0 -169 63q-66 64 -66 161q0 103 74 171q76 68 194 68zM385 376q0 34 -26 57t-64 23
q-39 0 -64 -22.5t-25 -58.5q0 -35 25.5 -57.5t63.5 -22.5t64 23t26 58z" />
    <glyph glyph-name="nine.tf" horiz-adv-x="639" 
d="M314 752q140 0 215 -100q76 -98 76 -254q0 -110 -35 -203q-35 -92 -110 -149q-76 -58 -184 -58q-122 0 -213 68l67 136q67 -41 133 -41q65 0 106 40.5t54 115.5q-55 -42 -142 -42q-104 0 -172 66q-68 68 -68 170q0 109 75 180q77 71 198 71zM311 418q29 -2 52 14.5
t33 40.5t5.5 51.5t-24.5 45.5q-25 25 -65 25q-39 0 -65.5 -25t-26.5 -64t26 -63.5t65 -24.5z" />
    <glyph glyph-name="ogonek.case" horiz-adv-x="330" 
d="M256 -129l28 -108q-57 -30 -117 -30q-59 0 -93 33.5t-34 85.5q0 96 122 167l107 -19q-36 -17 -62.5 -47.5t-26.5 -56.5q0 -17 10 -26.5t25 -9.5q11 0 41 11z" />
    <glyph glyph-name="one.dnom" horiz-adv-x="286" 
d="M4 284l153 111h83v-395h-111v243l-68 -48z" />
    <glyph glyph-name="one.lf" horiz-adv-x="443" 
d="M-8 552l244 187h134v-739h-180v495l-106 -77z" />
    <glyph glyph-name="one.num" horiz-adv-x="286" 
d="M4 631l153 111h83v-395h-111v243l-68 -48z" />
    <glyph glyph-name="one.numalt" horiz-adv-x="344" 
d="M12 631l153 111h83v-395h-111v243l-68 -48z" />
    <glyph glyph-name="one.osf" horiz-adv-x="533" 
d="M393 598v-445h127v-153h-466v153h162v237l-130 -83l-80 131l247 160h140z" />
    <glyph glyph-name="one.tf" horiz-adv-x="639" 
d="M432 739v-569h148v-171h-483v171h155v325l-106 -77l-92 134l244 187h134z" />
    <glyph glyph-name="parenleft.case" horiz-adv-x="437" 
d="M423 3l-83 -141q-151 82 -229 213.5t-78 301.5q0 172 79.5 303t234.5 212l76 -143q-197 -132 -197 -371q0 -118 48.5 -209t148.5 -166z" />
    <glyph glyph-name="parenright.case" horiz-adv-x="437" 
d="M97 -138l-83 141q100 75 148 165.5t48 209.5q0 239 -197 371l76 143q155 -81 235 -212t80 -303q0 -169 -78.5 -301.5t-228.5 -213.5z" />
    <glyph glyph-name="periodcentered.case" horiz-adv-x="273" 
d="M138 264q-41 0 -69.5 27.5t-28.5 68.5q0 40 28.5 67t69.5 27q39 0 66.5 -27.5t27.5 -66.5q0 -41 -27.5 -68.5t-66.5 -27.5z" />
    <glyph glyph-name="questiondown.case" horiz-adv-x="582" 
d="M312 758q40 0 68.5 -27.5t28.5 -68.5q0 -40 -28 -67.5t-69 -27.5q-40 0 -67 27.5t-27 67.5q0 41 27.5 68.5t66.5 27.5zM229 527h172v-59q0 -86 -60 -144l-36 -32t-38 -35t-23.5 -32t-11.5 -38q0 -30 20 -47.5t53 -17.5q69 0 146 92l110 -121q-106 -138 -271 -138
q-116 0 -183 63q-68 63 -68 156q0 90 67 150l40.5 35.5t44 40.5t25 35.5t13.5 45.5v46z" />
    <glyph glyph-name="quotedblbase.ss03" horiz-adv-x="532" 
d="M5 -154l86 332h171l-116 -332h-141zM251 -154l86 332h171l-116 -332h-141z" />
    <glyph glyph-name="quotedblleft.ss03" horiz-adv-x="519" 
d="M278 865l-86 -332h-171l116 332h141zM525 865l-86 -332h-171l116 332h141z" />
    <glyph glyph-name="quotedblright.ss03" horiz-adv-x="522" 
d="M17 534l86 332h171l-116 -332h-141zM263 534l86 332h171l-116 -332h-141z" />
    <glyph glyph-name="quoteleft.ss03" horiz-adv-x="263" 
d="M270 865l-86 -332h-171l116 332h141z" />
    <glyph glyph-name="quoteright.ss03" horiz-adv-x="261" 
d="M11 534l86 332h171l-116 -332h-141z" />
    <glyph glyph-name="quotesinglbase.ss03" horiz-adv-x="272" 
d="M-7 -154l86 332h171l-116 -332h-141z" />
    <glyph glyph-name="ring.case" horiz-adv-x="393" 
d="M41 922q0 63 45 107q46 44 110 44t110 -44q45 -44 45 -107q0 -62 -45 -105q-44 -43 -110 -43t-110 43q-45 43 -45 105zM196 870q22 0 37.5 16t15.5 38t-15.5 37.5t-37.5 15.5q-23 0 -38.5 -15t-15.5 -38q0 -22 15.5 -38t38.5 -16z" />
    <glyph glyph-name="semicolon.case" horiz-adv-x="318" 
d="M169 422q-42 0 -72 29t-30 71q0 41 30 69.5t72 28.5q40 0 69 -28.5t29 -69.5q0 -42 -29 -71t-69 -29zM165 288q45 0 74.5 -32t29.5 -81q0 -127 -178 -245l-50 66l46 36q46 38 64 70h-2q-34 0 -59.5 26.5t-25.5 61.5q0 42 29.5 70t71.5 28z" />
    <glyph glyph-name="semicolon.case.ss03" horiz-adv-x="318" 
d="M169 422q-42 0 -72 29t-30 71q0 41 30 69.5t72 28.5q40 0 69 -28.5t29 -69.5q0 -42 -29 -71t-69 -29zM-6 -154l86 332h171l-116 -332h-141z" />
    <glyph glyph-name="semicolon.ss03" horiz-adv-x="305" 
d="M158 333q-42 0 -72 29t-30 71q0 41 30 69.5t72 28.5q40 0 69 -28.5t29 -69.5q0 -42 -29 -71t-69 -29zM-9 -183l86 332h171l-116 -332h-141z" />
    <glyph glyph-name="seven.dnom" horiz-adv-x="309" 
d="M12 293v102h282v-78l-143 -314h-120l136 290h-155z" />
    <glyph glyph-name="seven.lf" horiz-adv-x="541" 
d="M22 565v174h494v-135l-245 -604h-193l232 565h-288z" />
    <glyph glyph-name="seven.num" horiz-adv-x="309" 
d="M12 640v102h282v-78l-143 -314h-120l136 290h-155z" />
    <glyph glyph-name="seven.osf" horiz-adv-x="526" 
d="M17 422v170h494v-133l-247 -559h-193l230 522h-284z" />
    <glyph glyph-name="seven.tf" horiz-adv-x="639" 
d="M71 571v168h514v-121l-292 -618h-194l275 571h-303z" />
    <glyph glyph-name="seven_fraction_nine" horiz-adv-x="852" 
d="M175 350h-120l136 290h-155v102h282v-78zM33 0l578 739h137l-577 -739h-138zM652 405q76 0 118 -53t42 -141q0 -93 -48 -155q-47 -62 -138 -62q-69 0 -118 35l41 79q35 -22 72 -22q39 0 64 23t32 63q-35 -30 -82 -30q-61 0 -97 35t-36 91q0 61 42 99t108 38zM652 226
q20 0 33.5 12.5t13.5 31.5q0 20 -13.5 33t-33.5 13q-21 0 -35 -13t-14 -33q0 -19 14 -31.5t35 -12.5z" />
    <glyph glyph-name="six.dnom" horiz-adv-x="359" 
d="M200 257q60 0 97 -35.5t37 -92.5q0 -58 -42 -96.5t-106 -38.5q-77 0 -119 53t-42 139q0 94 47 156q48 63 139 63q70 0 118 -36l-41 -78q-34 22 -71 22q-38 0 -63.5 -22.5t-32.5 -61.5q28 28 79 28zM234 129q2 32 -33 41t-55 -13q-11 -12 -9 -29q0 -19 13.5 -32t34.5 -13
t35 13t14 33z" />
    <glyph glyph-name="six.lf" horiz-adv-x="637" 
d="M366 477q108 0 176 -67q70 -66 70 -169q0 -107 -77 -179q-77 -71 -200 -71q-143 1 -220.5 101.5t-74.5 254.5q0 162 80 279q40 59 106 92.5t146 33.5q116 0 217 -68l-82 -139q-60 39 -125 39q-69 0 -113 -45t-54 -122q53 60 151 60zM335 148q40 0 66.5 26t26.5 64
q0 37 -26.5 61.5t-65.5 24.5q-40 0 -67 -24t-27 -62q0 -39 27 -64.5t66 -25.5z" />
    <glyph glyph-name="six.num" horiz-adv-x="359" 
d="M200 604q60 0 97 -35.5t37 -92.5q0 -58 -42 -96.5t-106 -38.5q-77 0 -119 53t-42 139q0 94 47 156q48 63 139 63q70 0 118 -36l-41 -78q-34 22 -71 22q-38 0 -63.5 -22.5t-32.5 -61.5q28 28 79 28zM234 476q2 32 -33 41t-55 -13q-11 -12 -9 -29q0 -19 13.5 -32t34.5 -13
t35 13t14 33z" />
    <glyph glyph-name="six.osf" horiz-adv-x="626" 
d="M349 454q106 0 173 -64q69 -63 69 -161q0 -103 -76 -172q-76 -68 -195 -68q-142 0 -216 95q-74 97 -74 245q0 156 78 268q40 56 104.5 88t143.5 32q114 0 212 -65l-81 -135q-58 37 -122 37q-68 0 -111 -42t-52 -115q51 57 147 57zM320 143q38 0 64 23.5t26 58.5
t-25.5 57.5t-64.5 22.5t-65 -22.5t-26 -57.5q0 -36 26 -59t65 -23z" />
    <glyph glyph-name="six.tf" horiz-adv-x="639" 
d="M366 477q108 0 176 -67q70 -66 70 -169q0 -107 -77 -179q-77 -71 -200 -71q-143 1 -220.5 101.5t-74.5 254.5q0 162 80 279q40 59 106 92.5t146 33.5q116 0 217 -68l-82 -139q-60 39 -125 39q-69 0 -113 -45t-54 -122q53 60 151 60zM335 148q40 0 66.5 26t26.5 64
q0 37 -26.5 61.5t-65.5 24.5q-40 0 -67 -24t-27 -62q0 -39 27 -64.5t66 -25.5z" />
    <glyph glyph-name="six_fraction_seven" horiz-adv-x="881" 
d="M193 341q-77 0 -119 53t-42 139q0 94 47 156q48 63 139 63q70 0 118 -36l-41 -78q-34 22 -71 22q-38 0 -63.5 -22.5t-32.5 -61.5q28 28 79 28q60 0 97 -35.5t37 -92.5q0 -58 -42 -96.5t-106 -38.5zM78 0l578 739h137l-577 -739h-138zM144 475q0 -19 13.5 -32t34.5 -13
t35 13t14 33q2 32 -33 41t-55 -13q-11 -12 -9 -29zM558 293v102h282v-78l-143 -314h-120l136 290h-155z" />
    <glyph glyph-name="slash.case" horiz-adv-x="637" 
d="M217 0h-199l401 739h202z" />
    <glyph glyph-name="sterling.osf" horiz-adv-x="512" 
d="M454 235h-179q-8 -45 -42 -85h273v-150h-459v123q59 63 66 112h-73v115h47q-10 29 -10 60q0 86 67 140q67 55 163 55q66 0 123.5 -27.5t87.5 -73.5l-105 -100q-31 48 -87 48q-36 0 -58 -22t-22 -53q0 -12 5 -27h203v-115z" />
    <glyph glyph-name="three.dnom" horiz-adv-x="335" 
d="M5 34l44 86q57 -26 93 -26q50 0 50 31q0 13 -14 21.5t-36 8.5h-55v93h47q50 0 50 29q0 26 -42 26q-34 0 -74 -25l-53 79q60 48 141 48q60 0 100 -30q41 -30 41 -74q0 -32 -20 -55.5t-53 -33.5v-2q40 -9 62 -34.5t22 -60.5q2 -53 -44 -87t-119 -34t-140 40z" />
    <glyph glyph-name="three.lf" horiz-adv-x="574" 
d="M258 -12q-130 0 -251 73l75 148q89 -50 163 -50q45 0 71 18.5t26 48.5q0 27 -23 44.5t-61 17.5h-96v166h73q42 0 66 17t24 45t-22 44.5t-58 16.5q-57 0 -134 -52l-87 134q105 93 247 93q101 0 171 -55t70 -137q0 -56 -34 -99.5t-88 -62.5v-4q68 -15 106.5 -65t38.5 -118
q0 -99 -77 -161t-200 -62z" />
    <glyph glyph-name="three.num" horiz-adv-x="335" 
d="M5 381l44 86q57 -26 93 -26q50 0 50 31q0 14 -14 22t-36 8h-55v93h47q50 0 50 29q0 26 -42 26q-34 0 -74 -25l-53 79q60 48 141 48q60 0 100 -30q41 -30 41 -74q0 -32 -20 -55.5t-53 -33.5v-2q40 -9 62 -34.5t22 -60.5q2 -53 -44 -87t-119 -34t-140 40z" />
    <glyph glyph-name="three.osf" horiz-adv-x="560" 
d="M252 -116q-128 0 -252 70l76 145q85 -47 170 -47q45 0 71 16t26 43q0 24 -22.5 38.5t-61.5 14.5h-104v164h82q41 0 65 15t24 39t-22.5 39t-56.5 15q-63 0 -143 -47l-87 131q104 88 247 88q101 0 171 -52t70 -130q0 -53 -34 -93.5t-88 -59.5v-3q68 -15 106.5 -62.5
t38.5 -111.5q0 -94 -77 -153t-199 -59z" />
    <glyph glyph-name="three.tf" horiz-adv-x="639" 
d="M286 -12q-130 0 -251 73l75 148q89 -50 163 -50q45 0 71 18.5t26 48.5q0 27 -23 44.5t-61 17.5h-96v166h73q42 0 66 17t24 45t-22 44.5t-58 16.5q-57 0 -134 -52l-87 134q105 93 247 93q101 0 171 -55t70 -137q0 -56 -34 -99.5t-88 -62.5v-4q68 -15 106.5 -65t38.5 -118
q0 -99 -77 -161t-200 -62z" />
    <glyph glyph-name="three_fraction_seven" horiz-adv-x="890" 
d="M158 441q50 0 50 31q0 14 -14 22t-36 8h-55v93h47q50 0 50 29q0 26 -42 26q-34 0 -74 -25l-53 79q60 48 141 48q60 0 100 -30q41 -30 41 -74q0 -32 -20 -55.5t-53 -33.5v-2q40 -9 62 -34.5t22 -60.5q2 -53 -44 -87t-119 -34t-140 40l44 86q57 -26 93 -26zM86 0l578 739
h136l-576 -739h-138zM568 293v102h282v-78l-143 -314h-120l136 290h-155z" />
    <glyph glyph-name="tilde.case" horiz-adv-x="582" 
d="M156 802l-116 58q36 71 75 103t95 32q35 0 78 -23q41 -22 58 -22q32 0 62 53l117 -56q-58 -136 -156 -136q-31 0 -79 23q-45 24 -65 24q-40 0 -69 -56z" />
    <glyph glyph-name="two.dnom" horiz-adv-x="348" 
d="M257 163l-66 -66h124v-97h-281v88l129 129q38 40 38 61q0 12 -10 20.5t-25 8.5q-37 0 -98 -58l-51 81q69 75 156 75q61 0 101 -35.5t40 -91.5q0 -58 -57 -115z" />
    <glyph glyph-name="two.lf" horiz-adv-x="604" 
d="M379 240l-68 -70h239v-171h-498v155l224 231l14 14q16 16 29 31q6 7 23 35q10 19 10 40q0 30 -22 50t-55 20q-68 0 -157 -80l-100 134q126 123 277 123q109 0 179 -66q72 -64 72 -163q0 -64 -40 -129.5t-127 -153.5z" />
    <glyph glyph-name="two.num" horiz-adv-x="348" 
d="M257 510l-66 -66h124v-97h-281v88l129 129q38 40 38 61q0 12 -10 20.5t-25 8.5q-37 0 -98 -58l-51 81q69 75 156 75q61 0 101 -35.5t40 -91.5q0 -58 -57 -115z" />
    <glyph glyph-name="two.osf" horiz-adv-x="559" 
d="M330 171l-22 -18h205v-154h-466v141l185 153q40 32 51 43q41 35 41 66q0 21 -15.5 34.5t-41.5 13.5q-53 0 -160 -84l-89 125q125 116 262 116q103 0 165 -55q64 -55 64 -133q0 -61 -42 -116t-137 -132z" />
    <glyph glyph-name="two.tf" horiz-adv-x="639" 
d="M396 240l-68 -70h239v-171h-498v155l224 231l14 14q16 16 29 31q6 7 23 35q10 19 10 40q0 30 -22 50t-55 20q-68 0 -157 -80l-100 134q126 123 277 123q108 0 179 -66q72 -64 72 -163q0 -64 -40 -129.5t-127 -153.5z" />
    <glyph glyph-name="two_fraction_nine" horiz-adv-x="950" 
d="M45 347v88l129 129q38 40 38 61q0 12 -10 20.5t-25 8.5q-37 0 -98 -58l-51 81q69 75 156 75q61 0 101 -35.5t40 -91.5q0 -58 -57 -115l-66 -66h124v-97h-281zM136 0l578 739h137l-577 -739h-138zM750 405q76 0 118 -53t42 -141q0 -93 -48 -155q-47 -62 -138 -62
q-69 0 -118 35l41 79q35 -22 72 -22q39 0 64 23t32 63q-35 -30 -82 -30q-61 0 -97 35t-36 91q0 61 42 99t108 38zM750 226q20 0 33.5 12.5t13.5 31.5q0 20 -13.5 33t-33.5 13q-21 0 -35 -13t-14 -33q0 -19 14 -31.5t35 -12.5z" />
    <glyph glyph-name="two_fraction_seven" horiz-adv-x="932" 
d="M49 347v88l129 129q38 40 38 61q0 12 -10 20.5t-25 8.5q-37 0 -98 -58l-51 81q69 75 156 75q61 0 101 -35.5t40 -91.5q0 -58 -57 -115l-66 -66h124v-97h-281zM130 0l578 739h137l-577 -739h-138zM610 293v102h282v-78l-143 -314h-120l136 290h-155z" />
    <glyph glyph-name="uni0414.ss01" horiz-adv-x="811" 
d="M693 739v-566h81v-323h-186v150h-370v-150h-187v323h68q77 147 111 462l12 104h471zM292 173h214v391h-123l-7 -48q-33 -215 -84 -343z" />
    <glyph glyph-name="uni0416.ss01" horiz-adv-x="979" 
d="M717 376l274 -376h-212l-199 281v-281h-180v282l-200 -282h-212l274 376l-257 363h209l186 -284v284h180v-281l185 281h209z" />
    <glyph glyph-name="uni041B.ss01" horiz-adv-x="770" 
d="M84 -12q-20 0 -41 3l-40 155h16q68 0 106 62q30 53 46 153q10 68 14 100l14 134l14 144h484v-739h-189v559h-127l-7 -60q-1 -13 -7 -66l-7 -59q-7 -49 -10 -64l-12 -55q-9 -43 -14 -58q-18 -55 -40 -94q-66 -115 -200 -115z" />
    <glyph glyph-name="uni0424.ss01" horiz-adv-x="990" 
d="M589 43v-123h-188v123q-171 11 -271 94q-100 85 -100 234q0 147 99 232q101 86 272 95v121h188v-121q170 -9 271 -95t101 -232t-101 -232q-100 -85 -271 -96zM401 204v332q-89 -5 -136.5 -49t-47.5 -117t48.5 -117.5t135.5 -48.5zM589 536v-332q87 4 135.5 48.5
t48.5 117.5t-47.5 116.5t-136.5 49.5z" />
    <glyph glyph-name="uni042A.ss01" horiz-adv-x="767" 
d="M351 499h128q60 0 107.5 -15.5t77 -40.5t49 -59t27.5 -67t8 -68q0 -109 -69 -179q-67 -70 -184 -70h-327v581h-154v158h337v-240zM351 161h112q44 0 68.5 25t24.5 65q0 37 -24.5 61.5t-65.5 24.5h-115v-176z" />
    <glyph glyph-name="uni042C.ss01" horiz-adv-x="672" 
d="M256 499h128q60 0 107.5 -15.5t77 -40.5t49 -59t27.5 -67t8 -68q0 -109 -69 -179q-67 -70 -184 -70h-327v739h183v-240zM256 161h112q44 0 68.5 25t24.5 65q0 37 -24.5 61.5t-65.5 24.5h-115v-176z" />
    <glyph glyph-name="uni0431.ss01" horiz-adv-x="690" 
d="M382 544q111 0 194 -75q83 -74 83 -199q0 -121 -82 -203q-81 -82 -215 -82q-67 0 -122.5 22.5t-92.5 60.5t-62.5 89t-37 105.5t-11.5 112.5q0 99 27 171q26 70 65 111.5t105 73.5q63 31 117 45q10 2 129 34q77 22 120 40v-163q-40 -18 -94 -33q-72 -20 -96 -26
q-78 -21 -131.5 -55.5t-78.5 -100.5q69 72 183 72zM488 269q0 51 -36 87q-34 36 -87 36q-51 0 -88 -35q-35 -35 -35 -88q0 -51 35 -89q34 -37 87 -37q52 0 88 36q36 37 36 90z" />
    <glyph glyph-name="uni0432.ss01" horiz-adv-x="594" 
d="M454 305q53 -12 81.5 -49.5t28.5 -90.5q0 -75 -55 -120t-148 -45h-305v552h304q84 0 127 -40q45 -40 45 -95q0 -85 -78 -112zM336 421h-116v-81h112q47 0 47 42q0 16 -12 27.5t-31 11.5zM220 135h125q23 0 36.5 13t13.5 32q0 21 -12.5 33.5t-35.5 12.5h-127v-91z" />
    <glyph glyph-name="uni0433.ss01" horiz-adv-x="465" 
d="M56 552h394v-158h-219v-394h-175v552z" />
    <glyph glyph-name="uni0434.ss01" horiz-adv-x="678" 
d="M584 553v-404h61v-268h-166v119h-288v-119h-166v268h59q62 117 98 356l7 48h395zM335 418l-8 -36q-22 -130 -64 -233h148v269h-76z" />
    <glyph glyph-name="uni0436.ss01" horiz-adv-x="837" 
d="M636 281l212 -281h-196l-151 206v-206h-166v205l-150 -205h-196l213 282l-193 270h192l134 -209v209h166v-211l134 211h192z" />
    <glyph glyph-name="uni0437.ss01" horiz-adv-x="545" 
d="M253 -12q-126 0 -239 58l55 124q96 -41 189 -41q41 0 63.5 12t22.5 33q0 38 -72 38h-121v129h90q81 0 81 40q0 42 -75 42q-73 0 -149 -40l-72 113q45 32 110.5 51t132.5 19q100 0 161 -44q61 -43 61 -102q0 -34 -25 -63.5t-70 -47.5l-1 -3q57 -15 88.5 -52t31.5 -85
q0 -73 -68 -127q-67 -54 -194 -54z" />
    <glyph glyph-name="uni0438.ss01" horiz-adv-x="659" 
d="M169 0h-113v552h172v-282l259 282h116v-552h-172v277z" />
    <glyph glyph-name="uni0439.ss01" horiz-adv-x="659" 
d="M127 697l83 85q35 -45 64 -62t65 -17q37 0 66 16.5t64 62.5l83 -85q-90 -111 -214 -111t-211 111zM169 0h-113v552h172v-282l259 282h116v-552h-172v277z" />
    <glyph glyph-name="uni043A.ss01" horiz-adv-x="597" 
d="M610 0h-202l-147 202l-35 -36v-166h-170v552h170v-182l174 182h203l-229 -235z" />
    <glyph glyph-name="uni043B.ss01" horiz-adv-x="639" 
d="M77 -11q-2 0 -32 2l-44 136h11q58 0 89 51q11 17 20 43q2 4 8 27q12 54 13 64q7 46 11 81q2 12 5 47l6 54q1 9 3 22t3 21.5t1 14.5h413v-552h-177v392h-84q-21 -165 -39 -227q-18 -55 -38 -86q-57 -90 -169 -90z" />
    <glyph glyph-name="uni043F.ss01" horiz-adv-x="633" 
d="M56 552h522v-552h-176v392h-171v-392h-175v552z" />
    <glyph glyph-name="uni0442.ss01" horiz-adv-x="516" 
d="M15 552h486v-153h-156v-399h-175v399h-155v153z" />
    <glyph glyph-name="uni0444.ss01" horiz-adv-x="878" 
d="M847 277q0 -131 -85.5 -206t-237.5 -83v-149h-170v149q-145 7 -235 82q-88 73 -88 207q0 130 86 207q86 75 237 83v148h170v-148q149 -8 235 -83q88 -75 88 -207zM524 414v-276q71 1 109.5 38t38.5 100t-37.5 99t-110.5 39zM354 138v276q-73 -4 -110.5 -39.5t-37.5 -98.5
t38.5 -99.5t109.5 -38.5z" />
    <glyph glyph-name="uni0446.ss01" horiz-adv-x="697" 
d="M676 -180h-169v180h-451v552h176v-388h176v388h176v-388h92v-344z" />
    <glyph glyph-name="uni0448.ss01" horiz-adv-x="959" 
d="M903 0h-847v552h176v-388h159v388h176v-388h160v388h176v-552z" />
    <glyph glyph-name="uni0449.ss01" horiz-adv-x="1016" 
d="M903 552v-388h91v-344h-169v180h-769v552h176v-388h159v388h176v-388h160v388h176z" />
    <glyph glyph-name="uni044A.ss01" horiz-adv-x="633" 
d="M298 395h94q115 0 169 -58q55 -58 55 -137q0 -88 -59 -144t-160 -56h-266v394h-110v158h277v-157zM297 141h84q31 0 47.5 16t16.5 41q0 24 -17 40t-46 16h-85v-113z" />
    <glyph glyph-name="uni044C.ss01" horiz-adv-x="559" 
d="M222 395h96q115 0 169 -58q55 -58 55 -137q0 -88 -59 -144t-160 -56h-267v552h167zM221 141h86q31 0 47.5 16t16.5 41q0 24 -17 40t-46 16h-86z" />
    <glyph glyph-name="uni044E.ss01" horiz-adv-x="910" 
d="M579 568q135 0 217 -85q84 -84 84 -207t-84 -207q-82 -84 -217 -84q-112 0 -191 61q-79 62 -101 158h-58v-204h-173v552h173v-207h58q23 99 100 160q79 63 192 63zM704 277q0 53 -36 89t-89 36q-52 0 -88 -36t-36 -89t35 -91q36 -36 89 -36t89 36q36 38 36 91z" />
    <glyph glyph-name="yen.osf" horiz-adv-x="540" 
d="M382 598h180l-132 -237h59v-110h-120l-14 -24v-5h134v-111h-134v-111h-169v111h-135v111h135v5l-13 24h-122v110h61l-131 237h180l109 -227z" />
    <glyph glyph-name="zero.dnom" horiz-adv-x="398" 
d="M199 -5q-85 0 -131 55t-46 150t46 150q47 56 131 56q83 0 129.5 -55.5t46.5 -150.5q0 -94 -46.5 -149.5t-129.5 -55.5zM138 200q0 -103 61 -103t61 103t-61 103t-61 -103z" />
    <glyph glyph-name="zero.lf" horiz-adv-x="695" 
d="M347 -12q-145 0 -226 104q-81 105 -81 278q0 174 81 277q81 105 226 105q146 0 227 -105q81 -104 81 -277t-81 -278q-81 -104 -227 -104zM471 370q0 94 -32 150.5t-91 56.5t-91.5 -56.5t-32.5 -150.5q0 -96 32 -151.5t92 -55.5q59 0 91 56t32 151z" />
    <glyph glyph-name="zero.num" horiz-adv-x="398" 
d="M199 341q-85 0 -131 55t-46 150t46 150q47 56 131 56q83 0 129.5 -55.5t46.5 -150.5q0 -94 -46.5 -149.5t-129.5 -55.5zM138 546q0 -103 61 -103t61 103t-61 103t-61 -103z" />
    <glyph glyph-name="zero.osf" horiz-adv-x="642" 
d="M40 298q0 139 74 225q73 85 207 85t207 -85q74 -86 74 -225q0 -140 -74 -226q-74 -84 -207 -84q-135 0 -208 84q-73 85 -73 226zM321 141q53 0 81 41.5t28 115.5q0 73 -28.5 114.5t-79.5 41.5q-53 0 -81.5 -41t-28.5 -115q0 -75 28 -116t81 -41z" />
    <glyph glyph-name="zero.slash" horiz-adv-x="695" 
d="M347 752q146 0 227 -105q81 -104 81 -277t-81 -278q-81 -104 -227 -104q-145 0 -226 104q-81 105 -81 278q0 174 81 277q81 105 226 105zM348 598q-67 0 -101 -64q-35 -64 -35 -164q0 -73 16 -122l194 320q-30 30 -74 30zM348 142q65 0 100 61.5t35 166.5q0 61 -14 114
l-192 -317q29 -25 71 -25z" />
    <glyph glyph-name="zero.tf" horiz-adv-x="639" 
d="M319 -12q-139 0 -217 105t-78 277t78 277t217 105q140 0 218 -105q79 -104 79 -277t-79 -277q-78 -105 -218 -105zM320 163q55 0 84.5 55.5t29.5 151.5q0 94 -30 150.5t-84 56.5q-55 0 -85 -56.5t-30 -150.5q0 -96 29.5 -151.5t85.5 -55.5z" />
    </font>
</defs>
</svg>
