<?xml version="1.0" encoding="UTF-8" standalone="no"?>
<!DOCTYPE svg  PUBLIC '-//W3C//DTD SVG 1.1//EN'  'http://www.w3.org/Graphics/SVG/1.1/DTD/svg11.dtd'>
<svg version="1.1" xmlns="http://www.w3.org/2000/svg">
<defs>
<font id="MADEGoodTimeGrotesk" horiz-adv-x="680">
<font-face bbox="-20 -299.372 1271 991" ascent="800" cap-height="700" underline-thickness="50" font-family="MADE GoodTime Grotesk" units-per-em="1000" unicode-range="U+0020-00FE" panose-1="2 0 5 3 0 0 0 2 0 4" x-height="480" font-weight="400" descent="-200" underline-position="-150"/>
<missing-glyph/>
<glyph glyph-name="space" unicode=" " horiz-adv-x="359"/>
<glyph glyph-name="exclam" unicode="!" horiz-adv-x="351" d="M271 700l-32 -455h-127l-32 455h191zM259 68q0 -34 -24.5 -58.5t-58.5 -24.5t-58.5 24.5t-24.5 58.5t24.5 58t58.5 24t58.5 -24t24.5 -58z"/>
<glyph glyph-name="quotedbl" unicode='&quot;' horiz-adv-x="487" d="M80 799h153l-19 -254h-116zM254 799h153l-18 -254h-116z"/>
<glyph glyph-name="numbersign" unicode="#" horiz-adv-x="835" d="M733 394h-132l-16 -97h127l-21 -119h-125l-29 -178h-117l29 178h-120l-29 -178h-116l28 178h-132l21 119h131l15 97h-124l21 119h123l30 187h117l-30 -187h120l30 187h117l-31 -187h135zM468 297l16 97h-120l-15 -97h119z"/>
<glyph glyph-name="dollar" unicode="$" horiz-adv-x="756" d="M324 510q-6 -29 29 -50t90 -39t109.5 -42t91 -73t31.5 -119q-12 -167 -192 -200v-136h-168v136q-133 22 -235 97l88 145q38 -43 107.5 -68t127.5 -19t66 43q5 25 -12.5 43.5t-49 30.5t-71 24t-78 30t-70 42.5t-47.5 67.5t-9 100q19 152 183 184v4v138h168v-134v-6 q110 -16 170 -63l-68 -150q-33 31 -91.5 49.5t-110 10.5t-59.5 -46z"/>
<glyph glyph-name="percent" unicode="%" horiz-adv-x="1044" d="M341 0l523 700h-160l-523 -700h160zM260 715q74 0 127.5 -52t53.5 -125t-53.5 -125.5t-127.5 -52.5t-127 52.5t-53 125.5t53 125t127 52zM260 479q25 0 42.5 17t17.5 42t-17.5 42t-42.5 17q-24 0 -41.5 -17t-17.5 -42t17.5 -42t41.5 -17zM783 340q74 0 127.5 -52.5 t53.5 -125.5t-53.5 -125.5t-127.5 -52.5t-127 52.5t-53 125.5t53 125.5t127 52.5zM783 103q25 0 42 17t17 42t-17 42t-42 17t-42 -17t-17 -42t17 -42t42 -17z"/>
<glyph glyph-name="ampersand" unicode="&amp;" horiz-adv-x="860" d="M780 435v-147h-83q-1 -56 -14.5 -104t-46 -95.5t-98 -75.5t-158.5 -28q-140 0 -220 64t-80 159q0 52 28.5 97.5t87.5 67.5q-35 28 -56.5 71t-21.5 75q0 88 64 142t175 54q40 0 78 -8.5t63.5 -21t45.5 -25t29 -20.5l9 -9l-56 -116q-7 7 -19.5 17t-54.5 25t-86 11 q-37 -3 -59 -23t-21 -47q1 -24 20.5 -43.5t57.5 -19.5h87v-147h-110q-89 0 -89 -65q0 -32 32.5 -57t90.5 -25q67 0 108.5 30.5t53 73.5t12.5 86t-5 73l-7 31h243z"/>
<glyph glyph-name="quotesingle" unicode="&apos;" horiz-adv-x="312" d="M80 799h152l-18 -254h-116z"/>
<glyph glyph-name="parenleft" unicode="(" horiz-adv-x="474" d="M394 760l-16.5 -22t-36.5 -62.5t-46 -101t-36.5 -134.5t-16.5 -167q0 -84 15.5 -165t38 -136.5t45 -99t37.5 -64.5l16 -21h-152q-7 8 -17.5 22t-38.5 62t-49.5 101t-39 135t-17.5 166q0 85 16.5 166t40.5 136.5t48 99t41 64.5l16 21h152z"/>
<glyph glyph-name="parenright" unicode=")" horiz-adv-x="474" d="M80 760h152q7 -8 17.5 -22t38.5 -62.5t49.5 -101t39 -134.5t17.5 -167q0 -84 -16.5 -165t-40.5 -136.5t-48 -99t-41 -64.5l-16 -21h-152l16.5 22t36.5 62t46 101t36.5 135t16.5 166q0 85 -15.5 166t-38 136.5t-45 99t-37.5 64.5z"/>
<glyph glyph-name="asterisk" unicode="*" horiz-adv-x="572" d="M492 743v-107l-129 8l79 -100l-90 -57l-66 115l-65 -115l-91 57l80 100l-130 -8v107l130 -9l-80 101l91 57l65 -116l66 116l90 -57l-79 -101z"/>
<glyph glyph-name="plus" unicode="+" horiz-adv-x="577" d="M497 421v-142h-138v-138h-141v138h-138v142h138v138h141v-138h138z"/>
<glyph glyph-name="comma" unicode="," horiz-adv-x="333" d="M253 162l-65 -275h-108l22 275h151z"/>
<glyph glyph-name="hyphen" unicode="-" horiz-adv-x="577" d="M497 421v-142h-417v142h417z"/>
<glyph glyph-name="period" unicode="." horiz-adv-x="326" d="M246 68q0 -34 -24.5 -58.5t-58.5 -24.5q-35 0 -59 24.5t-24 58.5t24.5 58t58.5 24t58.5 -24t24.5 -58z"/>
<glyph glyph-name="slash" unicode="/" horiz-adv-x="702" d="M622 723l-383 -1021h-159l383 1021h159z"/>
<glyph glyph-name="zero" unicode="0" horiz-adv-x="681" d="M340 716q126 0 193.5 -99t67.5 -267t-67.5 -266.5t-193.5 -98.5q-125 0 -192.5 98.5t-67.5 266.5t67.5 267t192.5 99zM340 163q99 0 99 187q0 188 -99 188q-98 0 -98 -188q0 -187 98 -187z"/>
<glyph glyph-name="one" unicode="1" horiz-adv-x="488" d="M238 700h170v-700h-192v511l-136 -54v179z"/>
<glyph glyph-name="two" unicode="2" horiz-adv-x="638" d="M355 162h203v-162h-446v141q22 21 56.5 55.5t102.5 114t92 128.5q26 55 -6 94q-28 34 -69 20q-40 -14 -66 -71l-142 80q31 65 94 109.5t155 44.5q76 0 128.5 -32.5t73 -83t16.5 -111.5t-34 -118q-27 -53 -66.5 -105t-65.5 -78z"/>
<glyph glyph-name="three" unicode="3" horiz-adv-x="685" d="M445 405q37 -7 66 -22.5t46.5 -34.5t28.5 -43t15 -45.5t4 -44.5q0 -98 -69.5 -164t-198.5 -66q-69 0 -133 23t-94 46l-30 23l72 124q6 -7 18.5 -17t55 -26.5t91.5 -16.5q56 0 85 23t30 59q1 33 -18 52.5t-59 23.5q-18 2 -33.5 0.5t-25.5 -3.5l-11 -2l-32 103l110 141 h-239v162h441v-140z"/>
<glyph glyph-name="four" unicode="4" horiz-adv-x="708" d="M628 271v-162h-67v-109h-191v109h-290v162l209 429h182l-195 -429h94v104h191v-104h67z"/>
<glyph glyph-name="five" unicode="5" horiz-adv-x="686" d="M455 439q45 -10 77 -32.5t47.5 -53.5t21.5 -62t4 -66q-4 -101 -75 -170.5t-199 -69.5q-43 0 -85 9.5t-70.5 23t-51 27t-33.5 23.5l-11 9l73 124q2 -2 6 -6.5t18 -14.5t31 -18t45 -14.5t59 -6.5q109 0 114 86q5 66 -66.5 92t-158.5 -10l-58 76l26 315h390v-162h-231 l-7 -98q60 16 134 -1z"/>
<glyph glyph-name="six" unicode="6" horiz-adv-x="677" d="M380 484q91 -15 154 -85.5t63 -162.5q0 -104 -77 -177.5t-182 -73.5t-181.5 73.5t-76.5 177.5q0 64 49 153l180 311h195zM338 150q36 0 61.5 25t25.5 61t-25.5 61t-61.5 25t-61 -25t-25 -61t25 -61t61 -25z"/>
<glyph glyph-name="seven" unicode="7" horiz-adv-x="616" d="M80 700h456v-140l-221 -560h-192l211 538h-254v162z"/>
<glyph glyph-name="eight" unicode="8" horiz-adv-x="674" d="M497 377q46 -24 71.5 -69.5t25.5 -93.5q0 -106 -68 -167.5t-189 -61.5q-120 0 -188.5 61.5t-68.5 167.5q0 48 25.5 93.5t71.5 69.5q-28 22 -45.5 63.5t-17.5 75.5q0 88 63.5 144t159.5 56t159.5 -56t63.5 -144q0 -34 -17.5 -75.5t-45.5 -63.5zM337 584q-31 0 -52.5 -21.5 t-21.5 -52.5t21.5 -52.5t52.5 -21.5t52.5 21.5t21.5 52.5t-21.5 52.5t-52.5 21.5zM337 133q35 0 59 24.5t24 58.5t-24 58.5t-59 24.5t-59 -24.5t-24 -58.5t24 -58.5t59 -24.5z"/>
<glyph glyph-name="nine" unicode="9" horiz-adv-x="677" d="M297 217q-92 14 -154.5 84.5t-62.5 163.5q0 103 76.5 177t181.5 74t182 -74t77 -177q0 -63 -49 -154l-180 -311h-196zM338 551q-36 0 -61 -25.5t-25 -60.5q0 -36 25 -61.5t61 -25.5t61.5 25.5t25.5 61.5q0 35 -25.5 60.5t-61.5 25.5z"/>
<glyph glyph-name="colon" unicode=":" horiz-adv-x="326" d="M246 68q0 -34 -24 -58.5t-59 -24.5t-59 24.5t-24 58.5t24.5 58t58.5 24t58.5 -24t24.5 -58zM246 431q0 -35 -24 -59t-59 -24t-59 24t-24 59t24 59t59 24t59 -24t24 -59z"/>
<glyph glyph-name="semicolon" unicode=";" horiz-adv-x="333" d="M253 162l-65 -275h-108l22 275h151zM249 431q0 -35 -24.5 -59t-58.5 -24t-58.5 24t-24.5 59t24.5 59t58.5 24t58.5 -24t24.5 -59z"/>
<glyph glyph-name="less" unicode="&lt;" horiz-adv-x="465" d="M80 421l305 172v-165l-167 -91l167 -91v-164l-305 172v167z"/>
<glyph glyph-name="equal" unicode="=" horiz-adv-x="577" d="M497 328v-142h-417v142h417zM497 516v-142h-417v142h417z"/>
<glyph glyph-name="greater" unicode="&gt;" horiz-adv-x="465" d="M80 593l305 -172v-167l-305 -172v164l167 91l-167 91v165z"/>
<glyph glyph-name="question" unicode="?" horiz-adv-x="636" d="M413 68q0 34 -24 58t-58 24t-58.5 -24t-24.5 -58t24 -58.5t59 -24.5q34 0 58 24.5t24 58.5zM519 394q-19 -27 -55.5 -62.5t-46.5 -61.5q-6 -16 -4 -47h-168q0 27 7 53q10 36 27 65.5t31.5 46.5t47.5 51q37 40 12 79q-21 34 -63 32q-54 -1 -85 -69l-142 80q31 65 94 110 t155 45q76 0 130.5 -33t76.5 -82t18.5 -105t-35.5 -102z"/>
<glyph glyph-name="at" unicode="@" horiz-adv-x="990" d="M909 225q0 -38 -11 -71.5t-33.5 -63.5t-64 -47.5t-96.5 -17.5q-29 0 -56 12.5t-40 25.5l-12 13q-50 -52 -124 -52q-78 0 -128 55.5t-50 136.5q0 82 50 137.5t128 55.5q44 0 91 -38v24h141v-215q0 -23 13 -34.5t28 -11.5q28 0 51 23.5t26 64.5q9 131 -84 219.5t-251 88.5 q-128 0 -222 -92t-94 -216q0 -125 88.5 -213.5t216.5 -88.5q62 0 109 13t107 43l36 -74q-113 -63 -254 -63q-174 0 -284 108.5t-110 275.5t115.5 279t290.5 112q106 0 188.5 -30t133.5 -83.5t77 -123.5t24 -152zM491 134q27 0 46.5 24t19.5 58t-19.5 58.5t-46.5 24.5 q-28 0 -47 -24t-19 -59q0 -34 19 -58t47 -24z"/>
<glyph glyph-name="A" unicode="A" horiz-adv-x="898" d="M603 0l-43 124h-222l-43 -124h-213l264 700h205l265 -700h-213zM395 286h108l-54 154z"/>
<glyph glyph-name="B" unicode="B" horiz-adv-x="723" d="M533 373q57 -22 83.5 -67t26.5 -98q0 -96 -66 -152t-200 -56h-297v700h286q111 0 171.5 -52t60.5 -141q0 -86 -65 -134zM367 538h-96v-96h96q31 0 47 13.5t16 34.5t-16 34.5t-47 13.5zM395 162q35 0 55.5 17t20.5 42q0 26 -20 42.5t-56 16.5h-124v-118h124z"/>
<glyph glyph-name="C" unicode="C" horiz-adv-x="795" d="M478 156q74 0 143 50l94 -134q-113 -87 -237 -87q-169 0 -283.5 106t-114.5 259t114.5 259.5t283.5 106.5q125 0 237 -88l-94 -133q-66 49 -143 49q-90 0 -150.5 -56t-60.5 -138q0 -81 60.5 -137.5t150.5 -56.5z"/>
<glyph glyph-name="D" unicode="D" horiz-adv-x="825" d="M356 700q187 0 288 -100t101 -250q0 -72 -24.5 -134.5t-71.5 -111t-122.5 -76.5t-170.5 -28h-276v700h276zM343 162q114 0 169 52.5t55 135.5q0 84 -55 136t-169 52h-72v-376h72z"/>
<glyph glyph-name="E" unicode="E" horiz-adv-x="683" d="M271 162h332v-162h-523v700h506v-162h-315v-107h284v-162h-284v-107z"/>
<glyph glyph-name="F" unicode="F" horiz-adv-x="666" d="M586 538h-314v-107h283v-162h-283v-269h-192v700h506v-162z"/>
<glyph glyph-name="G" unicode="G" horiz-adv-x="837" d="M421 431h336v-359q-51 -39 -130 -63t-150 -24q-171 0 -284 103.5t-113 261.5t118 262t290 104q125 0 237 -88l-94 -133q-71 51 -143 51q-91 0 -156.5 -57.5t-65.5 -138.5q0 -82 61 -139t150 -57q45 0 101 14v101h-157v162z"/>
<glyph glyph-name="H" unicode="H" horiz-adv-x="777" d="M506 700h191v-700h-191v269h-235v-269h-191v700h191v-269h235v269z"/>
<glyph glyph-name="I" unicode="I" horiz-adv-x="352" d="M81 700h191v-700h-191v700z"/>
<glyph glyph-name="J" unicode="J" horiz-adv-x="675" d="M404 700h191v-414q0 -145 -73.5 -223t-190.5 -78q-82 0 -136 25t-115 84l108 110q29 -29 54.5 -40t60.5 -11q101 0 101 127v420z"/>
<glyph glyph-name="K" unicode="K" horiz-adv-x="767" d="M687 0h-223l-193 308v-308h-191v700h191v-292l165 292h223l-202 -339z"/>
<glyph glyph-name="L" unicode="L" horiz-adv-x="647" d="M272 162h295v-162h-487v700h192v-538z"/>
<glyph glyph-name="M" unicode="M" horiz-adv-x="966" d="M716 700h170v-700h-191v379l-170 -213h-84l-170 213v-379h-191v700h170l233 -309z"/>
<glyph glyph-name="N" unicode="N" horiz-adv-x="765" d="M80 700h170l243 -371v371h192v-700h-170l-243 372v-372h-192v700z"/>
<glyph glyph-name="O" unicode="O" horiz-adv-x="913" d="M457 716q152 0 264 -107.5t112 -258.5q0 -150 -111.5 -257.5t-264.5 -107.5t-265 107.5t-112 257.5t112 258t265 108zM457 159q80 0 136 56t56 135q0 80 -56.5 136t-135.5 56t-135.5 -56t-56.5 -136q0 -79 56 -135t136 -56z"/>
<glyph glyph-name="P" unicode="P" horiz-adv-x="721" d="M368 700q123 0 198 -72t75 -176t-75 -176.5t-198 -72.5h-96v-203h-192v700h288zM361 365q57 0 82 24.5t25 62.5q0 37 -25 61.5t-82 24.5h-89v-173h89z"/>
<glyph glyph-name="Q" unicode="Q" horiz-adv-x="913" d="M833 -16l-153 -115l-102 136q-58 -20 -121 -20q-153 0 -265 107.5t-112 257.5t112 258t265 108q152 0 264 -107.5t112 -258.5q0 -137 -95 -240zM265 350q0 -79 56 -135t136 -56q79 0 135 55.5t56 135.5t-56 136t-135 56t-135.5 -56t-56.5 -136z"/>
<glyph glyph-name="R" unicode="R" horiz-adv-x="761" d="M471 0l-130 225h-70v-225h-191v700h287q124 0 199 -67.5t75 -169.5q0 -63 -29.5 -115t-83.5 -83l153 -265h-210zM271 538v-151h89q108 0 108 76q0 75 -108 75h-89z"/>
<glyph glyph-name="S" unicode="S" horiz-adv-x="757" d="M325 512q-6 -29 29 -50t90 -39t109.5 -42t91 -73t31.5 -119q-4 -48 -22 -85t-44.5 -58.5t-60.5 -37t-69 -20t-69.5 -6.5t-63.5 3q-75 8 -147 36.5t-120 64.5l88 145q38 -43 107.5 -68t127.5 -19t66 43q6 29 -18 49.5t-65 32t-88.5 30.5t-87.5 42.5t-63 71t-15 112.5 q11 89 83 144t220 47q61 -4 113.5 -19.5t72 -26.5t32.5 -22l-68 -150q-32 31 -90.5 49.5t-110 10.5t-59.5 -46z"/>
<glyph glyph-name="T" unicode="T" horiz-adv-x="761" d="M681 700v-162h-205v-538h-191v538h-205v162h601z"/>
<glyph glyph-name="U" unicode="U" horiz-adv-x="777" d="M505 700h192v-414q0 -144 -87.5 -222.5t-221.5 -78.5t-221 78t-87 223v414h191v-420q0 -61 33 -94t84 -33t84 33t33 94v420z"/>
<glyph glyph-name="V" unicode="V" horiz-adv-x="907" d="M612 700h215l-269 -700h-209l-269 700h215l158 -444z"/>
<glyph glyph-name="W" unicode="W" horiz-adv-x="1351" d="M1046 700h225l-269 -700h-209l-118 364l-117 -364h-210l-268 700h225l140 -431l124 431h213l124 -431z"/>
<glyph glyph-name="X" unicode="X" horiz-adv-x="843" d="M763 0h-206l-131 228l-133 -228h-213l229 361l-211 339h204l122 -203l115 203h204l-202 -336z"/>
<glyph glyph-name="Y" unicode="Y" horiz-adv-x="851" d="M556 700h215l-250 -444v-256h-191v256l-250 444h215l130 -262z"/>
<glyph glyph-name="Z" unicode="Z" horiz-adv-x="674" d="M306 162h288v-162h-514v141l282 397h-265v162h489v-142z"/>
<glyph glyph-name="bracketleft" unicode="[" horiz-adv-x="502" d="M422 568h-172v-711h172v-155h-342v1021h342v-155z"/>
<glyph glyph-name="backslash" unicode="\" horiz-adv-x="702" d="M463 -298l-383 1021h159l383 -1021h-159z"/>
<glyph glyph-name="bracketright" unicode="]" horiz-adv-x="502" d="M252 568h-172v155h342v-1021h-342v155h172v711z"/>
<glyph glyph-name="asciicircum" unicode="^" horiz-adv-x="672" d="M592 548h-165l-91 166l-91 -166h-165l173 304h166z"/>
<glyph glyph-name="underscore" unicode="_" horiz-adv-x="694" d="M614 -24v-141h-534v141h534z"/>
<glyph glyph-name="grave" unicode="`" horiz-adv-x="405" d="M187 581l-107 180h187l58 -180h-138z"/>
<glyph glyph-name="a" unicode="a" horiz-adv-x="615" d="M318 496q43 0 79.5 -9t68.5 -29t50.5 -58.5t18.5 -91.5v-308h-168v47q-47 -62 -141 -62q-15 0 -35 5.5t-46 18.5t-44.5 43.5t-19.5 73.5q-2 72 37.5 112.5t99.5 50.5q58 10 149 13q0 22 -15.5 42.5t-54.5 20.5q-72 0 -147 -39l-46 109q33 23 91.5 42t122.5 19zM305 111 q32 0 47 16t15 35v52q-67 3 -96 -18q-18 -12 -20.5 -32.5t12.5 -36.5t42 -16z"/>
<glyph glyph-name="b" unicode="b" horiz-adv-x="685" d="M384 496q99 0 160 -73.5t61 -181.5q0 -109 -61 -182.5t-160 -73.5q-37 0 -80 19.5t-56 42.5v-47h-168v700h168v-247q62 43 136 43zM344 129q39 0 66 32.5t27 78.5q0 47 -26.5 79t-66.5 32t-68 -32.5t-28 -78.5t28 -78.5t68 -32.5z"/>
<glyph glyph-name="c" unicode="c" horiz-adv-x="620" d="M348 136q52 -2 103 39l89 -113q-35 -36 -86.5 -56.5t-105.5 -20.5q-112 0 -190 74.5t-78 180.5q0 107 77 181.5t191 74.5q113 0 192 -77l-95 -110q-51 38 -97 35q-45 -2 -76.5 -28.5t-31.5 -75.5q0 -45 32 -73.5t76 -30.5z"/>
<glyph glyph-name="d" unicode="d" horiz-adv-x="684" d="M80 241q0 109 60.5 182t160.5 73q73 0 135 -43v247h168v-700h-168v47q-12 -23 -55 -42.5t-80 -19.5q-100 0 -160.5 73.5t-60.5 182.5zM248 240q0 -46 27 -78.5t66 -32.5t67 32.5t28 78.5t-28 78.5t-67 32.5q-40 0 -66.5 -32t-26.5 -79z"/>
<glyph glyph-name="e" unicode="e" horiz-adv-x="635" d="M550 181h-301q24 -55 82 -63q44 -7 81 7t50 31l65 -91q-47 -43 -93 -61.5t-112 -18.5q-99 0 -170.5 75t-71.5 180t71.5 180.5t170.5 75.5t166 -70t67 -175q0 -41 -5 -70zM322 353q-30 0 -52.5 -18.5t-31.5 -51.5h172q-7 34 -30.5 52t-57.5 18z"/>
<glyph glyph-name="f" unicode="f" horiz-adv-x="581" d="M463 568q-24 9 -47 12t-47 -1.5t-38.5 -27t-14.5 -61.5v-10h124v-151h-124v-329h-169v329h-67v151h67v10q0 43 5 77t19.5 67.5t38 56t63 36t91.5 13.5q68 0 137 -27z"/>
<glyph glyph-name="g" unicode="g" horiz-adv-x="684" d="M604 480v-424q0 -116 -36 -183t-126 -94q-74 -22 -160 -12q-87 10 -183 71l52 114q68 -45 126 -49q78 -7 116.5 18t41.5 66q1 15 1 40q-62 -43 -136 -43q-99 0 -159.5 73.5t-60.5 182.5t60.5 182.5t159.5 73.5q38 0 80.5 -20t55.5 -42v46h168zM340 129q40 0 68 33t28 79 t-28 78.5t-68 32.5q-39 0 -65.5 -32.5t-26.5 -78.5q0 -47 26.5 -79.5t65.5 -32.5z"/>
<glyph glyph-name="h" unicode="h" horiz-adv-x="647" d="M384 496q90 0 136.5 -49.5t46.5 -138.5v-308h-168v287q0 37 -22.5 56.5t-48.5 19.5q-28 0 -53.5 -18.5t-26.5 -54.5v-290h-168v700h168v-266q23 26 60.5 44t75.5 18z"/>
<glyph glyph-name="i" unicode="i" horiz-adv-x="328" d="M164 536q-34 0 -58.5 24t-24.5 59t24.5 59t58.5 24t58.5 -24t24.5 -59t-24.5 -59t-58.5 -24zM80 480h168v-480h-168v480z"/>
<glyph glyph-name="j" unicode="j" horiz-adv-x="418" d="M337 619q0 -35 -24.5 -59t-58.5 -24t-58.5 24t-24.5 59t24.5 59t58.5 24t58.5 -24t24.5 -59zM170 480h168v-496q0 -106 -41 -150.5t-121 -44.5q-16 0 -48 6t-48 14l23 125q67 -19 67 50v184v312z"/>
<glyph glyph-name="k" unicode="k" horiz-adv-x="646" d="M566 0h-184l-134 215v-215h-168v700h168v-424l115 204h184l-139 -233z"/>
<glyph glyph-name="l" unicode="l" horiz-adv-x="328" d="M80 700h168v-700h-168v700z"/>
<glyph glyph-name="m" unicode="m" horiz-adv-x="907" d="M659 496q168 0 168 -188v-308h-168v287q0 39 -16 57.5t-40 18.5q-26 0 -45 -18t-20 -55v-290h-168v287q0 39 -16 57.5t-40 18.5q-26 0 -45 -18t-20 -55v-290h-169v480h169v-46q21 26 53.5 44t67.5 18q56 0 89.5 -20t55.5 -62q18 30 63 56t81 26z"/>
<glyph glyph-name="n" unicode="n" horiz-adv-x="648" d="M385 496q90 0 136.5 -49t46.5 -139v-308h-169l1 287q0 38 -22.5 57t-49.5 19q-28 0 -53 -18t-26 -55v-290h-169v480h169v-46q23 26 60.5 44t75.5 18z"/>
<glyph glyph-name="o" unicode="o" d="M340 496q106 0 183 -75t77 -181q0 -105 -77 -180t-183 -75t-183 75t-77 180q0 106 77 181t183 75zM340 138q43 0 73 30t30 72q0 43 -30 73t-73 30t-73 -30t-30 -73q0 -42 30 -72t73 -30z"/>
<glyph glyph-name="p" unicode="p" horiz-adv-x="685" d="M605 240q0 -109 -60.5 -182t-160.5 -73q-74 0 -135 42v-246h-169v699h169v-46q12 23 55 42.5t80 19.5q100 0 160.5 -73.5t60.5 -182.5zM437 241q0 46 -27 78.5t-66 32.5t-67 -32.5t-28 -78.5t28 -78.5t67 -32.5q40 0 66.5 32t26.5 79z"/>
<glyph glyph-name="q" unicode="q" horiz-adv-x="685" d="M301 -15q-99 0 -160 73.5t-61 181.5q0 109 61 182.5t160 73.5q38 0 80.5 -19.5t55.5 -42.5v46h168v-699h-168v246q-61 -42 -136 -42zM341 352q-39 0 -65.5 -32.5t-26.5 -78.5q0 -47 26.5 -79t65.5 -32q40 0 68 32.5t28 78.5t-28 78.5t-68 32.5z"/>
<glyph glyph-name="r" unicode="r" horiz-adv-x="554" d="M387 496q49 0 87 -16l-40 -176q-59 25 -98 22q-33 -2 -60 -25t-27 -74v-227h-169v480h169v-46q14 20 54.5 41t83.5 21z"/>
<glyph glyph-name="s" unicode="s" horiz-adv-x="573" d="M277 344q0 -18 22.5 -30.5t54 -23t63.5 -25.5t54 -47t22 -79q-1 -70 -53.5 -112t-153.5 -42q-48 0 -106.5 18.5t-99.5 48.5l51 111q36 -27 81 -41.5t77.5 -11.5t34.5 23q2 18 -14 30.5t-41 20t-54 21t-54 30.5t-40.5 50.5t-13.5 79.5q4 66 60.5 102t158.5 29 q47 -3 97 -18t61 -24l-49 -112q-30 23 -67.5 31t-64 -0.5t-26.5 -28.5z"/>
<glyph glyph-name="t" unicode="t" horiz-adv-x="548" d="M431 156l37 -138q-18 -12 -58.5 -22.5t-87.5 -10.5q-45 0 -77.5 14t-51 35.5t-29.5 56t-14 67.5t-3 77v94h-67v151h67v103l169 21v-124h124v-151h-124v-90q0 -68 30.5 -89t84.5 6z"/>
<glyph glyph-name="u" unicode="u" horiz-adv-x="647" d="M263 -15q-90 0 -136.5 49t-46.5 138v308h168v-286q0 -37 22.5 -56.5t48.5 -19.5q28 0 53.5 18t26.5 55v289h168v-480h-168v47q-23 -27 -60.5 -44.5t-75.5 -17.5z"/>
<glyph glyph-name="v" unicode="v" horiz-adv-x="709" d="M629 480l-194 -480h-161l-194 480h185l89 -274l90 274h185z"/>
<glyph glyph-name="w" unicode="w" horiz-adv-x="968" d="M704 480h184l-157 -480h-161l-86 248l-86 -248h-161l-157 480h184l61 -263l78 263h163l77 -263z"/>
<glyph glyph-name="x" unicode="x" horiz-adv-x="679" d="M599 480l-143 -241l143 -239h-176l-82 137l-80 -137h-181l147 243l-147 237h189l73 -134l68 134h189z"/>
<glyph glyph-name="y" unicode="y" horiz-adv-x="713" d="M449 480h184q-88 -238 -126 -341q-1 -4 -14.5 -42t-20 -55t-24 -56.5t-31 -61.5t-36.5 -54t-45.5 -49.5t-52.5 -31.5t-62 -17q-37 -3 -72 7t-52 22l-17 12l53 126q49 -27 88 0.5t65 94.5l-197 446h187l91 -281z"/>
<glyph glyph-name="z" unicode="z" horiz-adv-x="558" d="M293 152h185v-152h-398v130l176 199h-164v151h377v-130z"/>
<glyph glyph-name="braceleft" unicode="{" horiz-adv-x="424" d="M278 449q0 -49 -19 -75.5t-51 -26.5q32 0 51 -27t19 -76v-144q0 -24 14.5 -33t29.5 -9h22v-133h-57q-70 0 -107 44t-37 110v144q0 33 -10.5 44.5t-35.5 11.5h-17v135h17q25 0 35.5 11.5t10.5 44.5v144q0 67 37 110.5t107 43.5h57v-133h-22q-9 0 -17.5 -2.5t-17.5 -12.5 t-9 -27v-144z"/>
<glyph glyph-name="bar" unicode="|" horiz-adv-x="330" d="M250 723v-1021h-170v1021h170z"/>
<glyph glyph-name="braceright" unicode="}" horiz-adv-x="424" d="M146 449v144q0 24 -14.5 33t-29.5 9h-22v133h57q70 0 107 -43.5t37 -110.5v-144q0 -33 10.5 -44.5t35.5 -11.5h17v-135h-17q-25 0 -35.5 -11.5t-10.5 -44.5v-144q0 -66 -37 -110t-107 -44h-57v133h22q9 0 17.5 2.5t17.5 12.5t9 27v144q0 49 19 76t51 27q-32 0 -51 26.5 t-19 75.5z"/>
<glyph glyph-name="asciitilde" unicode="~" d="M481 445l119 -51q-1 -6 -3 -16.5t-12.5 -36.5t-25.5 -45.5t-44 -36t-65 -16.5q-40 0 -108 27q-4 1 -25 9.5t-37 13t-28 4.5q-20 0 -33.5 -12.5t-16.5 -25.5l-4 -13l-118 51q1 6 3 16.5t12.5 36.5t25.5 46t44 36.5t65 16.5q40 0 110 -28q73 -27 88 -27q20 0 33 13t17 25z "/>
<glyph glyph-name="cent" unicode="¢" horiz-adv-x="621" d="M541 62q-53 -53 -132 -70v-123h-154v132q-78 27 -126.5 92t-48.5 147q0 83 48 148.5t127 92.5v140h154v-132q77 -17 132 -70l-96 -109q-49 36 -96 35q-45 -2 -77 -29t-32 -76q0 -45 32.5 -73.5t76.5 -30.5q52 -2 103 39z"/>
<glyph glyph-name="sterling" unicode="£" horiz-adv-x="775" d="M371 265v-103h310v-162h-601v162h100v103h-75v145h75v5q0 145 74 223t191 78q82 0 135.5 -25t114.5 -84l-108 -110q-28 29 -54 40t-61 11q-101 0 -101 -127v-11h238v-145h-238z"/>
<glyph glyph-name="currency" unicode="¤" horiz-adv-x="628" d="M499 350q0 -39 -18 -78l67 -68l-88 -88l-68 68q-40 -20 -85 -20q-38 0 -76 16l-63 -64l-88 88l59 59q-23 40 -23 87t23 87l-59 59l88 88l63 -63q38 16 76 16q42 0 85 -20l68 67l88 -88l-67 -67q18 -39 18 -79zM307 289q26 0 44 18t18 43q0 26 -18.5 44t-43.5 18 t-43 -18.5t-18 -43.5t18 -43t43 -18z"/>
<glyph glyph-name="yen" unicode="¥" horiz-adv-x="851" d="M771 700l-180 -319h103v-125h-173v-35h173v-125h-173v-96h-191v96h-173v125h173v35h-173v125h103l-180 319h215l130 -262l131 262h215z"/>
<glyph glyph-name="brokenbar" unicode="¦" horiz-adv-x="284" d="M204 872v-377h-124v377h124zM204 325v-377h-124v377h124z"/>
<glyph glyph-name="section" unicode="§" horiz-adv-x="694" d="M88 270q10 34 35.5 71t52.5 61q-46 31 -70.5 74t-25 86t12.5 87q51 149 276 134q55 -4 108.5 -21t80.5 -32l26 -16l-54 -128q-63 41 -138 50q-123 16 -131 -58q-2 -17 6 -30t26.5 -24t37 -18.5t50.5 -20.5t54 -23q62 -28 102 -59.5t56.5 -62t20 -63t-7.5 -62.5 q-10 -34 -35.5 -71t-52.5 -61q46 -31 70.5 -74t25 -86t-12.5 -87q-51 -149 -276 -134q-55 4 -108.5 21t-80.5 33l-26 15l54 128q63 -41 138 -50q123 -16 131 58q1 14 -5 26t-16 20.5t-28.5 17.5t-35.5 15.5t-43.5 17t-45.5 19.5q-62 28 -102 59.5t-56.5 62t-20 63t7.5 62.5z M380 141q27 14 45 44t19.5 63.5t-34.5 63t-109 39.5q-47 -38 -59.5 -74t6.5 -62.5t53 -45.5t79 -28z"/>
<glyph glyph-name="dieresis" unicode="¨" horiz-adv-x="541" d="M246 656q0 -34 -24 -58.5t-59 -24.5t-59 24.5t-24 58.5t24 58.5t59 24.5t59 -24.5t24 -58.5zM461 656q0 -34 -24.5 -58.5t-58.5 -24.5t-58.5 24.5t-24.5 58.5t24.5 58.5t58.5 24.5t58.5 -24.5t24.5 -58.5z"/>
<glyph glyph-name="guillemotleft" unicode="«" horiz-adv-x="776" d="M355 355l146 241h195l-146 -241l146 -241h-194zM80 355l146 241h195l-146 -241l146 -241h-194z"/>
<glyph glyph-name="macron" unicode="¯" horiz-adv-x="563" d="M483 707v-126h-403v126h403z"/>
<glyph glyph-name="degree" unicode="°" horiz-adv-x="446" d="M223 821q59 0 101 -41t42 -99t-42 -99t-101 -41q-58 0 -100.5 41t-42.5 99q0 57 42.5 98.5t100.5 41.5zM223 634q19 0 33 14t14 33t-14 33t-33 14t-33 -14t-14 -33t14 -33t33 -14z"/>
<glyph glyph-name="plusminus" unicode="±" horiz-adv-x="577" d="M497 57v141h-417v-141h417zM497 523v-141h-138v-138h-141v138h-138v141h138v138h141v-138h138z"/>
<glyph glyph-name="acute" unicode="´" horiz-adv-x="406" d="M326 761l-108 -180h-138l59 180h187z"/>
<glyph glyph-name="paragraph" unicode="¶" horiz-adv-x="831" d="M332 700h419v-975h-170v813h-79v-813h-170v472q-104 0 -178 73.5t-74 177.5t74 178t178 74z"/>
<glyph glyph-name="cedilla" unicode="¸" horiz-adv-x="374" d="M229 -37q34 -7 49.5 -32.5t14.5 -53.5q-2 -39 -32 -68t-80 -29q-26 0 -51.5 9t-37.5 17l-12 9l28 52q19 -23 61 -23t44 33q2 26 -25.5 36t-60.5 -4l-23 29l5 59h71l-3 -36q25 7 52 2z"/>
<glyph glyph-name="guillemotright" unicode="»" horiz-adv-x="776" d="M275 596l146 -241l-147 -241h-194l146 241l-146 241h195zM550 596l146 -241l-147 -241h-194l146 241l-146 241h195z"/>
<glyph glyph-name="Agrave" unicode="À" horiz-adv-x="898" d="M603 0l-43 124h-222l-43 -124h-213l264 700h205l265 -700h-213zM395 286h108l-54 154zM373 781l-107 180h187l58 -180h-138z"/>
<glyph glyph-name="Aacute" unicode="Á" horiz-adv-x="898" d="M603 0l-43 124h-222l-43 -124h-213l264 700h205l265 -700h-213zM395 286h108l-54 154zM632 961l-108 -180h-138l59 180h187z"/>
<glyph glyph-name="Acircumflex" unicode="Â" horiz-adv-x="898" d="M603 0l-43 124h-222l-43 -124h-213l264 700h205l265 -700h-213zM395 286h108l-54 154zM643 781h-131l-63 102l-63 -102h-130l118 180h151z"/>
<glyph glyph-name="Atilde" unicode="Ã" horiz-adv-x="898" d="M603 0l-43 124h-222l-43 -124h-213l264 700h205l265 -700h-213zM395 286h108l-54 154zM551 932l85 -41q-1 -5 -2.5 -13t-9 -28.5t-18 -36.5t-31.5 -29t-47 -13t-77 22q-53 21 -65 21q-15 0 -24.5 -10t-11.5 -20l-3 -10l-85 40q1 5 2.5 13t9 28.5t18 36.5t31.5 29t47 13 q30 0 79 -21t63 -21q15 0 24.5 10t11.5 20z"/>
<glyph glyph-name="Adieresis" unicode="Ä" horiz-adv-x="898" d="M603 0l-43 124h-222l-43 -124h-213l264 700h205l265 -700h-213zM395 286h108l-54 154zM425 856q0 -34 -24.5 -58.5t-58.5 -24.5t-58.5 24.5t-24.5 58.5t24.5 58.5t58.5 24.5t58.5 -24.5t24.5 -58.5zM640 856q0 -34 -24.5 -58.5t-58.5 -24.5q-35 0 -59 24.5t-24 58.5 t24 58.5t59 24.5q34 0 58.5 -24.5t24.5 -58.5z"/>
<glyph glyph-name="Aring" unicode="Å" horiz-adv-x="898" d="M603 0l-43 124h-222l-43 -124h-213l264 700h205l265 -700h-213zM395 286h108l-54 154zM449 991q45 0 78 -32t33 -77t-33 -76.5t-78 -31.5t-77.5 31.5t-32.5 76.5t32.5 77t77.5 32zM449 846q15 0 26 10.5t11 25.5t-11 25.5t-26 10.5t-25.5 -10.5t-10.5 -25.5t10.5 -25.5 t25.5 -10.5z"/>
<glyph glyph-name="AE" unicode="Æ" horiz-adv-x="1097" d="M686 162h331v-162h-523v124h-156l-43 -124h-213l265 700h653v-162h-314v-107h283v-162h-283v-107zM395 285h99v284z"/>
<glyph glyph-name="Ccedilla" unicode="Ç" horiz-adv-x="795" d="M549 -37q34 -7 49.5 -32.5t14.5 -53.5q-2 -39 -32 -68t-80 -29q-26 0 -51.5 9t-37.5 17l-12 9l28 52q19 -23 61 -23t44 33q2 26 -25.5 36t-60.5 -4l-23 29l4 50q-151 16 -249.5 118.5t-98.5 243.5q0 153 114.5 259.5t283.5 106.5q125 0 237 -88l-94 -133q-66 49 -143 49 q-90 0 -150.5 -56t-60.5 -138q0 -81 60.5 -137.5t150.5 -56.5q74 0 143 50l94 -134q-105 -81 -216 -86l-2 -25q25 7 52 2z"/>
<glyph glyph-name="Egrave" unicode="È" horiz-adv-x="683" d="M271 162h332v-162h-523v700h506v-162h-315v-107h284v-162h-284v-107zM286 781l-107 180h187l58 -180h-138z"/>
<glyph glyph-name="Eacute" unicode="É" horiz-adv-x="683" d="M271 162h332v-162h-523v700h506v-162h-315v-107h284v-162h-284v-107zM525 961l-108 -180h-138l59 180h187z"/>
<glyph glyph-name="Ecircumflex" unicode="Ê" horiz-adv-x="683" d="M271 162h332v-162h-523v700h506v-162h-315v-107h284v-162h-284v-107zM535 781h-131l-63 102l-63 -102h-130l118 180h151z"/>
<glyph glyph-name="Edieresis" unicode="Ë" horiz-adv-x="683" d="M271 162h332v-162h-523v700h506v-162h-315v-107h284v-162h-284v-107zM317 856q0 -34 -24.5 -58.5t-58.5 -24.5t-58.5 24.5t-24.5 58.5t24.5 58.5t58.5 24.5t58.5 -24.5t24.5 -58.5zM532 856q0 -34 -24.5 -58.5t-58.5 -24.5q-35 0 -59 24.5t-24 58.5t24 58.5t59 24.5 q34 0 58.5 -24.5t24.5 -58.5z"/>
<glyph glyph-name="Igrave" unicode="Ì" horiz-adv-x="354" d="M83 700h191v-700h-191v700zM113 781l-107 180h187l58 -180h-138z"/>
<glyph glyph-name="Iacute" unicode="Í" horiz-adv-x="349" d="M81 700h191v-700h-191v700zM359 961l-108 -180h-138l59 180h187z"/>
<glyph glyph-name="Icircumflex" unicode="Î" horiz-adv-x="388" d="M98 700h191v-700h-191v700zM387 781h-131l-63 102l-63 -102h-130l118 180h151z"/>
<glyph glyph-name="Idieresis" unicode="Ï" horiz-adv-x="388" d="M97 700h191v-700h-191v700zM168 856q0 -34 -24 -58.5t-59 -24.5t-59 24.5t-24 58.5t24 58.5t59 24.5t59 -24.5t24 -58.5zM383 856q0 -34 -24.5 -58.5t-58.5 -24.5t-58.5 24.5t-24.5 58.5t24.5 58.5t58.5 24.5t58.5 -24.5t24.5 -58.5z"/>
<glyph glyph-name="Eth" unicode="Ð" horiz-adv-x="892" d="M423 700q187 0 288 -100t101 -250q0 -72 -24.5 -134.5t-71.5 -111t-123 -76.5t-171 -28h-276v279h-66v142h66v279h277zM410 162q114 0 168.5 52t54.5 136t-54.5 136t-168.5 52h-72v-117h154v-142h-154v-117h72z"/>
<glyph glyph-name="Ntilde" unicode="Ñ" horiz-adv-x="765" d="M250 700h-170v-700h192v372l243 -372h170v700h-192v-371zM485 932l85 -41q-1 -5 -2.5 -13t-9 -28.5t-18 -36.5t-31.5 -29t-47 -13t-77 22q-53 21 -65 21q-15 0 -24.5 -10t-11.5 -20l-3 -10l-85 40q1 5 2.5 13t9 28.5t18 36.5t31.5 29t47 13q30 0 79 -21t63 -21 q15 0 24.5 10t11.5 20z"/>
<glyph glyph-name="Ograve" unicode="Ò" horiz-adv-x="913" d="M457 716q152 0 264 -107.5t112 -258.5q0 -150 -111.5 -257.5t-264.5 -107.5t-265 107.5t-112 257.5t112 258t265 108zM457 159q80 0 136 56t56 135q0 80 -56.5 136t-135.5 56t-135.5 -56t-56.5 -136q0 -79 56 -135t136 -56zM391 781l-107 180h187l58 -180h-138z"/>
<glyph glyph-name="Oacute" unicode="Ó" horiz-adv-x="913" d="M457 716q152 0 264 -107.5t112 -258.5q0 -150 -111.5 -257.5t-264.5 -107.5t-265 107.5t-112 257.5t112 258t265 108zM457 159q80 0 136 56t56 135q0 80 -56.5 136t-135.5 56t-135.5 -56t-56.5 -136q0 -79 56 -135t136 -56zM630 961l-108 -180h-138l59 180h187z"/>
<glyph glyph-name="Ocircumflex" unicode="Ô" horiz-adv-x="913" d="M457 716q152 0 264 -107.5t112 -258.5q0 -150 -111.5 -257.5t-264.5 -107.5t-265 107.5t-112 257.5t112 258t265 108zM457 159q80 0 136 56t56 135q0 80 -56.5 136t-135.5 56t-135.5 -56t-56.5 -136q0 -79 56 -135t136 -56zM650 781h-131l-63 102l-63 -102h-130l118 180 h151z"/>
<glyph glyph-name="Otilde" unicode="Õ" horiz-adv-x="913" d="M457 716q152 0 264 -107.5t112 -258.5q0 -150 -111.5 -257.5t-264.5 -107.5t-265 107.5t-112 257.5t112 258t265 108zM457 159q80 0 136 56t56 135q0 80 -56.5 136t-135.5 56t-135.5 -56t-56.5 -136q0 -79 56 -135t136 -56zM558 932l85 -41q-1 -5 -2.5 -13t-9 -28.5 t-18 -36.5t-31.5 -29t-47 -13t-77 22q-52 21 -65 21q-15 0 -24.5 -10t-12.5 -20l-2 -10l-85 40q1 5 2.5 13t9 28.5t18 36.5t31.5 29t47 13q30 0 79 -21t63 -21q15 0 24.5 10t12.5 20z"/>
<glyph glyph-name="Odieresis" unicode="Ö" horiz-adv-x="913" d="M457 716q152 0 264 -107.5t112 -258.5q0 -150 -111.5 -257.5t-264.5 -107.5t-265 107.5t-112 257.5t112 258t265 108zM457 159q80 0 136 56t56 135q0 80 -56.5 136t-135.5 56t-135.5 -56t-56.5 -136q0 -79 56 -135t136 -56zM432 856q0 -34 -24 -58.5t-59 -24.5t-59 24.5 t-24 58.5t24 58.5t59 24.5t59 -24.5t24 -58.5zM647 856q0 -34 -24.5 -58.5t-58.5 -24.5t-58.5 24.5t-24.5 58.5t24.5 58.5t58.5 24.5t58.5 -24.5t24.5 -58.5z"/>
<glyph glyph-name="multiply" unicode="×" horiz-adv-x="555" d="M475 447l-98 -97l98 -98l-100 -100l-98 98l-97 -98l-100 100l97 98l-97 97l100 100l97 -97l98 97z"/>
<glyph glyph-name="Oslash" unicode="Ø" horiz-adv-x="874" d="M685 624q60 -52 94.5 -123t34.5 -151q0 -151 -112 -258.5t-264 -107.5q-68 0 -132 25l-65 -106l-117 64l67 109q-60 52 -94.5 123t-34.5 151q0 150 111.5 257.5t264.5 107.5q70 0 132 -24l65 106l117 -64zM246 350q0 -66 41 -118l189 306q-19 3 -38 3q-80 0 -136 -56 t-56 -135zM438 158q80 0 136 56t56 136q0 64 -41 118l-189 -306q24 -4 38 -4z"/>
<glyph glyph-name="Ugrave" unicode="Ù" horiz-adv-x="777" d="M505 700h192v-414q0 -144 -87.5 -222.5t-221.5 -78.5t-221 78t-87 223v414h191v-420q0 -61 33 -94t84 -33t84 33t33 94v420zM320 781l-107 180h187l58 -180h-138z"/>
<glyph glyph-name="Uacute" unicode="Ú" horiz-adv-x="777" d="M505 700h192v-414q0 -144 -87.5 -222.5t-221.5 -78.5t-221 78t-87 223v414h191v-420q0 -61 33 -94t84 -33t84 33t33 94v420zM562 961l-108 -180h-138l59 180h187z"/>
<glyph glyph-name="Ucircumflex" unicode="Û" horiz-adv-x="777" d="M505 700h192v-414q0 -144 -87.5 -222.5t-221.5 -78.5t-221 78t-87 223v414h191v-420q0 -61 33 -94t84 -33t84 33t33 94v420zM582 781h-131l-63 102l-63 -102h-130l118 180h151z"/>
<glyph glyph-name="Udieresis" unicode="Ü" horiz-adv-x="777" d="M505 700h192v-414q0 -144 -87.5 -222.5t-221.5 -78.5t-221 78t-87 223v414h191v-420q0 -61 33 -94t84 -33t84 33t33 94v420zM364 856q0 -34 -24 -58.5t-59 -24.5t-59 24.5t-24 58.5t24 58.5t59 24.5t59 -24.5t24 -58.5zM579 856q0 -34 -24.5 -58.5t-58.5 -24.5 t-58.5 24.5t-24.5 58.5t24.5 58.5t58.5 24.5t58.5 -24.5t24.5 -58.5z"/>
<glyph glyph-name="Yacute" unicode="Ý" horiz-adv-x="851" d="M556 700h215l-250 -444v-256h-191v256l-250 444h215l130 -262zM609 961l-108 -180h-138l59 180h187z"/>
<glyph glyph-name="Thorn" unicode="Þ" horiz-adv-x="720" d="M367 598q123 0 198 -72.5t75 -175.5q0 -104 -75 -176.5t-198 -72.5h-95v-101h-192v700h192v-102h95zM360 263q57 0 82.5 25t25.5 62t-25.5 61.5t-82.5 24.5h-88v-173h88z"/>
<glyph glyph-name="germandbls" unicode="ß" horiz-adv-x="770" d="M518 405q89 -17 130.5 -73t41.5 -118q0 -96 -75 -163t-205 -67q-50 0 -97 13l35 147q26 -4 42 -4q54 0 84 23.5t31 59.5q1 33 -18 52t-59 23q-18 2 -34.5 0.5t-27.5 -3.5l-11 -2l-31 104q4 3 11.5 8.5t26 22t33 32t27 36t14.5 37.5q4 39 -19 64.5t-64 25.5 q-39 0 -60.5 -28t-21.5 -70v-525h-191v549q0 111 66 173.5t204 62.5q64 0 113.5 -13.5t78.5 -34t47.5 -48.5t25 -52.5t6.5 -49.5q0 -35 -10.5 -66.5t-25.5 -51.5t-30.5 -35.5t-26.5 -21.5z"/>
<glyph glyph-name="agrave" unicode="à" horiz-adv-x="615" d="M318 496q43 0 79.5 -9t68.5 -29t50.5 -58.5t18.5 -91.5v-308h-168v47q-47 -62 -141 -62q-15 0 -35 5.5t-46 18.5t-44.5 43.5t-19.5 73.5q-2 72 37.5 112.5t99.5 50.5q58 10 149 13q0 22 -15.5 42.5t-54.5 20.5q-72 0 -147 -39l-46 109q33 23 91.5 42t122.5 19zM305 111 q32 0 47 16t15 35v52q-67 3 -96 -18q-18 -12 -20.5 -32.5t12.5 -36.5t42 -16zM262 581l-107 180h187l58 -180h-138z"/>
<glyph glyph-name="aacute" unicode="á" horiz-adv-x="615" d="M318 496q43 0 79.5 -9t68.5 -29t50.5 -58.5t18.5 -91.5v-308h-168v47q-47 -62 -141 -62q-15 0 -35 5.5t-46 18.5t-44.5 43.5t-19.5 73.5q-2 72 37.5 112.5t99.5 50.5q58 10 149 13q0 22 -15.5 42.5t-54.5 20.5q-72 0 -147 -39l-46 109q33 23 91.5 42t122.5 19zM305 111 q32 0 47 16t15 35v52q-67 3 -96 -18q-18 -12 -20.5 -32.5t12.5 -36.5t42 -16zM491 761l-108 -180h-138l59 180h187z"/>
<glyph glyph-name="acircumflex" unicode="â" horiz-adv-x="615" d="M318 496q43 0 79.5 -9t68.5 -29t50.5 -58.5t18.5 -91.5v-308h-168v47q-47 -62 -141 -62q-15 0 -35 5.5t-46 18.5t-44.5 43.5t-19.5 73.5q-2 72 37.5 112.5t99.5 50.5q58 10 149 13q0 22 -15.5 42.5t-54.5 20.5q-72 0 -147 -39l-46 109q33 23 91.5 42t122.5 19zM305 111 q32 0 47 16t15 35v52q-67 3 -96 -18q-18 -12 -20.5 -32.5t12.5 -36.5t42 -16zM521 581h-131l-63 102l-63 -102h-130l118 180h151z"/>
<glyph glyph-name="atilde" unicode="ã" horiz-adv-x="615" d="M318 496q43 0 79.5 -9t68.5 -29t50.5 -58.5t18.5 -91.5v-308h-168v47q-47 -62 -141 -62q-15 0 -35 5.5t-46 18.5t-44.5 43.5t-19.5 73.5q-2 72 37.5 112.5t99.5 50.5q58 10 149 13q0 22 -15.5 42.5t-54.5 20.5q-72 0 -147 -39l-46 109q33 23 91.5 42t122.5 19zM305 111 q32 0 47 16t15 35v52q-67 3 -96 -18q-18 -12 -20.5 -32.5t12.5 -36.5t42 -16zM440 732l85 -41q-1 -5 -2.5 -13t-9 -28.5t-18 -36.5t-31.5 -29t-47 -13t-77 22q-52 21 -65 21q-15 0 -24.5 -10t-12.5 -20l-2 -10l-85 40q1 5 2.5 13t9 28.5t18 36.5t31.5 29t47 13q30 0 79 -21 t63 -21q15 0 24.5 10t12.5 20z"/>
<glyph glyph-name="adieresis" unicode="ä" horiz-adv-x="615" d="M318 496q43 0 79.5 -9t68.5 -29t50.5 -58.5t18.5 -91.5v-308h-168v47q-47 -62 -141 -62q-15 0 -35 5.5t-46 18.5t-44.5 43.5t-19.5 73.5q-2 72 37.5 112.5t99.5 50.5q58 10 149 13q0 22 -15.5 42.5t-54.5 20.5q-72 0 -147 -39l-46 109q33 23 91.5 42t122.5 19zM305 111 q32 0 47 16t15 35v52q-67 3 -96 -18q-18 -12 -20.5 -32.5t12.5 -36.5t42 -16zM313 656q0 -34 -24.5 -58.5t-58.5 -24.5t-58.5 24.5t-24.5 58.5t24.5 58.5t58.5 24.5t58.5 -24.5t24.5 -58.5zM528 656q0 -34 -24.5 -58.5t-58.5 -24.5q-35 0 -59 24.5t-24 58.5t24 58.5t59 24.5 q34 0 58.5 -24.5t24.5 -58.5z"/>
<glyph glyph-name="aring" unicode="å" horiz-adv-x="615" d="M318 496q43 0 79.5 -9t68.5 -29t50.5 -58.5t18.5 -91.5v-308h-168v47q-47 -62 -141 -62q-15 0 -35 5.5t-46 18.5t-44.5 43.5t-19.5 73.5q-2 72 37.5 112.5t99.5 50.5q58 10 149 13q0 22 -15.5 42.5t-54.5 20.5q-72 0 -147 -39l-46 109q33 23 91.5 42t122.5 19zM305 111 q32 0 47 16t15 35v52q-67 3 -96 -18q-18 -12 -20.5 -32.5t12.5 -36.5t42 -16zM347 791q45 0 78 -32t33 -77t-33 -76.5t-78 -31.5t-77.5 31.5t-32.5 76.5t32.5 77t77.5 32zM347 646q15 0 26 10.5t11 25.5t-11 25.5t-26 10.5t-25.5 -10.5t-10.5 -25.5t10.5 -25.5t25.5 -10.5z "/>
<glyph glyph-name="ae" unicode="æ" horiz-adv-x="882" d="M832 182h-301q25 -56 82 -64q45 -7 82 7.5t50 31.5l65 -92q-48 -43 -94 -61.5t-111 -18.5q-57 0 -106.5 26t-83.5 72q-27 -47 -69.5 -72.5t-122.5 -25.5q-15 0 -36.5 5.5t-50.5 19t-50 44t-22 73.5q-2 72 37.5 112.5t98.5 50.5q79 12 150 12q0 23 -15.5 43.5t-54.5 20.5 q-74 0 -148 -40l-45 110q33 22 91.5 41t122.5 19q106 0 162 -48q64 48 142 48q99 0 165.5 -70t66.5 -175q0 -40 -5 -69zM288 112q32 0 47 15.5t15 34.5v52q-67 3 -96 -18q-18 -12 -20.5 -32.5t12.5 -36t42 -15.5zM520 283h172q-7 35 -30 53t-57 18q-64 0 -85 -71z"/>
<glyph glyph-name="ccedilla" unicode="ç" horiz-adv-x="620" d="M432 -37q34 -7 49.5 -32.5t14.5 -53.5q-2 -39 -32 -68t-80 -29q-26 0 -51.5 9t-37.5 17l-12 9l28 52q19 -23 61 -23t44 33q2 26 -25.5 36t-60.5 -4l-23 29l4 50q-99 12 -165 83.5t-66 168.5q0 107 77 181.5t191 74.5q113 0 192 -77l-95 -110q-51 38 -97 35 q-45 -2 -76.5 -28.5t-31.5 -75.5q0 -45 32 -73.5t76 -30.5q52 -2 103 39l89 -113q-60 -62 -158 -75l-2 -26q25 7 52 2z"/>
<glyph glyph-name="egrave" unicode="è" horiz-adv-x="635" d="M550 181h-301q24 -55 82 -63q44 -7 81 7t50 31l65 -91q-47 -43 -93 -61.5t-112 -18.5q-99 0 -170.5 75t-71.5 180t71.5 180.5t170.5 75.5t166 -70t67 -175q0 -41 -5 -70zM322 353q-30 0 -52.5 -18.5t-31.5 -51.5h172q-7 34 -30.5 52t-57.5 18zM242 581l-107 180h187 l58 -180h-138z"/>
<glyph glyph-name="eacute" unicode="é" horiz-adv-x="635" d="M550 181h-301q24 -55 82 -63q44 -7 81 7t50 31l65 -91q-47 -43 -93 -61.5t-112 -18.5q-99 0 -170.5 75t-71.5 180t71.5 180.5t170.5 75.5t166 -70t67 -175q0 -41 -5 -70zM322 353q-30 0 -52.5 -18.5t-31.5 -51.5h172q-7 34 -30.5 52t-57.5 18zM511 761l-108 -180h-138 l59 180h187z"/>
<glyph glyph-name="ecircumflex" unicode="ê" horiz-adv-x="635" d="M550 181h-301q24 -55 82 -63q44 -7 81 7t50 31l65 -91q-47 -43 -93 -61.5t-112 -18.5q-99 0 -170.5 75t-71.5 180t71.5 180.5t170.5 75.5t166 -70t67 -175q0 -41 -5 -70zM322 353q-30 0 -52.5 -18.5t-31.5 -51.5h172q-7 34 -30.5 52t-57.5 18zM531 581h-131l-63 102 l-63 -102h-130l118 180h151z"/>
<glyph glyph-name="edieresis" unicode="ë" horiz-adv-x="635" d="M550 181h-301q24 -55 82 -63q44 -7 81 7t50 31l65 -91q-47 -43 -93 -61.5t-112 -18.5q-99 0 -170.5 75t-71.5 180t71.5 180.5t170.5 75.5t166 -70t67 -175q0 -41 -5 -70zM322 353q-30 0 -52.5 -18.5t-31.5 -51.5h172q-7 34 -30.5 52t-57.5 18zM303 656q0 -34 -24.5 -58.5 t-58.5 -24.5t-58.5 24.5t-24.5 58.5t24.5 58.5t58.5 24.5t58.5 -24.5t24.5 -58.5zM518 656q0 -34 -24.5 -58.5t-58.5 -24.5q-35 0 -59 24.5t-24 58.5t24 58.5t59 24.5q34 0 58.5 -24.5t24.5 -58.5z"/>
<glyph glyph-name="igrave" unicode="ì" horiz-adv-x="326" d="M246 480v-480h-168v480h168zM87 581l-107 180h187l58 -180h-138z"/>
<glyph glyph-name="iacute" unicode="í" horiz-adv-x="324" d="M248 0v480h-168v-480h168zM340 761l-108 -180h-138l59 180h187z"/>
<glyph glyph-name="icircumflex" unicode="î" horiz-adv-x="386" d="M278 0v480h-168v-480h168zM388 581h-131l-63 102l-63 -102h-130l118 180h151z"/>
<glyph glyph-name="idieresis" unicode="ï" horiz-adv-x="369" d="M269 480v-480h-168v480h168zM161 656q0 -34 -24.5 -58.5t-58.5 -24.5t-58.5 24.5t-24.5 58.5t24.5 58.5t58.5 24.5t58.5 -24.5t24.5 -58.5zM376 656q0 -34 -24.5 -58.5t-58.5 -24.5q-35 0 -59 24.5t-24 58.5t24 58.5t59 24.5q34 0 58.5 -24.5t24.5 -58.5z"/>
<glyph glyph-name="eth" unicode="ð" horiz-adv-x="682" d="M482 627q134 -160 118 -386q-9 -119 -80.5 -187.5t-179.5 -68.5q-106 0 -183 75t-77 181q0 105 77 180t183 75q23 0 51 -5q-8 39 -39 81l-125 -52l-45 108l78 32q-40 26 -74 36l56 100q87 -37 146 -82l134 57l45 -108zM340 138q43 0 73 30t30 73q0 42 -30 72t-73 30 t-73 -30t-30 -72q0 -43 30 -73t73 -30z"/>
<glyph glyph-name="ntilde" unicode="ñ" horiz-adv-x="648" d="M385 496q90 0 136.5 -49t46.5 -139v-308h-169l1 287q0 38 -22.5 57t-49.5 19q-28 0 -53 -18t-26 -55v-290h-169v480h169v-46q23 26 60.5 44t75.5 18zM426 732l85 -41q-1 -5 -2.5 -13t-9 -28.5t-18 -36.5t-31.5 -29t-47 -13t-77 22q-53 21 -65 21q-15 0 -24.5 -10 t-12.5 -20l-2 -10l-85 40q1 5 2.5 13t9 28.5t18 36.5t31.5 29t47 13q30 0 79 -21t63 -21q15 0 24.5 10t12.5 20z"/>
<glyph glyph-name="ograve" unicode="ò" d="M340 496q106 0 183 -75t77 -181q0 -105 -77 -180t-183 -75t-183 75t-77 180q0 106 77 181t183 75zM340 138q43 0 73 30t30 72q0 43 -30 73t-73 30t-73 -30t-30 -73q0 -42 30 -72t73 -30zM264 581l-107 180h187l58 -180h-138z"/>
<glyph glyph-name="oacute" unicode="ó" d="M340 496q106 0 183 -75t77 -181q0 -105 -77 -180t-183 -75t-183 75t-77 180q0 106 77 181t183 75zM340 138q43 0 73 30t30 72q0 43 -30 73t-73 30t-73 -30t-30 -73q0 -42 30 -72t73 -30zM523 761l-108 -180h-138l59 180h187z"/>
<glyph glyph-name="ocircumflex" unicode="ô" d="M340 496q106 0 183 -75t77 -181q0 -105 -77 -180t-183 -75t-183 75t-77 180q0 106 77 181t183 75zM340 138q43 0 73 30t30 72q0 43 -30 73t-73 30t-73 -30t-30 -73q0 -42 30 -72t73 -30zM534 581h-131l-63 102l-63 -102h-130l118 180h151z"/>
<glyph glyph-name="otilde" unicode="õ" d="M340 496q106 0 183 -75t77 -181q0 -105 -77 -180t-183 -75t-183 75t-77 180q0 106 77 181t183 75zM340 138q43 0 73 30t30 72q0 43 -30 73t-73 30t-73 -30t-30 -73q0 -42 30 -72t73 -30zM442 732l85 -41q-1 -5 -2.5 -13t-9 -28.5t-18 -36.5t-31.5 -29t-47 -13t-77 22 q-53 21 -65 21q-15 0 -24.5 -10t-12.5 -20l-2 -10l-85 40q1 5 2.5 13t9 28.5t18 36.5t31.5 29t47 13q30 0 79 -21t63 -21q15 0 24.5 10t12.5 20z"/>
<glyph glyph-name="odieresis" unicode="ö" d="M340 496q106 0 183 -75t77 -181q0 -105 -77 -180t-183 -75t-183 75t-77 180q0 106 77 181t183 75zM340 138q43 0 73 30t30 72q0 43 -30 73t-73 30t-73 -30t-30 -73q0 -42 30 -72t73 -30zM316 656q0 -34 -24 -58.5t-59 -24.5t-59 24.5t-24 58.5t24 58.5t59 24.5t59 -24.5 t24 -58.5zM531 656q0 -34 -24.5 -58.5t-58.5 -24.5t-58.5 24.5t-24.5 58.5t24.5 58.5t58.5 24.5t58.5 -24.5t24.5 -58.5z"/>
<glyph glyph-name="divide" unicode="÷" horiz-adv-x="578" d="M498 421v-142h-418v142h418zM372 546q0 -34 -24 -58.5t-59 -24.5t-59 24.5t-24 58.5t24 58.5t59 24.5t59 -24.5t24 -58.5zM372 154q0 -34 -24 -58.5t-59 -24.5t-59 24.5t-24 58.5t24 58.5t59 24.5t59 -24.5t24 -58.5z"/>
<glyph glyph-name="oslash" unicode="ø" d="M509 434q91 -78 91 -193q0 -106 -77 -181t-183 -75q-48 0 -93 17l-39 -64l-78 43l41 66q-91 76 -91 194q0 105 77 180t183 75q48 0 93 -17l38 64l78 -43zM237 241q0 -31 17 -57l96 159h-10q-43 0 -73 -30t-30 -72zM340 138q43 0 73 30t30 73q0 31 -17 56l-96 -159h10z "/>
<glyph glyph-name="ugrave" unicode="ù" horiz-adv-x="647" d="M263 -15q-90 0 -136.5 49t-46.5 138v308h168v-286q0 -37 22.5 -56.5t48.5 -19.5q28 0 53.5 18t26.5 55v289h168v-480h-168v47q-23 -27 -60.5 -44.5t-75.5 -17.5zM251 581l-107 180h187l58 -180h-138z"/>
<glyph glyph-name="uacute" unicode="ú" horiz-adv-x="647" d="M263 -15q-90 0 -136.5 49t-46.5 138v308h168v-286q0 -37 22.5 -56.5t48.5 -19.5q28 0 53.5 18t26.5 55v289h168v-480h-168v47q-23 -27 -60.5 -44.5t-75.5 -17.5zM517 761l-108 -180h-138l59 180h187z"/>
<glyph glyph-name="ucircumflex" unicode="û" horiz-adv-x="647" d="M263 -15q-90 0 -136.5 49t-46.5 138v308h168v-286q0 -37 22.5 -56.5t48.5 -19.5q28 0 53.5 18t26.5 55v289h168v-480h-168v47q-23 -27 -60.5 -44.5t-75.5 -17.5zM517 581h-131l-63 102l-63 -102h-130l118 180h151z"/>
<glyph glyph-name="udieresis" unicode="ü" horiz-adv-x="647" d="M263 -15q-90 0 -136.5 49t-46.5 138v308h168v-286q0 -37 22.5 -56.5t48.5 -19.5q28 0 53.5 18t26.5 55v289h168v-480h-168v47q-23 -27 -60.5 -44.5t-75.5 -17.5zM299 656q0 -34 -24.5 -58.5t-58.5 -24.5t-58.5 24.5t-24.5 58.5t24.5 58.5t58.5 24.5t58.5 -24.5 t24.5 -58.5zM514 656q0 -34 -24.5 -58.5t-58.5 -24.5q-35 0 -59 24.5t-24 58.5t24 58.5t59 24.5q34 0 58.5 -24.5t24.5 -58.5z"/>
<glyph glyph-name="yacute" unicode="ý" horiz-adv-x="713" d="M449 480h184q-88 -238 -126 -341q-1 -4 -14.5 -42t-20 -55t-24 -56.5t-31 -61.5t-36.5 -54t-45.5 -49.5t-52.5 -31.5t-62 -17q-37 -3 -72 7t-52 22l-17 12l53 126q49 -27 88 0.5t65 94.5l-197 446h187l91 -281zM554 761l-108 -180h-138l59 180h187z"/>
<glyph glyph-name="thorn" unicode="þ" horiz-adv-x="685" d="M605 241q0 -109 -61 -182.5t-160 -73.5q-74 0 -135 43v-247h-169v919h169v-266q12 23 55 42.5t80 19.5q99 0 160 -73.5t61 -181.5zM437 241q0 47 -26.5 79t-66.5 32t-67.5 -32.5t-27.5 -78.5t27.5 -78.5t67.5 -32.5q39 0 66 32.5t27 78.5z"/>
</font>
</defs>
</svg>
