<?xml version="1.0" standalone="no"?>
<!DOCTYPE svg PUBLIC "-//W3C//DTD SVG 1.1//EN" "http://www.w3.org/Graphics/SVG/1.1/DTD/svg11.dtd" >
<svg>
<metadata>
Created by FontForge 20090622 at Sat Aug 26 09:21:16 2017
 By deploy user
Copyright &#194;&#169; 2017 by Kastelov. All rights reserved.
</metadata>
<defs>
<font id="Axiforma-Thin" horiz-adv-x="580" >
  <font-face 
    font-family="Axiforma Thin"
    font-weight="250"
    font-stretch="normal"
    units-per-em="1000"
    panose-1="0 0 4 0 0 0 0 0 0 0"
    ascent="771"
    descent="-229"
    x-height="534"
    cap-height="739"
    bbox="-389 -268 1263 1006"
    underline-thickness="50"
    underline-position="-50"
    unicode-range="U+000D-U+25CA"
  />
<missing-glyph horiz-adv-x="130" 
 />
    <glyph glyph-name="f_b" unicode="fb" horiz-adv-x="1042" 
d="M116 535v47q0 87 48 136.5t128 49.5q55 0 102 -26l-17 -32q-42 21 -85 21q-63 0 -99.5 -39t-36.5 -110v-47h220v-37h-220v-498h-40v498h-94v37h94zM731 547q113 0 188 -81q76 -80 76 -199q0 -120 -76 -200q-75 -81 -188 -81q-75 0 -135.5 38t-92.5 104v-128h-40v753h40
v-345q33 64 93 101.5t135 37.5zM732 23q97 0 160 70q63 71 63 174t-63 173t-160 70q-99 0 -165 -70q-65 -71 -65 -170q0 -102 65 -175q66 -72 165 -72z" />
    <glyph glyph-name="f_f" unicode="ff" horiz-adv-x="707" 
d="M623 731q-65 0 -101.5 -39t-36.5 -110v-47h220v-37h-220v-498h-40v498h-289v-498h-40v498h-94v37h94v47q0 88 51 137t137 49q81 0 143 -44l-19 -31q-52 38 -124 38q-70 0 -109 -39t-39 -110v-47h289v47q0 88 48 137t130 49q59 0 114 -30l-17 -31q-44 24 -97 24z" />
    <glyph glyph-name="f_f_i" unicode="ffi" horiz-adv-x="915" 
d="M621 731q-63 0 -99.5 -39t-36.5 -110v-47h223v-37h-223v-498h-40v498h-289v-498h-40v498h-94v37h94v47q0 88 51 137t137 49q81 0 143 -44l-19 -31q-52 38 -124 38q-70 0 -109 -39t-39 -110v-47h289v47q0 87 48 136.5t128 49.5q55 0 102 -26l-17 -32q-42 21 -85 21z
M851 664q0 -17 -12 -29t-29 -12t-29.5 12t-12.5 29q0 18 12.5 30t29.5 12t29 -12t12 -30zM830 0h-40v535h40v-535z" />
    <glyph glyph-name="f_f_j" unicode="ffj" horiz-adv-x="915" 
d="M715 535v-37h-230v-498h-40v498h-289v-498h-40v498h-94v37h94v47q0 88 51 137t137 49q81 0 143 -44l-19 -31q-52 38 -124 38q-70 0 -109 -39t-39 -110v-47h289v47q0 87 48 136.5t128 49.5q55 0 102 -26l-17 -32q-42 21 -85 21q-63 0 -99.5 -39t-36.5 -110v-47h230z
M851 664q0 -17 -12 -29t-29 -12t-29.5 12t-12.5 29q0 18 12.5 30t29.5 12t29 -12t12 -30zM790 -65v600h40v-600q0 -77 -40 -120t-109 -43q-55 0 -98 25l14 34q41 -22 85 -22q51 0 79.5 33t28.5 93z" />
    <glyph glyph-name="f_h" unicode="fh" horiz-adv-x="988" 
d="M116 535v47q0 87 48 136.5t128 49.5q55 0 102 -26l-17 -32q-42 21 -85 21q-63 0 -99.5 -39t-36.5 -110v-47h220v-37h-220v-498h-40v498h-94v37h94zM697 549q92 0 152 -60q61 -58 61 -167v-322h-40v322q0 87 -46.5 138.5t-126.5 51.5q-32 0 -63.5 -10t-62 -32t-49.5 -65.5
t-19 -102.5v-302h-40v753h38v-325q46 121 196 121z" />
    <glyph glyph-name="f_i" unicode="fi" horiz-adv-x="586" 
d="M116 535v47q0 87 48 136.5t128 49.5q55 0 102 -26l-17 -32q-42 21 -85 21q-63 0 -99.5 -39t-36.5 -110v-47h220v-37h-220v-498h-40v498h-94v37h94zM522 664q0 -17 -12 -29t-29 -12t-29.5 12t-12.5 29q0 18 12.5 30t29.5 12t29 -12t12 -30zM501 0h-40v535h40v-535z" />
    <glyph glyph-name="f_j" unicode="fj" horiz-adv-x="586" 
d="M386 535v-37h-230v-498h-40v498h-94v37h94v47q0 87 48 136.5t128 49.5q55 0 102 -26l-17 -32q-42 21 -85 21q-63 0 -99.5 -39t-36.5 -110v-47h230zM522 665q0 -17 -12 -29t-29 -12t-29.5 12t-12.5 29q0 18 12.5 30t29.5 12t29 -12t12 -30zM461 -65v600h40v-600
q0 -77 -40 -120t-109 -43q-55 0 -98 25l14 34q41 -22 85 -22q51 0 79.5 33t28.5 93z" />
    <glyph glyph-name="f_k" unicode="fk" horiz-adv-x="864" 
d="M116 535v47q0 87 48 136.5t128 49.5q55 0 102 -26l-17 -32q-42 21 -85 21q-63 0 -99.5 -39t-36.5 -110v-47h220v-37h-220v-498h-40v498h-94v37h94zM870 0h-50l-249 297l-68 -62v-235h-40v753h40v-469l281 251h52l-237 -214z" />
    <glyph glyph-name="f_l" unicode="fl" horiz-adv-x="588" 
d="M116 535v47q0 88 46.5 137t125.5 49q55 0 102 -26l-13 -32q-42 21 -85 21q-63 0 -99.5 -39t-36.5 -110v-47h220v-37h-220v-498h-40v498h-94v37h94zM463 0v753h40v-753h-40z" />
    <glyph glyph-name=".notdef" horiz-adv-x="130" 
 />
    <glyph glyph-name=".null" horiz-adv-x="0" 
 />
    <glyph glyph-name="nonmarkingreturn" horiz-adv-x="333" 
 />
    <glyph glyph-name="CR.001" horiz-adv-x="130" 
 />
    <glyph glyph-name="CR.001" horiz-adv-x="130" 
 />
    <glyph glyph-name="CR" unicode="&#xd;" horiz-adv-x="333" 
 />
    <glyph glyph-name="space" unicode=" " horiz-adv-x="247" 
 />
    <glyph glyph-name="exclam" unicode="!" horiz-adv-x="254" 
d="M143 156h-33l-3 588h40zM128 -12q-24 -1 -34.5 19t0 39.5t34.5 18.5q16 0 27.5 -11t11.5 -27q0 -17 -11.5 -28t-27.5 -11z" />
    <glyph glyph-name="quotedbl" unicode="&#x22;" horiz-adv-x="357" 
d="M135 449h-33l88 290h45zM278 449h-33l88 290h45z" />
    <glyph glyph-name="numbersign" unicode="#" horiz-adv-x="675" 
d="M638 508l-7 -35h-135l-44 -205h139l-7 -35h-140l-50 -233h-37l50 233h-198l-50 -233h-38l51 233h-136l7 35h136l45 205h-141l7 35h142l50 231h37l-50 -231h198l50 231h37l-50 -231h134zM217 268h198l44 205h-198z" />
    <glyph glyph-name="dollar" unicode="$" horiz-adv-x="545" 
d="M501 186q0 -82 -58 -137q-59 -54 -146 -60v-101h-40v101q-74 4 -132 43t-90 110l34 17q60 -134 203 -134q82 0 135 45q54 46 54 116q0 47 -26 80t-84 60q-32 15 -79 34l-63 26q-136 60 -136 178q0 76 50.5 128t133.5 59v92h40v-92q119 -8 188 -109l-31 -22
q-65 95 -173 95q-75 0 -121 -42q-47 -42 -47 -109q0 -45 24.5 -78t82.5 -62q18 -9 75 -33q53 -21 77 -32q129 -61 129 -173z" />
    <glyph glyph-name="percent" unicode="%" horiz-adv-x="869" 
d="M347 442q-53 -53 -128 -53q-74 0 -129 53q-53 53 -53 128q0 76 54 128q54 54 128 54t128 -54q54 -52 54 -128t-54 -128zM166 0h-44l574 739h44zM117 466q43 -43 102 -43t102 43t43 104t-43 104q-44 44 -102 44t-102 -44q-43 -43 -43 -104t43 -104zM778 41
q-53 -53 -128 -53q-74 0 -129 53q-53 53 -53 128t54 128q54 54 128 54t128 -54q54 -53 54 -128t-54 -128zM547 65q43 -43 103 -43t102 43q43 43 43 104t-43 104q-44 44 -102 44t-102 -44q-43 -43 -43 -104t42 -104z" />
    <glyph glyph-name="ampersand" unicode="&#x26;" horiz-adv-x="669" 
d="M536 139l122 -117l-27 -30l-122 118q-115 -120 -247 -120q-96 0 -158 57q-60 59 -60 144q0 132 167 221q-59 80 -59 158q0 79 49 129q49 51 120 51q61 0 104 -40q44 -39 44 -100q0 -58 -45 -107q-14 -16 -50 -41q-28 -19 -52 -32q-15 -9 -55 -28q25 -29 54 -58l187 -178
q33 40 89 122l30 -23q-49 -74 -91 -126zM323 713q-55 0 -93 -42q-37 -41 -37 -102q0 -66 53 -140q97 48 140 87t43 91q0 45 -29.5 75.5t-76.5 30.5zM263 27q115 0 219 110l-187 182q-33 32 -62 65q-75 -41 -112 -86t-37 -106q0 -72 49 -118q50 -47 130 -47z" />
    <glyph glyph-name="quotesingle" unicode="'" horiz-adv-x="214" 
d="M84 449h-33l88 290h45z" />
    <glyph glyph-name="parenleft" unicode="(" horiz-adv-x="356" 
d="M353 -187l-18 -33q-138 77 -213 211q-75 135 -75 303q0 170 75 303q75 136 213 212l18 -33q-127 -70 -198 -197q-69 -126 -69 -285q0 -160 70 -285q71 -126 197 -196z" />
    <glyph glyph-name="parenright" unicode=")" horiz-adv-x="356" 
d="M21 -220l-18 33q126 70 197 196q70 125 70 285t-70 285q-69 126 -197 197l18 33q138 -76 213 -212q75 -133 75 -303q0 -168 -75 -303q-75 -134 -213 -211z" />
    <glyph glyph-name="asterisk" unicode="*" horiz-adv-x="435" 
d="M218 536l-100 -122l-28 23l100 116l-136 63l15 31l132 -61l-2 151h37l-2 -151l132 61l15 -31l-136 -63l100 -116l-28 -23z" />
    <glyph glyph-name="plus" unicode="+" horiz-adv-x="502" 
d="M269 358h193v-37h-193v-192h-37v192h-192v37h193v193h36v-193z" />
    <glyph glyph-name="comma" unicode="," horiz-adv-x="213" 
d="M159 11q0 -33 -25.5 -68t-69.5 -62l-12 18q67 43 82 95q-11 -11 -28 -11q-14 0 -25 10.5t-11 26.5q0 18 12.5 30t31.5 12t32 -14.5t13 -36.5z" />
    <glyph glyph-name="hyphen" unicode="-" horiz-adv-x="528" 
d="M455 259h-382v37h382v-37z" />
    <glyph glyph-name="period" unicode="." horiz-adv-x="212" 
d="M106 -16q-24 -1 -34.5 19t0 39.5t34.5 18.5q16 0 27.5 -11t11.5 -27q0 -17 -11.5 -28t-27.5 -11z" />
    <glyph glyph-name="slash" unicode="/" horiz-adv-x="552" 
d="M61 -123h-39l471 948h36z" />
    <glyph glyph-name="zero" unicode="0" horiz-adv-x="652" 
d="M326 -12q-70 0 -124 34t-85 92q-58 115 -58 256q0 142 58 255q31 59 85 93t124 34t124 -34t85 -93q58 -110 58 -255q0 -144 -58 -256q-31 -59 -85 -92.5t-124 -33.5zM160 118q62 -93 166 -93t166 93q61 92 61 252t-61 252q-62 93 -166 93q-105 0 -166 -94
q-61 -92 -61 -251q0 -158 61 -252z" />
    <glyph glyph-name="one" unicode="1" horiz-adv-x="360" 
d="M11 557l216 182h28v-739h-40v679l-178 -150z" />
    <glyph glyph-name="two" unicode="2" horiz-adv-x="525" 
d="M279 238l-172 -202h370v-37h-423v36l196 229l69 83q26 33 52 71q52 77 52 141q0 66 -47 111q-46 45 -121 45q-102 0 -189 -92l-28 26q97 103 217 103q90 0 149 -56t59 -140q0 -55 -39 -124q-37 -67 -145 -194z" />
    <glyph glyph-name="three" unicode="3" horiz-adv-x="535" 
d="M244 -12q-117 0 -209 76l23 31q86 -70 186 -70q86 0 138 48q53 48 53 123t-48 118t-149 43h-72v37h61q99 0 146 50.5t47 113.5q0 69 -47 113t-123 44q-51 0 -99 -20.5t-80 -57.5l-24 26q35 41 90 65t113 24q94 0 152 -56q58 -55 58 -138q0 -62 -34.5 -110.5t-90.5 -66.5
v-4q64 -15 102 -64.5t38 -116.5q0 -90 -65 -149t-166 -59z" />
    <glyph glyph-name="four" unicode="4" horiz-adv-x="549" 
d="M425 241h84v-37h-84v-204h-40v204h-364l-5 25l382 510h27v-498zM385 658l-314 -417h314v417z" />
    <glyph glyph-name="five" unicode="5" horiz-adv-x="551" 
d="M281 468q95 0 160 -63t65 -171q0 -111 -70 -178q-71 -68 -176 -68q-112 0 -213 92l24 27q89 -82 188 -82q91 0 149 58t58 152q0 90 -53 143t-134 53q-101 0 -170 -90l-31 13l35 385h344v-37h-309l-29 -299q62 65 162 65z" />
    <glyph glyph-name="six" unicode="6" horiz-adv-x="594" 
d="M312 -9q-121 0 -188.5 101.5t-65.5 256.5q0 107 28 194q28 88 94 149q66 60 158 60q100 0 173 -61l-22 -30q-61 54 -150 54q-67 0 -119 -37.5t-80 -102.5q-51 -122 -43 -278h2q12 76 76 128t143 52q96 0 162 -69q67 -67 67 -171q0 -105 -66 -176q-66 -70 -169 -70z
M318 28q78 0 134 59q55 58 55 149q0 88 -55 146q-54 58 -134 58q-79 0 -140 -61q-60 -61 -60 -144q0 -80 58 -144q58 -63 142 -63z" />
    <glyph glyph-name="seven" unicode="7" horiz-adv-x="478" 
d="M17 702v37h442v-28l-297 -711h-43l297 702h-399z" />
    <glyph glyph-name="eight" unicode="8" horiz-adv-x="599" 
d="M55 197q0 66 41 121q42 55 117 71v2q-63 24 -96 70.5t-33 102.5q0 79 61 133q61 55 155 55t154 -54q61 -54 61 -133q0 -57 -33.5 -104.5t-96.5 -69.5v-3q74 -17 116.5 -69.5t42.5 -121.5q0 -87 -69 -149q-67 -60 -175 -60q-107 0 -176 60t-69 149zM299 407q86 0 132 49
t46 109q0 62 -50 106t-127 44q-78 0 -128 -45q-49 -43 -49 -106q0 -58 45 -108q46 -49 131 -49zM505 197q0 30 -11 59.5t-33.5 56t-64 43t-95.5 16.5q-103 0 -156 -54q-51 -52 -51 -122q0 -73 58 -122t148 -49q91 0 147 49q58 49 58 123z" />
    <glyph glyph-name="nine" unicode="9" horiz-adv-x="593" 
d="M261 -9q-100 0 -173 61l22 30q62 -54 150 -54q68 0 119.5 37.5t76.5 102.5q47 121 39 278h-2q-12 -74 -77 -127q-64 -52 -142 -52q-95 0 -163 68q-66 67 -66 171q0 106 66 176t169 70q121 0 188.5 -101.5t65.5 -256.5q0 -62 -9.5 -119t-30.5 -109.5t-52.5 -91t-77.5 -61
t-103 -22.5zM274 304q79 0 139 61q61 61 61 143q0 79 -59 143q-58 64 -141 64q-78 0 -134 -59q-55 -58 -55 -149q0 -87 54 -145q55 -58 135 -58z" />
    <glyph glyph-name="colon" unicode=":" horiz-adv-x="224" 
d="M124 377q-24 -1 -34.5 19t0 39.5t34.5 18.5q16 0 27.5 -11t11.5 -27q0 -17 -11.5 -28t-27.5 -11zM124 -16q-24 -1 -34.5 19t0 39.5t34.5 18.5q16 0 27.5 -11t11.5 -27q0 -17 -11.5 -28t-27.5 -11z" />
    <glyph glyph-name="semicolon" unicode=";" horiz-adv-x="256" 
d="M86 414q0 16 12.5 28t29.5 12t29 -11.5t12 -28.5q2 -32 -30 -39q-29 -6 -46 15q-8 10 -7 24zM175 11q0 -33 -25.5 -68t-69.5 -62l-12 18q67 43 82 95q-11 -11 -28 -11q-14 0 -25 10.5t-11 26.5q0 18 12.5 30t31.5 12t32 -14.5t13 -36.5z" />
    <glyph glyph-name="less" unicode="&#x3c;" horiz-adv-x="518" 
d="M456 112v-44l-424 251v18l424 251v-43l-364 -216z" />
    <glyph glyph-name="equal" unicode="=" horiz-adv-x="574" 
d="M498 395h-422v37h422v-37zM498 223h-422v37h422v-37z" />
    <glyph glyph-name="greater" unicode="&#x3e;" horiz-adv-x="518" 
d="M486 319l-424 -251v44l364 217l-364 216v43l424 -251v-18z" />
    <glyph glyph-name="question" unicode="?" horiz-adv-x="489" 
d="M239 159h-38v76q0 76 70 141q6 6 28.5 27t31 29.5t25.5 28.5t24 33.5t13.5 33t6.5 39.5q0 63 -47 105q-46 43 -120 43q-102 0 -175 -88l-28 23q38 48 91.5 75t111.5 27q84 0 146 -51q61 -51 61 -135q0 -79 -71 -150q-10 -10 -34.5 -32.5t-37 -36t-28.5 -33t-23 -38.5
t-7 -38v-79zM220 -12q-24 -1 -34.5 19t0 39.5t34.5 18.5q16 0 27.5 -11t11.5 -27q0 -17 -11.5 -28t-27.5 -11z" />
    <glyph glyph-name="at" unicode="@" horiz-adv-x="964" 
d="M616 411v68h38v-279q0 -41 20.5 -63t53.5 -22q59 0 101 63q42 64 42 153q0 148 -115 256q-116 108 -271 108q-165 0 -282 -121q-116 -122 -116 -291q0 -171 119 -290q119 -118 293 -118q83 0 159 29.5t130 82.5l23 -26q-54 -54 -137 -87.5t-176 -33.5q-189 0 -320 129
q-129 129 -129 314t127 315q128 132 310 132q174 0 299 -119q124 -118 124 -283q0 -106 -53 -179q-53 -71 -128 -71q-45 0 -75 27t-36 68q-23 -44 -65.5 -69.5t-94.5 -25.5q-81 0 -137 59q-54 60 -54 147t56 149q57 61 140 61q49 0 90 -22.5t64 -60.5zM460 115q69 0 112 49
q45 50 45 122t-45 122q-45 49 -110 49t-112 -50q-45 -49 -45 -123q0 -70 44 -120q43 -49 111 -49z" />
    <glyph glyph-name="A" unicode="A" horiz-adv-x="639" 
d="M621 0h-43l-93 242h-331l-94 -242h-43l290 739h25zM472 279l-153 393l-153 -393h306z" />
    <glyph glyph-name="B" unicode="B" horiz-adv-x="655" 
d="M455 397q69 -18 108.5 -70t39.5 -119q0 -85 -62 -147q-61 -61 -177 -61h-259v739h252q101 0 153 -54q54 -54 54 -129q0 -55 -30 -99t-79 -60zM354 702h-209v-289h229q64 0 107 41q43 42 43 105q0 65 -44.5 104t-125.5 39zM145 37h220q87 0 142 48q56 50 56 124t-56 121
q-55 46 -139 46h-223v-339z" />
    <glyph glyph-name="C" unicode="C" horiz-adv-x="790" 
d="M432 -11q-160 0 -269 106q-110 107 -110 272q0 168 111 276q112 109 270 109q102 0 188 -46q88 -46 134 -119l-31 -19q-41 66 -120 106q-80 41 -172 41q-145 0 -243 -98q-97 -97 -97 -247t96 -247q97 -97 243 -97q89 0 167.5 38t127.5 105l28 -21q-56 -74 -140.5 -116.5
t-182.5 -42.5z" />
    <glyph glyph-name="D" unicode="D" horiz-adv-x="744" 
d="M340 0h-235v739h241q159 0 250 -100q92 -101 92 -271t-93 -269t-255 -99zM145 702v-665h193q146 0 228 88t82 243t-80 244q-80 90 -220 90h-203z" />
    <glyph glyph-name="E" unicode="E" horiz-adv-x="599" 
d="M548 0h-443v739h439v-37h-399v-310h374v-37h-374v-318h403v-37z" />
    <glyph glyph-name="F" unicode="F" horiz-adv-x="546" 
d="M145 0h-40v739h416v-37h-376v-310h338v-37h-338v-355z" />
    <glyph glyph-name="G" unicode="G" horiz-adv-x="824" 
d="M430 -11q-164 0 -270 108q-107 109 -107 272q0 166 112 274q112 109 271 109q91 0 175 -38t133 -99l-28 -26q-44 57 -121 92q-75 34 -159 34q-146 0 -245 -99q-98 -100 -98 -247q0 -148 95 -246q96 -97 242 -97q169 0 296 132v185h-323v37h362v-234q-136 -157 -335 -157z
" />
    <glyph glyph-name="H" unicode="H" horiz-adv-x="724" 
d="M145 0h-40v739h40v-360h434v360h40v-739h-40v342h-434v-342z" />
    <glyph glyph-name="I" unicode="I" horiz-adv-x="250" 
d="M105 0v739h40v-739h-40z" />
    <glyph glyph-name="J" unicode="J" horiz-adv-x="547" 
d="M233 -12q-128 0 -207 100l27 26q68 -89 179 -89q78 0 128 53t50 140v521h40v-510q0 -118 -62 -180q-61 -61 -155 -61z" />
    <glyph glyph-name="K" unicode="K" horiz-adv-x="600" 
d="M281 390l324 -390h-52l-300 359l-1 -1l-107 -124v-234h-40v739h40v-447l383 447h49z" />
    <glyph glyph-name="L" unicode="L" horiz-adv-x="581" 
d="M566 0h-461v739h40v-702h421v-37z" />
    <glyph glyph-name="M" unicode="M" horiz-adv-x="896" 
d="M144 0h-39v739h18l326 -480l323 480h19v-739h-39v641l-298 -443h-10l-300 442v-640z" />
    <glyph glyph-name="N" unicode="N" horiz-adv-x="764" 
d="M619 85v654h40v-739h-24l-490 647v-647h-40v739h20z" />
    <glyph glyph-name="O" unicode="O" horiz-adv-x="862" 
d="M699 100q-109 -112 -268 -112q-158 0 -269 112q-110 113 -110 270t110 270q111 112 269 112q159 0 268 -112q111 -112 111 -270t-111 -270zM191 126q99 -101 240 -101t240 101q99 100 99 244t-99 244q-99 101 -240 101t-240 -101q-99 -100 -99 -244q0 -143 99 -244z" />
    <glyph glyph-name="P" unicode="P" horiz-adv-x="595" 
d="M105 739h218q115 0 175 -67q61 -67 61 -159q0 -93 -64 -160q-63 -66 -181 -66h-169v-287h-40v739zM145 324h169q94 0 149 52q56 53 56 137q0 83 -54 136q-53 53 -142 53h-178v-378z" />
    <glyph glyph-name="Q" unicode="Q" horiz-adv-x="862" 
d="M702 -86q52 0 95 18l6 -36q-45 -19 -101 -19q-137 0 -237 112q-3 0 -16.5 -0.5t-17.5 -0.5q-158 0 -269 112q-110 113 -110 270t110 270q111 112 269 112q159 0 268 -112q111 -112 111 -270q0 -136 -84 -240q-85 -105 -213 -133q83 -83 189 -83zM191 614
q-99 -100 -99 -244q0 -143 99 -244t240 -101t240 101q99 100 99 244t-99 244q-99 101 -240 101t-240 -101z" />
    <glyph glyph-name="R" unicode="R" horiz-adv-x="607" 
d="M363 322l189 -322h-46l-184 318q-5 -1 -22 -1h-155v-317h-40v739h208q115 0 175 -62q61 -61 61 -149q0 -74 -48 -132q-46 -57 -138 -74zM145 702v-348h157q96 0 151.5 48t55.5 127t-53.5 126t-142.5 47h-168z" />
    <glyph glyph-name="S" unicode="S" horiz-adv-x="547" 
d="M274 -12q-80 0 -143.5 39.5t-96.5 114.5l34 17q60 -134 203 -134q83 0 135 45q54 46 54 116q0 47 -26 80t-84 60q-32 15 -79 34l-63 26q-136 60 -136 178q0 82 57 135q58 53 150 53q131 0 205 -110l-31 -22q-65 95 -173 95q-74 0 -121 -42t-47 -109q0 -45 24.5 -78
t82.5 -62q18 -9 75 -33q53 -21 77 -32q129 -61 129 -173q0 -87 -65 -143q-64 -55 -161 -55z" />
    <glyph glyph-name="T" unicode="T" horiz-adv-x="523" 
d="M242 0v702h-227v37h493v-37h-226v-702h-40z" />
    <glyph glyph-name="U" unicode="U" horiz-adv-x="673" 
d="M97 236v503h40v-499q0 -101 53 -157t147 -56t146.5 56t52.5 157v499h40v-503q0 -115 -65 -183q-65 -66 -174 -66t-175 66q-65 68 -65 183z" />
    <glyph glyph-name="V" unicode="V" horiz-adv-x="636" 
d="M319 69l259 670h41l-290 -739h-20l-294 739h41z" />
    <glyph glyph-name="W" unicode="W" horiz-adv-x="1000" 
d="M280 0h-19l-242 739h37l214 -666l221 666h18l223 -665l212 665h36l-239 -739h-19l-222 663z" />
    <glyph glyph-name="X" unicode="X" horiz-adv-x="571" 
d="M62 0h-48l248 376l-237 363h48l213 -326l214 326h48l-238 -363l245 -376h-48l-222 340z" />
    <glyph glyph-name="Y" unicode="Y" 
d="M514 739h44l-248 -429v-310h-40v310l-247 429h44l223 -394z" />
    <glyph glyph-name="Z" unicode="Z" horiz-adv-x="552" 
d="M523 0h-500v25l445 677h-426v37h470v-39l-434 -663h445v-37z" />
    <glyph glyph-name="bracketleft" unicode="[" horiz-adv-x="357" 
d="M349 -227h-250v1038h250v-37h-210v-964h210v-37z" />
    <glyph glyph-name="backslash" unicode="\" horiz-adv-x="553" 
d="M60 825l471 -948h-37l-471 948h37z" />
    <glyph glyph-name="bracketright" unicode="]" horiz-adv-x="357" 
d="M258 -227h-250v37h210v964h-210v37h250v-1038z" />
    <glyph glyph-name="asciicircum" unicode="^" horiz-adv-x="495" 
d="M93 431h-43l193 308h10l192 -308h-43l-154 251z" />
    <glyph glyph-name="underscore" unicode="_" horiz-adv-x="571" 
d="M571 -123h-571v37h571v-37z" />
    <glyph glyph-name="grave" unicode="`" horiz-adv-x="426" 
d="M110 776l60 -156h-33l-80 156h53z" />
    <glyph glyph-name="a" unicode="a" horiz-adv-x="661" 
d="M536 415v120h40v-535h-40v123q-32 -63 -91.5 -99.5t-133.5 -36.5q-113 0 -189 81q-75 82 -75 202q0 118 75 198t189 80q75 0 134 -35t91 -98zM310 24q100 0 164 72q66 72 66 175q0 99 -66 170q-64 70 -164 70q-97 0 -160 -69t-63 -173q0 -105 63 -175t160 -70z" />
    <glyph glyph-name="b" unicode="b" horiz-adv-x="664" 
d="M353 547q113 0 188 -81q76 -80 76 -199q0 -120 -76 -200q-75 -81 -188 -81q-75 0 -135.5 38t-92.5 104v-128h-40v753h40v-345q33 64 93 101.5t135 37.5zM354 23q97 0 160 70q63 71 63 174t-63 173t-160 70q-99 0 -165 -70q-65 -71 -65 -170q0 -102 65 -175
q66 -72 165 -72z" />
    <glyph glyph-name="c" unicode="c" horiz-adv-x="593" 
d="M316 -12q-116 0 -193 78q-75 80 -75 201q0 123 77 202q78 79 197 79q80 0 143.5 -36.5t94.5 -100.5l-33 -18q-26 54 -81 86t-124 32q-102 0 -168 -68q-66 -67 -66 -176q0 -108 64 -175t164 -67q68 0 124.5 32.5t84.5 86.5l32 -20q-33 -63 -98 -99.5t-143 -36.5z" />
    <glyph glyph-name="d" unicode="d" horiz-adv-x="664" 
d="M539 408v345h40v-753h-40v128q-32 -66 -92.5 -104t-135.5 -38q-113 0 -189 81q-75 81 -75 200q0 118 75 199q76 81 189 81q75 0 135 -37.5t93 -101.5zM310 23q100 0 164 72q66 72 66 175q0 100 -66 170q-64 70 -164 70q-97 0 -160 -70t-63 -173t63 -174q63 -70 160 -70z
" />
    <glyph glyph-name="e" unicode="e" horiz-adv-x="601" 
d="M556 301q0 -11 -3 -47h-465q5 -106 67.5 -167.5t167.5 -61.5q55 0 109.5 18t90.5 48l21 -30q-38 -32 -98 -52.5t-124 -20.5q-135 0 -204.5 82.5t-69.5 198.5q0 121 72 200q73 79 192 79q106 0 174 -67q70 -66 70 -180zM312 511q-94 0 -156 -60q-61 -60 -67 -160h427
q0 101 -56 160q-56 60 -148 60z" />
    <glyph glyph-name="f" unicode="f" horiz-adv-x="378" 
d="M294 731q-65 0 -101.5 -39t-36.5 -110v-47h220v-37h-220v-498h-40v498h-94v37h94v47q0 88 48 137t130 49q58 0 114 -30l-17 -31q-44 24 -97 24z" />
    <glyph glyph-name="g" unicode="g" horiz-adv-x="661" 
d="M537 416v119h39v-493q0 -125 -73 -197q-72 -72 -198 -72t-227 76l22 32q97 -71 206 -71q108 0 169 61.5t61 170.5v90q-33 -63 -91.5 -98.5t-132.5 -35.5q-114 0 -190 79q-75 79 -75 196q0 115 75 195q77 80 189 80q74 0 133.5 -35.5t92.5 -96.5zM310 35q100 0 164 70
q66 71 66 171t-66 167q-65 68 -164 68q-97 0 -160 -68q-63 -67 -63 -170q0 -101 63 -170q63 -68 160 -68z" />
    <glyph glyph-name="h" unicode="h" horiz-adv-x="610" 
d="M125 0h-40v753h38v-325q46 121 196 121q92 0 152 -60q61 -58 61 -167v-322h-40v322q0 87 -46.5 138.5t-126.5 51.5q-32 0 -63.5 -10t-62 -32t-49.5 -65.5t-19 -102.5v-302z" />
    <glyph glyph-name="i" unicode="i" horiz-adv-x="210" 
d="M58 664q0 18 12.5 30t29.5 12t29 -12t12 -30q0 -17 -12 -29t-29 -12t-29.5 12t-12.5 29zM119 535v-535h-40v535h40z" />
    <glyph glyph-name="j" unicode="j" horiz-adv-x="234" 
d="M88 664q0 18 12.5 30t29.5 12t29 -12t12 -30q0 -17 -12 -29t-29 -12t-29.5 12t-12.5 29zM0 -228q-55 0 -98 25l14 34q41 -22 85 -22q51 0 79.5 33t28.5 93v600h40v-600q0 -77 -40 -120t-109 -43z" />
    <glyph glyph-name="k" unicode="k" horiz-adv-x="486" 
d="M492 0h-50l-249 297l-68 -62v-235h-40v753h40v-469l281 251h52l-237 -214z" />
    <glyph glyph-name="l" unicode="l" horiz-adv-x="210" 
d="M125 753v-753h-40v753h40z" />
    <glyph glyph-name="m" unicode="m" horiz-adv-x="943" 
d="M666 549q83 0 141 -53q58 -52 58 -152v-344h-40v344q0 78 -42.5 123t-114.5 45q-27 0 -54.5 -8.5t-55.5 -27.5t-45.5 -56t-17.5 -88v-332h-40v334q0 81 -42 129.5t-113 48.5q-56 0 -111 -41q-29 -22 -46.5 -66.5t-17.5 -102.5v-302h-40v535h39v-97q21 53 67.5 82
t106.5 29q62 0 109.5 -33t68.5 -95q25 63 76 95.5t114 32.5z" />
    <glyph glyph-name="n" unicode="n" horiz-adv-x="610" 
d="M125 0h-40v535h38v-107q46 121 196 121q92 0 152 -60q61 -58 61 -167v-322h-40v322q0 87 -46.5 138.5t-126.5 51.5q-32 0 -63.5 -10t-62 -32t-49.5 -65.5t-19 -102.5v-302z" />
    <glyph glyph-name="o" unicode="o" horiz-adv-x="648" 
d="M47 268q0 119 79 199q80 81 198 81t198 -81q79 -80 79 -199q0 -120 -79 -200q-80 -81 -198 -81t-198 81q-79 80 -79 200zM154 94q67 -70 170 -70t170 70t67 174q0 105 -67 173q-67 70 -170 70t-170 -70q-67 -68 -67 -173q0 -104 67 -174z" />
    <glyph glyph-name="p" unicode="p" horiz-adv-x="664" 
d="M353 549q113 0 188 -81q76 -80 76 -200q0 -119 -76 -199q-75 -81 -188 -81q-75 0 -135 37.5t-93 101.5v-347h-40v755h40v-128q32 66 92.5 104t135.5 38zM354 25q97 0 160 70q63 71 63 173t-63 173t-160 71q-99 0 -165 -72q-65 -73 -65 -175q0 -99 65 -170q66 -70 165 -70
z" />
    <glyph glyph-name="q" unicode="q" horiz-adv-x="664" 
d="M539 407v128h40v-755h-40v347q-33 -64 -93 -101.5t-135 -37.5q-113 0 -189 81q-75 81 -75 199q0 119 75 200q76 81 189 81q75 0 135.5 -38t92.5 -104zM310 25q100 0 164 70q66 70 66 170q0 103 -66 175q-64 72 -164 72q-97 0 -160 -71t-63 -173t63 -173q63 -70 160 -70z
" />
    <glyph glyph-name="r" unicode="r" horiz-adv-x="353" 
d="M125 0h-40v535h37v-90q44 104 156 104q37 0 68 -10l-6 -36q-27 9 -58 9q-80 0 -119 -57q-38 -58 -38 -139v-316z" />
    <glyph glyph-name="s" unicode="s" horiz-adv-x="438" 
d="M220 -12q-61 0 -110 29.5t-76 86.5l34 19q48 -98 150 -98q60 0 99 34t39 83q0 34 -19.5 56.5t-60.5 41.5q-11 6 -64 26q-37 14 -61 26q-89 44 -89 123q0 60 43.5 99t116.5 39q106 0 157 -83l-29 -20q-39 66 -126 66q-57 0 -90 -27.5t-33 -72.5q0 -58 69 -92
q22 -10 62 -26q41 -16 68 -29q50 -23 73 -51t23 -72q0 -66 -50 -113q-50 -45 -126 -45z" />
    <glyph glyph-name="t" unicode="t" horiz-adv-x="408" 
d="M387 65l19 -30q-62 -47 -144 -47q-76 0 -115.5 47.5t-39.5 132.5v330h-95v37h95v189h40v-189h240v-37h-240v-327q0 -71 30 -108.5t88 -37.5q70 0 122 40z" />
    <glyph glyph-name="u" unicode="u" 
d="M290 -13q-96 0 -155 59q-57 60 -57 159v330h40v-329q0 -84 46.5 -133t125.5 -49q81 0 126.5 48.5t45.5 134.5v328h40v-330q0 -100 -56.5 -159t-155.5 -59z" />
    <glyph glyph-name="v" unicode="v" horiz-adv-x="526" 
d="M263 70l202 465h44l-236 -534h-20l-236 534h43z" />
    <glyph glyph-name="w" unicode="w" horiz-adv-x="801" 
d="M231 1h-20l-193 534h42l161 -462l167 462l25 -1l167 -461l161 462h42l-193 -534h-20l-170 476z" />
    <glyph glyph-name="x" unicode="x" horiz-adv-x="455" 
d="M251 274l183 -274h-47l-160 239l-164 -239h-47l188 274l-174 261h47l151 -226l155 226h47z" />
    <glyph glyph-name="y" unicode="y" horiz-adv-x="519" 
d="M264 48l196 487h42l-225 -558q-45 -113 -84 -158q-39 -46 -101 -46q-40 0 -74 19l9 35q36 -17 67 -17q46 0 78 40t65 126l8 22l-226 537h41z" />
    <glyph glyph-name="z" unicode="z" horiz-adv-x="458" 
d="M412 497l-337 -461h356v-36h-404v31l343 467h-326v36h368v-37z" />
    <glyph glyph-name="braceleft" unicode="{" horiz-adv-x="327" 
d="M315 774h-37q-63 0 -92.5 -33t-29.5 -103q0 -42 3 -125q4 -73 4 -103q0 -88 -65 -120q65 -32 65 -120q0 -30 -4 -103q-3 -82 -3 -124q0 -137 122 -137h37v-37h-37q-162 0 -162 174q0 43 3 125q4 73 4 102q0 96 -97 105v31q44 3 70.5 29t26.5 75q0 29 -4 102q-3 82 -3 126
q0 173 162 173h37v-37z" />
    <glyph glyph-name="bar" unicode="|" horiz-adv-x="238" 
d="M139 -179h-40v1026h40v-1026z" />
    <glyph glyph-name="braceright" unicode="}" horiz-adv-x="327" 
d="M204 410q0 -49 26.5 -75t70.5 -29v-31q-97 -9 -97 -105q0 -20 3 -102q4 -73 4 -125q0 -174 -162 -174h-37v37h37q122 0 122 137q0 51 -4 124q-3 83 -3 103q0 88 65 120q-65 32 -65 120q0 20 3 103q4 73 4 125q0 70 -29.5 103t-92.5 33h-37v37h37q162 0 162 -173
q0 -53 -4 -126q-3 -82 -3 -102z" />
    <glyph glyph-name="asciitilde" unicode="~" horiz-adv-x="618" 
d="M415 290q-40 0 -99 34t-91 34q-39 0 -66.5 -16t-54.5 -52l-28 22q57 83 149 83q42 0 103 -34t87 -34q33 0 54.5 13t45.5 46l28 -23q-28 -39 -57 -56t-71 -17z" />
    <glyph glyph-name="exclamdown" unicode="&#xa1;" horiz-adv-x="218" 
d="M120 526q16 0 27.5 -11t11.5 -28q0 -16 -11.5 -27t-27.5 -11q-24 -1 -34.5 18.5t0 39.5t34.5 19zM99 -230l3 588h33l4 -588h-40z" />
    <glyph glyph-name="cent" unicode="&#xa2;" horiz-adv-x="605" 
d="M336 511v-485q62 4 113 36t78 82l32 -20q-30 -59 -90 -95t-133 -40v-80h-40v80q-107 7 -177 85q-69 76 -69 193t69 193t177 87v82h40v-81q76 -3 136.5 -39.5t89.5 -97.5l-33 -18q-25 52 -76.5 83.5t-116.5 34.5zM296 26v484q-91 -10 -149 -76q-57 -66 -57 -167t57 -167
q59 -67 149 -74z" />
    <glyph glyph-name="sterling" unicode="&#xa3;" horiz-adv-x="540" 
d="M121 37h373v-37h-436v25q41 35 66 94q27 60 27 125q0 49 -18 112h-83v37h71q-33 103 -33 151q0 90 58 148q59 59 146 60q64 1 114.5 -29t77.5 -86l-34 -21q-51 101 -158 99q-72 -2 -118 -49t-46 -122q0 -32 8 -61q1 -5 2.5 -10.5t3 -9.5t1.5 -7q5 -12 11 -33l10 -30h267
v-37h-256q16 -58 16 -112q0 -115 -70 -207z" />
    <glyph glyph-name="currency" unicode="&#xa4;" horiz-adv-x="636" 
d="M534 367q0 -85 -60 -148l75 -74l-28 -26l-76 75q-58 -43 -130 -43q-68 0 -126 41l-74 -73l-28 26l73 72q-62 65 -62 150q0 74 43 130l-82 82l28 26l80 -79q63 60 148 60q87 0 152 -62l82 81l28 -26l-85 -84q42 -58 42 -128zM138 367q0 -74 52 -126q53 -53 125 -53
q73 0 126 53t53 126q0 75 -53 128q-53 54 -126 54t-125 -54q-52 -52 -52 -128z" />
    <glyph glyph-name="yen" unicode="&#xa5;" 
d="M507 739h40l-220 -391h165v-37h-182v-91h182v-37h-182v-183h-40v183h-184v37h184v91h-184v37h168l-219 391h41l215 -389z" />
    <glyph glyph-name="brokenbar" unicode="&#xa6;" horiz-adv-x="238" 
d="M139 434h-40v413h40v-413zM99 234h40v-413h-40v413z" />
    <glyph glyph-name="section" unicode="&#xa7;" horiz-adv-x="539" 
d="M499 183q0 -86 -70 -129q24 -38 24 -85q0 -80 -58 -129q-57 -51 -143 -51q-125 0 -206 106l29 23q72 -92 176 -92q71 0 117 39q48 39 48 101q0 65 -57 109q-33 25 -50 34q-37 20 -60 31l-14 7q-98 48 -141 90t-43 102q0 82 65 126q-29 44 -29 100q0 82 55 134
q56 53 143 53q122 0 195 -106l-30 -22q-63 91 -164 91q-73 0 -117 -41t-44 -109q0 -23 6 -42q6 -18 8.5 -24.5t10 -17.5t19.5 -22l28 -24q9 -7 39 -24l39 -21l47 -22q26 -12 53 -27q27 -14 47 -29q38 -25 56 -55t21 -74zM252 180l24 -12q30 -14 54 -28q47 -24 77 -57
q54 36 54 99q0 49 -35.5 81.5t-120.5 71.5l-64 31q-16 8 -50 29q-33 22 -52 41q-50 -32 -50 -96q0 -46 37 -81.5t126 -78.5z" />
    <glyph glyph-name="dieresis" unicode="&#xa8;" horiz-adv-x="494" 
d="M60 692q0 18 13.5 31.5t33.5 13.5t33.5 -13.5t13.5 -31.5q2 -28 -22.5 -40t-49 0t-22.5 40zM236 692q0 18 13.5 31.5t33.5 13.5t33.5 -13.5t13.5 -31.5q2 -28 -22.5 -40t-49 0t-22.5 40z" />
    <glyph glyph-name="copyright" unicode="&#xa9;" horiz-adv-x="872" 
d="M51 369q0 157 113 270t272 113t272 -113t113 -270q0 -156 -113 -269q-112 -112 -272 -112t-272 112q-113 113 -113 269zM781 369q0 143 -101 244q-101 102 -244 102q-144 0 -244 -102q-101 -101 -101 -244q0 -142 101 -243t244 -101t244 101t101 243zM438 164
q-86 0 -144 58t-58 147t58 147t144 58q94 0 159 -77l-27 -22q-51 64 -130 64q-70 0 -119 -48q-48 -48 -48 -122q0 -73 48 -122q49 -48 119 -48q78 0 133 58l24 -22q-63 -71 -159 -71z" />
    <glyph glyph-name="ordfeminine" unicode="&#xaa;" horiz-adv-x="408" 
d="M195 736q63 0 100 -35t37 -101v-209h-34v52q-39 -61 -121 -61q-55 0 -88.5 29.5t-33.5 76.5q0 49 39.5 78.5t105.5 29.5q47 0 98 -13v17q0 105 -102 105q-64 0 -105 -33l-20 26q47 38 124 38zM176 413q52 0 87 33.5t35 92.5v11q-51 15 -98 15q-53 0 -82 -20.5t-29 -56.5
q0 -35 24 -55t63 -20z" />
    <glyph glyph-name="guillemotleft" unicode="&#xab;" horiz-adv-x="482" 
d="M239 88h-42l-146 203l146 203h42l-146 -203zM417 88h-42l-146 203l146 203h42l-146 -203z" />
    <glyph glyph-name="logicalnot" unicode="&#xac;" horiz-adv-x="583" 
d="M471 321h-387v37h423v-173h-36v136z" />
    <glyph glyph-name="uni00AD" unicode="&#xad;" horiz-adv-x="524" 
d="M453 310h-382v37h382v-37z" />
    <glyph glyph-name="registered" unicode="&#xae;" horiz-adv-x="574" 
d="M119 691q70 70 168 70q97 0 168 -71q70 -70 70 -168t-70 -168q-71 -69 -168 -69q-98 0 -168 70t-70 169q0 98 70 167zM142 377q61 -61 145 -61q83 0 144 61q62 62 62 146t-62 146q-61 61 -144 61q-84 0 -145 -61t-61 -146t61 -146zM375 571q0 -57 -56 -71l56 -95h-33
l-52 92h-51v-92h-28v241h88q33 0 54.5 -21t21.5 -54zM239 522h48q62 0 62 49q0 22 -15 36t-41 14h-54v-99z" />
    <glyph glyph-name="overscore" unicode="&#xaf;" horiz-adv-x="474" 
d="M351 692l-301 -1v37h301v-36z" />
    <glyph glyph-name="degree" unicode="&#xb0;" horiz-adv-x="356" 
d="M46 679q0 55 39 92q40 38 93 38q54 0 92 -38q39 -37 39 -92q0 -53 -39 -91q-37 -37 -92 -37t-93 37q-39 38 -39 91zM276 679q0 42 -28.5 70.5t-69.5 28.5t-70 -28.5t-29 -70.5q0 -40 29 -68.5t70 -28.5t69.5 28t28.5 69z" />
    <glyph glyph-name="plusminus" unicode="&#xb1;" horiz-adv-x="584" 
d="M310 652v-193h193v-37h-193v-192h-37v192h-192v37h193v193h36zM503 109h-422v37h422v-37z" />
    <glyph glyph-name="uni00B2" unicode="&#xb2;" horiz-adv-x="329" 
d="M193 650l-94 -108h184v-35h-235l-1 31l112 127q43 48 61.5 78.5t18.5 58.5q0 33 -22.5 54.5t-57.5 21.5q-51 0 -98 -48l-22 26q56 56 121 56q51 0 84 -31t33 -80q0 -53 -84 -151z" />
    <glyph glyph-name="uni00B3" unicode="&#xb3;" horiz-adv-x="301" 
d="M144 501q-64 0 -122 41l18 30q52 -35 103 -35q44 0 70 21.5t26 57.5q0 76 -99 76h-44v36h39q46 0 71 21.5t25 54.5t-23.5 52.5t-61.5 19.5q-56 0 -96 -39l-20 27q46 48 118 48q54 0 88 -29.5t34 -74.5q0 -34 -19.5 -59t-51.5 -35v-2q37 -8 58 -34.5t21 -62.5
q0 -50 -37.5 -82t-96.5 -32z" />
    <glyph glyph-name="acute" unicode="&#xb4;" horiz-adv-x="455" 
d="M96 620h-33l60 156h53z" />
    <glyph glyph-name="paragraph" unicode="&#xb6;" horiz-adv-x="542" 
d="M208 734h287v-37h-80v-900h-39v900h-101v-900h-39v602h-26q-80 0 -129 48t-49 121q0 71 50 118q50 48 126 48z" />
    <glyph glyph-name="middot" unicode="&#xb7;" horiz-adv-x="225" 
d="M125 -16q-24 -1 -34.5 19t0 39.5t34.5 18.5q16 0 27.5 -11t11.5 -27q0 -17 -11.5 -28t-27.5 -11z" />
    <glyph glyph-name="cedilla" unicode="&#xb8;" horiz-adv-x="310" 
d="M188 -59q41 0 67.5 -22.5t26.5 -61.5q0 -44 -34.5 -74.5t-92.5 -30.5q-47 0 -95 22l12 29q42 -20 83 -20t67 22t26 51q0 24 -17.5 39t-50.5 15h-62l-7 13l36 97h36l-32 -82q12 3 37 3z" />
    <glyph glyph-name="uni00B9" unicode="&#xb9;" horiz-adv-x="255" 
d="M28 800l129 103h28v-396h-38v342l-98 -78z" />
    <glyph glyph-name="ordmasculine" unicode="&#xba;" horiz-adv-x="446" 
d="M50 557q0 77 49 127q49 52 124 52q74 0 123 -52q50 -52 50 -127q0 -74 -50 -126q-50 -50 -123 -50q-74 0 -124 50q-49 50 -49 126zM362 557q0 65 -40 106q-39 42 -99 42t-100 -42q-39 -42 -39 -106q0 -62 39 -104q41 -41 100 -41q60 0 99 41q40 41 40 104z" />
    <glyph glyph-name="guillemotright" unicode="&#xbb;" horiz-adv-x="482" 
d="M253 291l-146 -203h-42l146 203l-146 203h42zM431 291l-146 -203h-42l146 203l-146 203h42z" />
    <glyph glyph-name="onequarter" unicode="&#xbc;" horiz-adv-x="831" 
d="M197 346h-38v343l-98 -78l-21 29l129 103h28v-397zM126 0l578 739h42l-577 -739h-43zM737 136h46v-34h-46v-102h-37v102h-190l-8 24l211 270h24v-260zM700 325l-148 -189h148v189z" />
    <glyph glyph-name="onehalf" unicode="&#xbd;" horiz-adv-x="807" 
d="M198 346h-38v343l-98 -78l-21 29l129 103h28v-397zM85 0l578 739h42l-577 -739h-43zM663 143l-94 -108h184v-35h-235l-1 31l112 127q43 48 61.5 78.5t18.5 58.5q0 33 -22.5 54.5t-57.5 21.5q-51 0 -98 -48l-22 26q56 56 121 56q51 0 84 -31t33 -80q0 -53 -84 -151z" />
    <glyph glyph-name="threequarters" unicode="&#xbe;" horiz-adv-x="794" 
d="M143 377q44 0 70 21.5t26 57.5q0 76 -99 76h-44v36h39q46 0 71 21.5t25 54.5t-23.5 52.5t-61.5 19.5q-56 0 -96 -39l-20 27q46 48 118 48q54 0 88 -29.5t34 -74.5q0 -34 -19.5 -59t-51.5 -35v-2q37 -8 58 -34.5t21 -62.5q0 -50 -37.5 -82t-96.5 -32q-64 0 -122 41l18 30
q52 -35 103 -35zM127 0l578 739h42l-577 -739h-43zM663 396h24v-260h46v-34h-46v-102h-37v102h-190l-8 24zM650 325l-148 -189h148v189z" />
    <glyph glyph-name="questiondown" unicode="&#xbf;" horiz-adv-x="482" 
d="M264 527q24 1 34.5 -19t0 -39.5t-34.5 -18.5q-16 0 -27.5 11t-11.5 27q0 17 11.5 28t27.5 11zM245 356h38v-76q0 -76 -70 -142q-4 -3 -24.5 -22t-26.5 -25.5t-23 -23.5t-23 -27.5l-15.5 -27t-13 -32t-3.5 -32.5q0 -63 47 -105q46 -43 120 -43q102 0 175 88l28 -23
q-38 -48 -91.5 -75t-111.5 -27q-85 0 -146 51t-61 135q0 79 70 149l35.5 34t37 36t28.5 32.5t23 38.5t7 38v79z" />
    <glyph glyph-name="Agrave" unicode="&#xc0;" horiz-adv-x="639" 
d="M274 952l60 -156h-33l-80 156h53zM621 0h-43l-93 242h-331l-94 -242h-43l290 739h25zM472 279l-153 393l-153 -393h306z" />
    <glyph glyph-name="Aacute" unicode="&#xc1;" horiz-adv-x="639" 
d="M363 954h53l-80 -156h-33zM621 0h-43l-93 242h-331l-94 -242h-43l290 739h25zM472 279l-153 393l-153 -393h306z" />
    <glyph glyph-name="Acircumflex" unicode="&#xc2;" horiz-adv-x="639" 
d="M424 796l-105 114l-105 -114h-41l137 151h19l137 -151h-42zM621 0h-43l-93 242h-331l-94 -242h-43l290 739h25zM472 279l-153 393l-153 -393h306z" />
    <glyph glyph-name="Atilde" unicode="&#xc3;" horiz-adv-x="639" 
d="M248 881q-23 0 -42.5 -17t-28.5 -40l-26 11q12 36 39.5 59.5t62.5 23.5q34 0 72 -32t61 -32q21 0 40.5 17.5t28.5 40.5l24 -10q-9 -35 -36 -59t-61 -24q-37 0 -74 31t-60 31zM621 0h-43l-93 242h-331l-94 -242h-43l290 739h25zM472 279l-153 393l-153 -393h306z" />
    <glyph glyph-name="Adieresis" unicode="&#xc4;" horiz-adv-x="639" 
d="M183 857q0 18 13.5 31.5t33.5 13.5t33.5 -13.5t13.5 -31.5q2 -28 -22.5 -40t-49 0t-22.5 40zM359 857q0 18 13.5 31.5t33.5 13.5t33.5 -13.5t13.5 -31.5q2 -28 -22.5 -40t-49 0t-22.5 40zM621 0h-43l-93 242h-331l-94 -242h-43l290 739h25zM472 279l-153 393l-153 -393
h306z" />
    <glyph glyph-name="Aring" unicode="&#xc5;" horiz-adv-x="639" 
d="M212 897q0 45 32 77t78 32t78 -32t32 -77q0 -44 -32 -76q-31 -31 -78 -31t-78 31q-32 32 -32 76zM242 897q0 -33 23 -55.5t57 -22.5t57 22.5t23 55.5q0 34 -23 57t-57 23t-57 -23t-23 -57zM621 0h-43l-93 242h-331l-94 -242h-43l290 739h25zM472 279l-153 393l-153 -393
h306z" />
    <glyph glyph-name="AE" unicode="&#xc6;" horiz-adv-x="977" 
d="M531 351v-314h395v-37h-435v256h-288l-168 -256h-46l488 739h448v-37h-394v-314h364v-37h-364zM491 697l-264 -404h264v404z" />
    <glyph glyph-name="Ccedilla" unicode="&#xc7;" horiz-adv-x="790" 
d="M432 26q89 0 167.5 38t127.5 105l28 -21q-56 -74 -140.5 -116.5t-182.5 -42.5h-4l-21 -53q12 3 37 3q41 0 67.5 -22.5t26.5 -61.5q0 -44 -34.5 -74.5t-92.5 -30.5q-47 0 -95 22l12 29q42 -20 83 -20t67 22t26 51q0 24 -17.5 39t-50.5 15h-62l-7 13l26 70
q-145 13 -243 117q-97 103 -97 259q0 168 111 276q112 109 270 109q102 0 188 -46q88 -46 134 -119l-31 -19q-41 66 -120 106q-80 41 -172 41q-145 0 -243 -98q-97 -97 -97 -247t96 -247q97 -97 243 -97z" />
    <glyph glyph-name="Egrave" unicode="&#xc8;" horiz-adv-x="599" 
d="M274 952l60 -156h-33l-80 156h53zM548 0h-443v739h439v-37h-399v-310h374v-37h-374v-318h403v-37z" />
    <glyph glyph-name="Eacute" unicode="&#xc9;" horiz-adv-x="599" 
d="M333 798h-33l60 156h53zM548 0h-443v739h439v-37h-399v-310h374v-37h-374v-318h403v-37z" />
    <glyph glyph-name="Ecircumflex" unicode="&#xca;" horiz-adv-x="599" 
d="M208 796h-41l137 151h19l137 -151h-42l-105 114zM548 0h-443v739h439v-37h-399v-310h374v-37h-374v-318h403v-37z" />
    <glyph glyph-name="Edieresis" unicode="&#xcb;" horiz-adv-x="599" 
d="M194 857q0 18 13.5 31.5t33.5 13.5t33.5 -13.5t13.5 -31.5q2 -28 -22.5 -40t-49 0t-22.5 40zM370 857q0 18 13.5 31.5t33.5 13.5t33.5 -13.5t13.5 -31.5q2 -28 -22.5 -40t-49 0t-22.5 40zM548 0h-443v739h439v-37h-399v-310h374v-37h-374v-318h403v-37z" />
    <glyph glyph-name="Igrave" unicode="&#xcc;" horiz-adv-x="261" 
d="M92 954l60 -156h-33l-80 156h53zM117 0v739h40v-739h-40z" />
    <glyph glyph-name="Iacute" unicode="&#xcd;" horiz-adv-x="243" 
d="M144 798h-33l60 156h53zM110 0v739h40v-739h-40z" />
    <glyph glyph-name="Icircumflex" unicode="&#xce;" horiz-adv-x="250" 
d="M31 796h-41l137 151h19l137 -151h-42l-105 114zM117 0v739h40v-739h-40z" />
    <glyph glyph-name="Idieresis" unicode="&#xcf;" horiz-adv-x="250" 
d="M2 857q0 18 13.5 31.5t33.5 13.5t33.5 -13.5t13.5 -31.5q2 -28 -22.5 -40t-49 0t-22.5 40zM178 857q0 18 13.5 31.5t33.5 13.5t33.5 -13.5t13.5 -31.5q2 -28 -22.5 -40t-49 0t-22.5 40zM117 0v739h40v-739h-40z" />
    <glyph glyph-name="Eth" unicode="&#xd0;" horiz-adv-x="773" 
d="M134 739h241q159 0 250 -100q92 -101 92 -271t-93 -269t-255 -99h-235v352h-134v37h134v350zM174 37h193q146 0 228 88t82 243t-80 244q-79 90 -220 90h-203v-313h226v-37h-226v-315z" />
    <glyph glyph-name="Ntilde" unicode="&#xd1;" horiz-adv-x="764" 
d="M249 814l-26 11q12 36 39.5 59.5t62.5 23.5q34 0 72 -32t61 -32q21 0 40.5 17.5t28.5 40.5l24 -10q-9 -35 -36 -59t-61 -24q-37 0 -74 31t-60 31t-42.5 -17t-28.5 -40zM619 85v654h40v-739h-24l-490 647v-647h-40v739h20z" />
    <glyph glyph-name="Ograve" unicode="&#xd2;" horiz-adv-x="862" 
d="M400 952l60 -156h-33l-80 156h53zM699 100q-109 -112 -268 -112q-158 0 -269 112q-110 113 -110 270t110 270q111 112 269 112q159 0 268 -112q111 -112 111 -270t-111 -270zM191 126q99 -101 240 -101t240 101q99 100 99 244t-99 244q-99 101 -240 101t-240 -101
q-99 -100 -99 -244q0 -143 99 -244z" />
    <glyph glyph-name="Oacute" unicode="&#xd3;" horiz-adv-x="862" 
d="M449 798h-33l60 156h53zM699 100q-109 -112 -268 -112q-158 0 -269 112q-110 113 -110 270t110 270q111 112 269 112q159 0 268 -112q111 -112 111 -270t-111 -270zM191 126q99 -101 240 -101t240 101q99 100 99 244t-99 244q-99 101 -240 101t-240 -101
q-99 -100 -99 -244q0 -143 99 -244z" />
    <glyph glyph-name="Ocircumflex" unicode="&#xd4;" horiz-adv-x="862" 
d="M325 796h-41l137 151h19l137 -151h-42l-105 114zM699 100q-109 -112 -268 -112q-158 0 -269 112q-110 113 -110 270t110 270q111 112 269 112q159 0 268 -112q111 -112 111 -270t-111 -270zM191 126q99 -101 240 -101t240 101q99 100 99 244t-99 244q-99 101 -240 101
t-240 -101q-99 -100 -99 -244q0 -143 99 -244z" />
    <glyph glyph-name="Otilde" unicode="&#xd5;" horiz-adv-x="862" 
d="M296 824l-26 11q12 36 39.5 59.5t62.5 23.5q34 0 72 -32t61 -32q21 0 40.5 17.5t28.5 40.5l24 -10q-9 -35 -36 -59t-61 -24q-37 0 -74 31t-60 31t-42.5 -17t-28.5 -40zM699 100q-109 -112 -268 -112q-158 0 -269 112q-110 113 -110 270t110 270q111 112 269 112
q159 0 268 -112q111 -112 111 -270t-111 -270zM191 126q99 -101 240 -101t240 101q99 100 99 244t-99 244q-99 101 -240 101t-240 -101q-99 -100 -99 -244q0 -143 99 -244z" />
    <glyph glyph-name="Odieresis" unicode="&#xd6;" horiz-adv-x="862" 
d="M295 857q0 18 13.5 31.5t33.5 13.5t33.5 -13.5t13.5 -31.5q2 -28 -22.5 -40t-49 0t-22.5 40zM471 857q0 18 13.5 31.5t33.5 13.5t33.5 -13.5t13.5 -31.5q2 -28 -22.5 -40t-49 0t-22.5 40zM699 100q-109 -112 -268 -112q-158 0 -269 112q-110 113 -110 270t110 270
q111 112 269 112q159 0 268 -112q111 -112 111 -270t-111 -270zM191 126q99 -101 240 -101t240 101q99 100 99 244t-99 244q-99 101 -240 101t-240 -101q-99 -100 -99 -244q0 -143 99 -244z" />
    <glyph glyph-name="multiply" unicode="&#xd7;" horiz-adv-x="482" 
d="M266 339l149 -148l-24 -26l-149 149l-149 -149l-24 26l148 148l-147 147l23 25l148 -147l148 148l25 -24z" />
    <glyph glyph-name="Oslash" unicode="&#xd8;" horiz-adv-x="862" 
d="M718 746l-53 -75q69 -53 107 -132t38 -169q0 -158 -111 -270q-109 -112 -268 -112q-112 0 -205 60l-53 -75l-32 20l55 77q-67 54 -105.5 133t-38.5 167q0 157 110 270q111 112 269 112q111 0 203 -59l53 74zM92 370q0 -80 33 -150t93 -118l395 560q-86 53 -182 53
q-141 0 -240 -101q-99 -100 -99 -244zM431 25q141 0 240 101q99 100 99 244q0 80 -33.5 150.5t-93.5 119.5l-395 -561q84 -54 183 -54z" />
    <glyph glyph-name="Ugrave" unicode="&#xd9;" horiz-adv-x="673" 
d="M300 952l60 -156h-33l-80 156h53zM97 236v503h40v-499q0 -101 53 -157t147 -56t146.5 56t52.5 157v499h40v-503q0 -115 -65 -183q-65 -66 -174 -66t-175 66q-65 68 -65 183z" />
    <glyph glyph-name="Uacute" unicode="&#xda;" horiz-adv-x="673" 
d="M345 798h-33l60 156h53zM97 236v503h40v-499q0 -101 53 -157t147 -56t146.5 56t52.5 157v499h40v-503q0 -115 -65 -183q-65 -66 -174 -66t-175 66q-65 68 -65 183z" />
    <glyph glyph-name="Ucircumflex" unicode="&#xdb;" horiz-adv-x="673" 
d="M228 796h-41l137 151h19l137 -151h-42l-105 114zM97 236v503h40v-499q0 -101 53 -157t147 -56t146.5 56t52.5 157v499h40v-503q0 -115 -65 -183q-65 -66 -174 -66t-175 66q-65 68 -65 183z" />
    <glyph glyph-name="Udieresis" unicode="&#xdc;" horiz-adv-x="673" 
d="M199 857q0 18 13.5 31.5t33.5 13.5t33.5 -13.5t13.5 -31.5q2 -28 -22.5 -40t-49 0t-22.5 40zM375 857q0 18 13.5 31.5t33.5 13.5t33.5 -13.5t13.5 -31.5q2 -28 -22.5 -40t-49 0t-22.5 40zM97 236v503h40v-499q0 -101 53 -157t147 -56t146.5 56t52.5 157v499h40v-503
q0 -115 -65 -183q-65 -66 -174 -66t-175 66q-65 68 -65 183z" />
    <glyph glyph-name="Yacute" unicode="&#xdd;" 
d="M305 798h-33l60 156h53zM514 739h44l-248 -429v-310h-40v310l-247 429h44l223 -394z" />
    <glyph glyph-name="Thorn" unicode="&#xde;" horiz-adv-x="606" 
d="M145 610h178q115 0 175 -67q61 -67 61 -159q0 -93 -64 -160q-63 -66 -181 -66h-169v-158h-40v739h40v-129zM145 195h169q94 0 149 52q56 53 56 137t-54 136q-53 53 -142 53h-178v-378z" />
    <glyph glyph-name="germandbls" unicode="&#xdf;" horiz-adv-x="605" 
d="M394 391q75 -17 120 -70.5t45 -128.5q0 -91 -65 -151q-64 -60 -166 -60q-91 0 -143 31l16 36q51 -30 126 -30q84 0 137 49q55 49 55 126q0 80 -59 128t-159 50v31q64 0 126 47q61 48 61 120q0 71 -48 118q-49 47 -124 47q-86 0 -139 -63q-52 -62 -52 -167v-681h-40v683
q0 127 66 196q68 69 167 69q93 0 152 -59q58 -58 58 -141q0 -59 -36 -107t-98 -73z" />
    <glyph glyph-name="agrave" unicode="&#xe0;" horiz-adv-x="661" 
d="M288 776l60 -156h-33l-80 156h53zM536 415v120h40v-535h-40v123q-32 -63 -91.5 -99.5t-133.5 -36.5q-113 0 -189 81q-75 82 -75 202q0 118 75 198t189 80q75 0 134 -35t91 -98zM310 24q100 0 164 72q66 72 66 175q0 99 -66 170q-64 70 -164 70q-97 0 -160 -69t-63 -173
q0 -105 63 -175t160 -70z" />
    <glyph glyph-name="aacute" unicode="&#xe1;" horiz-adv-x="661" 
d="M362 776h53l-80 -156h-33zM536 415v120h40v-535h-40v123q-32 -63 -91.5 -99.5t-133.5 -36.5q-113 0 -189 81q-75 82 -75 202q0 118 75 198t189 80q75 0 134 -35t91 -98zM310 24q100 0 164 72q66 72 66 175q0 99 -66 170q-64 70 -164 70q-97 0 -160 -69t-63 -173
q0 -105 63 -175t160 -70z" />
    <glyph glyph-name="acircumflex" unicode="&#xe2;" horiz-adv-x="661" 
d="M427 619l-105 114l-105 -114h-41l137 151h19l137 -151h-42zM536 415v120h40v-535h-40v123q-32 -63 -91.5 -99.5t-133.5 -36.5q-113 0 -189 81q-75 82 -75 202q0 118 75 198t189 80q75 0 134 -35t91 -98zM310 24q100 0 164 72q66 72 66 175q0 99 -66 170q-64 70 -164 70
q-97 0 -160 -69t-63 -173q0 -105 63 -175t160 -70z" />
    <glyph glyph-name="atilde" unicode="&#xe3;" horiz-adv-x="661" 
d="M259 686q-21 0 -39.5 -16t-25.5 -36l-23 10q9 32 35 53.5t57 21.5t66 -29t55 -29q19 0 37.5 16.5t25.5 36.5l22 -9q-9 -32 -33 -54t-55 -22q-34 0 -68 28q-35 29 -54 29zM536 415v120h40v-535h-40v123q-32 -63 -91.5 -99.5t-133.5 -36.5q-113 0 -189 81q-75 82 -75 202
q0 118 75 198t189 80q75 0 134 -35t91 -98zM310 24q100 0 164 72q66 72 66 175q0 99 -66 170q-64 70 -164 70q-97 0 -160 -69t-63 -173q0 -105 63 -175t160 -70z" />
    <glyph glyph-name="adieresis" unicode="&#xe4;" horiz-adv-x="661" 
d="M187 677q0 18 13.5 31.5t33.5 13.5t33.5 -13.5t13.5 -31.5q2 -28 -22.5 -40t-49 0t-22.5 40zM363 677q0 18 13.5 31.5t33.5 13.5t33.5 -13.5t13.5 -31.5q2 -28 -22.5 -40t-49 0t-22.5 40zM536 415v120h40v-535h-40v123q-32 -63 -91.5 -99.5t-133.5 -36.5q-113 0 -189 81
q-75 82 -75 202q0 118 75 198t189 80q75 0 134 -35t91 -98zM310 24q100 0 164 72q66 72 66 175q0 99 -66 170q-64 70 -164 70q-97 0 -160 -69t-63 -173q0 -105 63 -175t160 -70z" />
    <glyph glyph-name="aring" unicode="&#xe5;" horiz-adv-x="661" 
d="M211 714q0 45 32 77t78 32t78 -32t32 -77q0 -44 -32 -76q-31 -31 -78 -31t-78 31q-32 32 -32 76zM241 714q0 -33 23 -55.5t57 -22.5t57 22.5t23 55.5q0 34 -23 57t-57 23t-57 -23t-23 -57zM536 415v120h40v-535h-40v123q-32 -63 -91.5 -99.5t-133.5 -36.5q-113 0 -189 81
q-75 82 -75 202q0 118 75 198t189 80q75 0 134 -35t91 -98zM310 24q100 0 164 72q66 72 66 175q0 99 -66 170q-64 70 -164 70q-97 0 -160 -69t-63 -173q0 -105 63 -175t160 -70z" />
    <glyph glyph-name="ae" unicode="&#xe6;" horiz-adv-x="981" 
d="M936 301q0 -11 -3 -47h-439q5 -106 63 -167.5t157 -61.5q52 0 104 18.5t85 47.5l20 -30q-38 -32 -94 -52.5t-116 -20.5q-92 0 -153.5 45.5t-87.5 124.5q-28 -82 -97 -127q-70 -44 -153 -44t-134.5 41.5t-51.5 112.5q0 150 236 150h180q-9 118 -57 169t-141 51
q-104 0 -176 -57l-20 29q36 29 90 47t106 18q82 0 141 -39t81 -118q28 73 88 115t140 42q99 0 165 -67q67 -67 67 -180zM704 511q-90 0 -146.5 -60t-62.5 -160h401q1 100 -52 160q-52 60 -140 60zM223 24q92 0 158 60q68 62 72 170h-179q-198 0 -198 -111q0 -54 40.5 -86.5
t106.5 -32.5z" />
    <glyph glyph-name="ccedilla" unicode="&#xe7;" horiz-adv-x="593" 
d="M316 25q68 0 124.5 32.5t84.5 86.5l32 -20q-33 -63 -97 -99t-142 -37l-20 -50q12 3 37 3q41 0 67.5 -22.5t26.5 -61.5q0 -44 -34.5 -74.5t-92.5 -30.5q-47 0 -95 22l12 29q42 -20 83 -20t67 22t26 51q0 24 -17.5 39t-50.5 15h-62l-7 13l25 67q-106 11 -170 87
q-65 77 -65 190q0 123 77 202q78 79 197 79q80 0 143.5 -36.5t94.5 -100.5l-33 -18q-26 54 -81 86t-124 32q-102 0 -168 -68q-66 -67 -66 -176q0 -108 64 -175t164 -67z" />
    <glyph glyph-name="egrave" unicode="&#xe8;" horiz-adv-x="601" 
d="M271 776l60 -156h-33l-80 156h53zM556 301q0 -11 -3 -47h-465q5 -106 67.5 -167.5t167.5 -61.5q55 0 109.5 18t90.5 48l21 -30q-38 -32 -98 -52.5t-124 -20.5q-135 0 -204.5 82.5t-69.5 198.5q0 121 72 200q73 79 192 79q106 0 174 -67q70 -66 70 -180zM312 511
q-94 0 -156 -60q-61 -60 -67 -160h427q0 101 -56 160q-56 60 -148 60z" />
    <glyph glyph-name="eacute" unicode="&#xe9;" horiz-adv-x="601" 
d="M345 776h53l-80 -156h-33zM556 301q0 -11 -3 -47h-465q5 -106 67.5 -167.5t167.5 -61.5q55 0 109.5 18t90.5 48l21 -30q-38 -32 -98 -52.5t-124 -20.5q-135 0 -204.5 82.5t-69.5 198.5q0 121 72 200q73 79 192 79q106 0 174 -67q70 -66 70 -180zM312 511q-94 0 -156 -60
q-61 -60 -67 -160h427q0 101 -56 160q-56 60 -148 60z" />
    <glyph glyph-name="ecircumflex" unicode="&#xea;" horiz-adv-x="601" 
d="M410 619l-105 114l-105 -114h-41l137 151h19l137 -151h-42zM556 301q0 -11 -3 -47h-465q5 -106 67.5 -167.5t167.5 -61.5q55 0 109.5 18t90.5 48l21 -30q-38 -32 -98 -52.5t-124 -20.5q-135 0 -204.5 82.5t-69.5 198.5q0 121 72 200q73 79 192 79q106 0 174 -67
q70 -66 70 -180zM312 511q-94 0 -156 -60q-61 -60 -67 -160h427q0 101 -56 160q-56 60 -148 60z" />
    <glyph glyph-name="edieresis" unicode="&#xeb;" horiz-adv-x="601" 
d="M182 676q0 18 13.5 31.5t33.5 13.5t33.5 -13.5t13.5 -31.5q2 -28 -22.5 -40t-49 0t-22.5 40zM358 676q0 18 13.5 31.5t33.5 13.5t33.5 -13.5t13.5 -31.5q2 -28 -22.5 -40t-49 0t-22.5 40zM556 301q0 -11 -3 -47h-465q5 -106 67.5 -167.5t167.5 -61.5q55 0 109.5 18
t90.5 48l21 -30q-38 -32 -98 -52.5t-124 -20.5q-135 0 -204.5 82.5t-69.5 198.5q0 121 72 200q73 79 192 79q106 0 174 -67q70 -66 70 -180zM312 511q-94 0 -156 -60q-61 -60 -67 -160h427q0 101 -56 160q-56 60 -148 60z" />
    <glyph glyph-name="igrave" unicode="&#xec;" horiz-adv-x="210" 
d="M59 776l60 -156h-33l-80 156h53zM119 535v-535h-40v535h40z" />
    <glyph glyph-name="iacute" unicode="&#xed;" horiz-adv-x="216" 
d="M124 620h-33l60 156h53zM125 535v-535h-40v535h40z" />
    <glyph glyph-name="icircumflex" unicode="&#xee;" horiz-adv-x="210" 
d="M-6 619h-41l137 151h19l137 -151h-42l-105 114zM119 535v-535h-40v535h40z" />
    <glyph glyph-name="idieresis" unicode="&#xef;" horiz-adv-x="210" 
d="M-35 677q0 18 13.5 31.5t33.5 13.5t33.5 -13.5t13.5 -31.5q2 -28 -22.5 -40t-49 0t-22.5 40zM141 677q0 18 13.5 31.5t33.5 13.5t33.5 -13.5t13.5 -31.5q2 -28 -22.5 -40t-49 0t-22.5 40zM119 535v-535h-40v535h40z" />
    <glyph glyph-name="eth" unicode="&#xf0;" horiz-adv-x="657" 
d="M574 782l-116 -78q142 -166 142 -358q0 -161 -78 -260q-76 -99 -209 -99q-113 0 -190 77q-75 76 -75 191q0 113 75 190q77 77 190 77q84 0 150 -43.5t97 -116.5q-5 134 -83 254q-16 24 -50 67l-122 -82l-24 31l120 79q-40 43 -116 103l25 29q78 -62 123 -110l120 79z
M87 255q0 -99 63 -165q64 -66 163 -66t164 66q65 68 65 165t-65 164q-65 66 -164 66t-163 -66q-63 -66 -63 -164z" />
    <glyph glyph-name="ntilde" unicode="&#xf1;" horiz-adv-x="610" 
d="M178 634l-23 10q9 32 35 53.5t57 21.5t66 -29t55 -29q19 0 37.5 16.5t25.5 36.5l22 -9q-9 -32 -33 -54t-55 -22q-34 0 -68 28q-35 29 -54 29q-21 0 -39.5 -16t-25.5 -36zM125 0h-40v535h38v-107q46 121 196 121q92 0 152 -60q61 -58 61 -167v-322h-40v322
q0 87 -46.5 138.5t-126.5 51.5q-32 0 -63.5 -10t-62 -32t-49.5 -65.5t-19 -102.5v-302z" />
    <glyph glyph-name="ograve" unicode="&#xf2;" horiz-adv-x="648" 
d="M288 776l60 -156h-33l-80 156h53zM47 268q0 119 79 199q80 81 198 81t198 -81q79 -80 79 -199q0 -120 -79 -200q-80 -81 -198 -81t-198 81q-79 80 -79 200zM154 94q67 -70 170 -70t170 70t67 174q0 105 -67 173q-67 70 -170 70t-170 -70q-67 -68 -67 -173q0 -104 67 -174
z" />
    <glyph glyph-name="oacute" unicode="&#xf3;" horiz-adv-x="648" 
d="M335 620h-33l60 156h53zM47 268q0 119 79 199q80 81 198 81t198 -81q79 -80 79 -199q0 -120 -79 -200q-80 -81 -198 -81t-198 81q-79 80 -79 200zM154 94q67 -70 170 -70t170 70t67 174q0 105 -67 173q-67 70 -170 70t-170 -70q-67 -68 -67 -173q0 -104 67 -174z" />
    <glyph glyph-name="ocircumflex" unicode="&#xf4;" horiz-adv-x="648" 
d="M217 619h-41l137 151h19l137 -151h-42l-105 114zM47 268q0 119 79 199q80 81 198 81t198 -81q79 -80 79 -199q0 -120 -79 -200q-80 -81 -198 -81t-198 81q-79 80 -79 200zM154 94q67 -70 170 -70t170 70t67 174q0 105 -67 173q-67 70 -170 70t-170 -70q-67 -68 -67 -173
q0 -104 67 -174z" />
    <glyph glyph-name="otilde" unicode="&#xf5;" horiz-adv-x="648" 
d="M195 631l-23 10q9 32 35 53.5t57 21.5t66 -29t55 -29q19 0 37.5 16.5t25.5 36.5l22 -9q-9 -32 -33 -54t-55 -22q-34 0 -68 28q-35 29 -54 29q-21 0 -39.5 -16t-25.5 -36zM47 268q0 119 79 199q80 81 198 81t198 -81q79 -80 79 -199q0 -120 -79 -200q-80 -81 -198 -81
t-198 81q-79 80 -79 200zM154 94q67 -70 170 -70t170 70t67 174q0 105 -67 173q-67 70 -170 70t-170 -70q-67 -68 -67 -173q0 -104 67 -174z" />
    <glyph glyph-name="odieresis" unicode="&#xf6;" horiz-adv-x="648" 
d="M189 677q0 18 13.5 31.5t33.5 13.5t33.5 -13.5t13.5 -31.5q2 -28 -22.5 -40t-49 0t-22.5 40zM365 677q0 18 13.5 31.5t33.5 13.5t33.5 -13.5t13.5 -31.5q2 -28 -22.5 -40t-49 0t-22.5 40zM47 268q0 119 79 199q80 81 198 81t198 -81q79 -80 79 -199q0 -120 -79 -200
q-80 -81 -198 -81t-198 81q-79 80 -79 200zM154 94q67 -70 170 -70t170 70t67 174q0 105 -67 173q-67 70 -170 70t-170 -70q-67 -68 -67 -173q0 -104 67 -174z" />
    <glyph glyph-name="divide" unicode="&#xf7;" horiz-adv-x="501" 
d="M265 417q-20 0 -34 13.5t-14 33.5q0 19 14 32t34 13q19 0 33 -13t14 -32q0 -20 -14 -33.5t-33 -13.5zM427 308h-353v37h353v-37zM265 144q-20 0 -34 13.5t-14 33.5q0 19 14 32t34 13q19 0 33 -13t14 -32q0 -20 -14 -33.5t-33 -13.5z" />
    <glyph glyph-name="oslash" unicode="&#xf8;" horiz-adv-x="648" 
d="M550 561l-51 -73q102 -82 102 -220q0 -120 -79 -200q-80 -81 -198 -81q-80 0 -144 39l-55 -80l-29 21l54 79q-103 82 -103 222q0 119 79 199q80 81 198 81q79 0 145 -39l49 72zM87 268q0 -120 85 -190l275 400q-55 33 -123 33q-103 0 -170 -70q-67 -68 -67 -173zM324 24
q103 0 170 70t67 174q0 117 -83 188l-277 -399q57 -33 123 -33z" />
    <glyph glyph-name="ugrave" unicode="&#xf9;" 
d="M257 776l60 -156h-33l-80 156h53zM290 -13q-96 0 -155 59q-57 60 -57 159v330h40v-329q0 -84 46.5 -133t125.5 -49q81 0 126.5 48.5t45.5 134.5v328h40v-330q0 -100 -56.5 -159t-155.5 -59z" />
    <glyph glyph-name="uacute" unicode="&#xfa;" 
d="M301 620h-33l60 156h53zM290 -13q-96 0 -155 59q-57 60 -57 159v330h40v-329q0 -84 46.5 -133t125.5 -49q81 0 126.5 48.5t45.5 134.5v328h40v-330q0 -100 -56.5 -159t-155.5 -59z" />
    <glyph glyph-name="ucircumflex" unicode="&#xfb;" 
d="M185 619h-41l137 151h19l137 -151h-42l-105 114zM290 -13q-96 0 -155 59q-57 60 -57 159v330h40v-329q0 -84 46.5 -133t125.5 -49q81 0 126.5 48.5t45.5 134.5v328h40v-330q0 -100 -56.5 -159t-155.5 -59z" />
    <glyph glyph-name="udieresis" unicode="&#xfc;" 
d="M155 677q0 18 13.5 31.5t33.5 13.5t33.5 -13.5t13.5 -31.5q2 -28 -22.5 -40t-49 0t-22.5 40zM331 677q0 18 13.5 31.5t33.5 13.5t33.5 -13.5t13.5 -31.5q2 -28 -22.5 -40t-49 0t-22.5 40zM290 -13q-96 0 -155 59q-57 60 -57 159v330h40v-329q0 -84 46.5 -133t125.5 -49
q81 0 126.5 48.5t45.5 134.5v328h40v-330q0 -100 -56.5 -159t-155.5 -59z" />
    <glyph glyph-name="yacute" unicode="&#xfd;" horiz-adv-x="519" 
d="M296 776h53l-80 -156h-33zM264 48l196 487h42l-225 -558q-45 -113 -84 -158q-39 -46 -101 -46q-40 0 -74 19l9 35q36 -17 67 -17q46 0 78 40t65 126l8 22l-226 537h41z" />
    <glyph glyph-name="thorn" unicode="&#xfe;" horiz-adv-x="664" 
d="M353 549q113 0 188 -81q76 -80 76 -200q0 -119 -76 -199q-75 -81 -188 -81q-75 0 -135 37.5t-93 101.5v-347h-40v973h40v-346q32 66 92.5 104t135.5 38zM354 25q97 0 160 70q63 71 63 173t-63 173t-160 71q-99 0 -165 -72q-65 -73 -65 -175q0 -99 65 -170q66 -70 165 -70
z" />
    <glyph glyph-name="ydieresis" unicode="&#xff;" horiz-adv-x="519" 
d="M129 676q0 18 13.5 31.5t33.5 13.5t33.5 -13.5t13.5 -31.5q2 -28 -22.5 -40t-49 0t-22.5 40zM305 676q0 18 13.5 31.5t33.5 13.5t33.5 -13.5t13.5 -31.5q2 -28 -22.5 -40t-49 0t-22.5 40zM264 48l196 487h42l-225 -558q-45 -113 -84 -158q-39 -46 -101 -46q-40 0 -74 19
l9 35q36 -17 67 -17q46 0 78 40t65 126l8 22l-226 537h41z" />
    <glyph glyph-name="Amacron" unicode="&#x100;" horiz-adv-x="639" 
d="M154 864h331v-36l-331 -1v37zM621 0h-43l-93 242h-331l-94 -242h-43l290 739h25zM472 279l-153 393l-153 -393h306z" />
    <glyph glyph-name="amacron" unicode="&#x101;" horiz-adv-x="661" 
d="M171 708h301v-36l-301 -1v37zM536 415v120h40v-535h-40v123q-32 -63 -91.5 -99.5t-133.5 -36.5q-113 0 -189 81q-75 82 -75 202q0 118 75 198t189 80q75 0 134 -35t91 -98zM310 24q100 0 164 72q66 72 66 175q0 99 -66 170q-64 70 -164 70q-97 0 -160 -69t-63 -173
q0 -105 63 -175t160 -70z" />
    <glyph glyph-name="Abreve" unicode="&#x102;" horiz-adv-x="639" 
d="M165 944h37q3 -120 119 -120t119 120h38q0 -70 -42 -111t-115 -41t-114.5 40.5t-41.5 111.5zM621 0h-43l-93 242h-331l-94 -242h-43l290 739h25zM472 279l-153 393l-153 -393h306z" />
    <glyph glyph-name="abreve" unicode="&#x103;" horiz-adv-x="661" 
d="M157 768h37q3 -120 119 -120t119 120h38q0 -70 -42 -111t-115 -41t-114.5 40.5t-41.5 111.5zM536 415v120h40v-535h-40v123q-32 -63 -91.5 -99.5t-133.5 -36.5q-113 0 -189 81q-75 82 -75 202q0 118 75 198t189 80q75 0 134 -35t91 -98zM310 24q100 0 164 72
q66 72 66 175q0 99 -66 170q-64 70 -164 70q-97 0 -160 -69t-63 -173q0 -105 63 -175t160 -70z" />
    <glyph glyph-name="Aogonek" unicode="&#x104;" horiz-adv-x="633" 
d="M620 -203l15 -25q-29 -24 -64 -29t-63 6t-46 36.5t-16 59.5q0 95 130 159l-91 238h-331l-94 -242h-43l290 739h25l289 -739q-66 -29 -103.5 -71.5t-37.5 -83.5q0 -30 20.5 -51.5t50.5 -21.5q35 0 69 25zM472 279l-153 393l-153 -393h306z" />
    <glyph glyph-name="aogonek" unicode="&#x105;" horiz-adv-x="653" 
d="M575 -203l15 -25q-29 -24 -64 -29t-63 6t-46 36.5t-16 59.5q0 97 135 161v117q-32 -63 -91.5 -99.5t-133.5 -36.5q-113 0 -189 81q-75 82 -75 202q0 118 75 198t189 80q75 0 134 -35t91 -98v120h40v-535q-66 -29 -103.5 -71.5t-37.5 -83.5q0 -30 20.5 -51.5t50.5 -21.5
q35 0 69 25zM310 24q100 0 164 72q66 72 66 175q0 99 -66 170q-64 70 -164 70q-97 0 -160 -69t-63 -173q0 -105 63 -175t160 -70z" />
    <glyph glyph-name="Cacute" unicode="&#x106;" horiz-adv-x="790" 
d="M452 798h-33l60 156h53zM432 -11q-160 0 -269 106q-110 107 -110 272q0 168 111 276q112 109 270 109q102 0 188 -46q88 -46 134 -119l-31 -19q-41 66 -120 106q-80 41 -172 41q-145 0 -243 -98q-97 -97 -97 -247t96 -247q97 -97 243 -97q89 0 167.5 38t127.5 105l28 -21
q-56 -74 -140.5 -116.5t-182.5 -42.5z" />
    <glyph glyph-name="cacute" unicode="&#x107;" horiz-adv-x="593" 
d="M331 620h-33l60 156h53zM316 -12q-116 0 -193 78q-75 80 -75 201q0 123 77 202q78 79 197 79q80 0 143.5 -36.5t94.5 -100.5l-33 -18q-26 54 -81 86t-124 32q-102 0 -168 -68q-66 -67 -66 -176q0 -108 64 -175t164 -67q68 0 124.5 32.5t84.5 86.5l32 -20
q-33 -63 -98 -99.5t-143 -36.5z" />
    <glyph glyph-name="Ccircumflex" unicode="&#x108;" horiz-adv-x="790" 
d="M327 796h-41l137 151h19l137 -151h-42l-105 114zM432 -11q-160 0 -269 106q-110 107 -110 272q0 168 111 276q112 109 270 109q102 0 188 -46q88 -46 134 -119l-31 -19q-41 66 -120 106q-80 41 -172 41q-145 0 -243 -98q-97 -97 -97 -247t96 -247q97 -97 243 -97
q89 0 167.5 38t127.5 105l28 -21q-56 -74 -140.5 -116.5t-182.5 -42.5z" />
    <glyph glyph-name="ccircumflex" unicode="&#x109;" horiz-adv-x="593" 
d="M213 620h-41l137 151h19l137 -151h-42l-105 114zM316 -12q-116 0 -193 78q-75 80 -75 201q0 123 77 202q78 79 197 79q80 0 143.5 -36.5t94.5 -100.5l-33 -18q-26 54 -81 86t-124 32q-102 0 -168 -68q-66 -67 -66 -176q0 -108 64 -175t164 -67q68 0 124.5 32.5t84.5 86.5
l32 -20q-33 -63 -98 -99.5t-143 -36.5z" />
    <glyph glyph-name="Cdotaccent" unicode="&#x10a;" horiz-adv-x="790" 
d="M391 854q0 18 12.5 30t29.5 12t29 -12t12 -30q0 -17 -12 -29t-29 -12t-29.5 12t-12.5 29zM432 -11q-160 0 -269 106q-110 107 -110 272q0 168 111 276q112 109 270 109q102 0 188 -46q88 -46 134 -119l-31 -19q-41 66 -120 106q-80 41 -172 41q-145 0 -243 -98
q-97 -97 -97 -247t96 -247q97 -97 243 -97q89 0 167.5 38t127.5 105l28 -21q-56 -74 -140.5 -116.5t-182.5 -42.5z" />
    <glyph glyph-name="cdotaccent" unicode="&#x10b;" horiz-adv-x="593" 
d="M276 664q0 18 12.5 30t29.5 12t29 -12t12 -30q0 -17 -12 -29t-29 -12t-29.5 12t-12.5 29zM316 -12q-116 0 -193 78q-75 80 -75 201q0 123 77 202q78 79 197 79q80 0 143.5 -36.5t94.5 -100.5l-33 -18q-26 54 -81 86t-124 32q-102 0 -168 -68q-66 -67 -66 -176
q0 -108 64 -175t164 -67q68 0 124.5 32.5t84.5 86.5l32 -20q-33 -63 -98 -99.5t-143 -36.5z" />
    <glyph glyph-name="Ccaron" unicode="&#x10c;" horiz-adv-x="790" 
d="M430 798l-137 151h41l105 -114l105 114h42l-137 -151h-19zM432 -11q-160 0 -269 106q-110 107 -110 272q0 168 111 276q112 109 270 109q102 0 188 -46q88 -46 134 -119l-31 -19q-41 66 -120 106q-80 41 -172 41q-145 0 -243 -98q-97 -97 -97 -247t96 -247
q97 -97 243 -97q89 0 167.5 38t127.5 105l28 -21q-56 -74 -140.5 -116.5t-182.5 -42.5z" />
    <glyph glyph-name="ccaron" unicode="&#x10d;" horiz-adv-x="593" 
d="M308 622l-137 151h41l105 -114l105 114h42l-137 -151h-19zM316 -12q-116 0 -193 78q-75 80 -75 201q0 123 77 202q78 79 197 79q80 0 143.5 -36.5t94.5 -100.5l-33 -18q-26 54 -81 86t-124 32q-102 0 -168 -68q-66 -67 -66 -176q0 -108 64 -175t164 -67q68 0 124.5 32.5
t84.5 86.5l32 -20q-33 -63 -98 -99.5t-143 -36.5z" />
    <glyph glyph-name="Dcaron" unicode="&#x10e;" horiz-adv-x="744" 
d="M316 798l-137 151h41l105 -114l105 114h42l-137 -151h-19zM340 0h-235v739h241q159 0 250 -100q92 -101 92 -271t-93 -269t-255 -99zM145 702v-665h193q146 0 228 88t82 243t-80 244q-80 90 -220 90h-203z" />
    <glyph glyph-name="dcaron" unicode="&#x10f;" horiz-adv-x="692" 
d="M649 625l57 151h50l-73 -151h-34zM539 408v345h40v-753h-40v128q-32 -66 -92.5 -104t-135.5 -38q-113 0 -189 81q-75 81 -75 200q0 118 75 199q76 81 189 81q75 0 135 -37.5t93 -101.5zM310 23q100 0 164 72q66 72 66 175q0 100 -66 170q-64 70 -164 70q-97 0 -160 -70
t-63 -173t63 -174q63 -70 160 -70z" />
    <glyph glyph-name="Dcroat" unicode="&#x110;" horiz-adv-x="773" 
d="M134 739h241q159 0 250 -100q92 -101 92 -271t-93 -269t-255 -99h-235v352h-134v37h134v350zM174 37h193q146 0 228 88t82 243t-80 244q-79 90 -220 90h-203v-313h226v-37h-226v-315z" />
    <glyph glyph-name="dslash" unicode="&#x111;" horiz-adv-x="662" 
d="M579 651h70v-37h-70v-614h-40v128q-32 -66 -92.5 -104t-135.5 -38q-113 0 -189 81q-75 81 -75 200q0 118 75 199q76 81 189 81q75 0 135 -37.5t93 -101.5v206h-197v37h197v102h40v-102zM310 23q100 0 164 72q66 72 66 175q0 100 -66 170q-64 70 -164 70q-97 0 -160 -70
t-63 -173t63 -174q63 -70 160 -70z" />
    <glyph glyph-name="Emacron" unicode="&#x112;" horiz-adv-x="599" 
d="M496 828l-331 -1v37h331v-36zM548 0h-443v739h439v-37h-399v-310h374v-37h-374v-318h403v-37z" />
    <glyph glyph-name="emacron" unicode="&#x113;" horiz-adv-x="601" 
d="M154 708h301v-36l-301 -1v37zM556 301q0 -11 -3 -47h-465q5 -106 67.5 -167.5t167.5 -61.5q55 0 109.5 18t90.5 48l21 -30q-38 -32 -98 -52.5t-124 -20.5q-135 0 -204.5 82.5t-69.5 198.5q0 121 72 200q73 79 192 79q106 0 174 -67q70 -66 70 -180zM312 511
q-94 0 -156 -60q-61 -60 -67 -160h427q0 101 -56 160q-56 60 -148 60z" />
    <glyph glyph-name="Ebreve" unicode="&#x114;" horiz-adv-x="599" 
d="M174 949h37q3 -120 119 -120t119 120h38q0 -70 -42 -111t-115 -41t-114.5 40.5t-41.5 111.5zM548 0h-443v739h439v-37h-399v-310h374v-37h-374v-318h403v-37z" />
    <glyph glyph-name="ebreve" unicode="&#x115;" horiz-adv-x="601" 
d="M159 772h37q3 -120 119 -120t119 120h38q0 -70 -42 -111t-115 -41t-114.5 40.5t-41.5 111.5zM556 301q0 -11 -3 -47h-465q5 -106 67.5 -167.5t167.5 -61.5q55 0 109.5 18t90.5 48l21 -30q-38 -32 -98 -52.5t-124 -20.5q-135 0 -204.5 82.5t-69.5 198.5q0 121 72 200
q73 79 192 79q106 0 174 -67q70 -66 70 -180zM312 511q-94 0 -156 -60q-61 -60 -67 -160h427q0 101 -56 160q-56 60 -148 60z" />
    <glyph glyph-name="Edotaccent" unicode="&#x116;" horiz-adv-x="599" 
d="M285 854q0 18 12.5 30t29.5 12t29 -12t12 -30q0 -17 -12 -29t-29 -12t-29.5 12t-12.5 29zM548 0h-443v739h439v-37h-399v-310h374v-37h-374v-318h403v-37z" />
    <glyph glyph-name="edotaccent" unicode="&#x117;" horiz-adv-x="601" 
d="M272 664q0 18 12.5 30t29.5 12t29 -12t12 -30q0 -17 -12 -29t-29 -12t-29.5 12t-12.5 29zM556 301q0 -11 -3 -47h-465q5 -106 67.5 -167.5t167.5 -61.5q55 0 109.5 18t90.5 48l21 -30q-38 -32 -98 -52.5t-124 -20.5q-135 0 -204.5 82.5t-69.5 198.5q0 121 72 200
q73 79 192 79q106 0 174 -67q70 -66 70 -180zM312 511q-94 0 -156 -60q-61 -60 -67 -160h427q0 101 -56 160q-56 60 -148 60z" />
    <glyph glyph-name="Eogonek" unicode="&#x118;" horiz-adv-x="587" 
d="M547 -203l15 -25q-29 -24 -64 -29t-63 6t-46 36.5t-16 59.5q0 91 123 155h-391v739h439v-37h-399v-310h374v-37h-374v-318h403v-37q-66 -29 -103.5 -71.5t-37.5 -83.5q0 -30 20.5 -51.5t50.5 -21.5q35 0 69 25z" />
    <glyph glyph-name="eogonek" unicode="&#x119;" horiz-adv-x="601" 
d="M556 301q0 -11 -3 -47h-465q5 -106 67.5 -167.5t167.5 -61.5q55 0 109.5 18t90.5 48l21 -30q-46 -39 -114 -57q-65 -29 -101.5 -71t-36.5 -83q0 -30 20.5 -51.5t50.5 -21.5q35 0 69 25l15 -25q-29 -24 -64 -29t-63 6t-46 36.5t-16 59.5q0 79 95 139q-7 -1 -31 -1
q-135 0 -204.5 82.5t-69.5 198.5q0 121 72 200q73 79 192 79q106 0 174 -67q70 -66 70 -180zM312 511q-94 0 -156 -60q-61 -60 -67 -160h427q0 101 -56 160q-56 60 -148 60z" />
    <glyph glyph-name="Ecaron" unicode="&#x11a;" horiz-adv-x="599" 
d="M311 798l-137 151h41l105 -114l105 114h42l-137 -151h-19zM548 0h-443v739h439v-37h-399v-310h374v-37h-374v-318h403v-37z" />
    <glyph glyph-name="ecaron" unicode="&#x11b;" horiz-adv-x="601" 
d="M458 772l-137 -151h-19l-137 151h41l105 -114l105 114h42zM556 301q0 -11 -3 -47h-465q5 -106 67.5 -167.5t167.5 -61.5q55 0 109.5 18t90.5 48l21 -30q-38 -32 -98 -52.5t-124 -20.5q-135 0 -204.5 82.5t-69.5 198.5q0 121 72 200q73 79 192 79q106 0 174 -67
q70 -66 70 -180zM312 511q-94 0 -156 -60q-61 -60 -67 -160h427q0 101 -56 160q-56 60 -148 60z" />
    <glyph glyph-name="Gcircumflex" unicode="&#x11c;" horiz-adv-x="824" 
d="M326 798h-41l137 151h19l137 -151h-42l-105 114zM430 -11q-164 0 -270 108q-107 109 -107 272q0 166 112 274q112 109 271 109q91 0 175 -38t133 -99l-28 -26q-44 57 -121 92q-75 34 -159 34q-146 0 -245 -99q-98 -100 -98 -247q0 -148 95 -246q96 -97 242 -97
q169 0 296 132v185h-323v37h362v-234q-136 -157 -335 -157z" />
    <glyph glyph-name="gcircumflex" unicode="&#x11d;" horiz-adv-x="661" 
d="M422 620l-105 114l-105 -114h-41l137 151h19l137 -151h-42zM537 416v119h39v-493q0 -125 -73 -197q-72 -72 -198 -72t-227 76l22 32q97 -71 206 -71q108 0 169 61.5t61 170.5v90q-33 -63 -91.5 -98.5t-132.5 -35.5q-114 0 -190 79q-75 79 -75 196q0 115 75 195
q77 80 189 80q74 0 133.5 -35.5t92.5 -96.5zM310 35q100 0 164 70q66 71 66 171t-66 167q-65 68 -164 68q-97 0 -160 -68q-63 -67 -63 -170q0 -101 63 -170q63 -68 160 -68z" />
    <glyph glyph-name="Gbreve" unicode="&#x11e;" horiz-adv-x="824" 
d="M275 946h37q3 -120 119 -120t119 120h38q0 -70 -42 -111t-115 -41t-114.5 40.5t-41.5 111.5zM430 -11q-164 0 -270 108q-107 109 -107 272q0 166 112 274q112 109 271 109q91 0 175 -38t133 -99l-28 -26q-44 57 -121 92q-75 34 -159 34q-146 0 -245 -99
q-98 -100 -98 -247q0 -148 95 -246q96 -97 242 -97q169 0 296 132v185h-323v37h362v-234q-136 -157 -335 -157z" />
    <glyph glyph-name="gbreve" unicode="&#x11f;" horiz-adv-x="661" 
d="M150 768h37q3 -120 119 -120t119 120h38q0 -70 -42 -111t-115 -41t-114.5 40.5t-41.5 111.5zM537 416v119h39v-493q0 -125 -73 -197q-72 -72 -198 -72t-227 76l22 32q97 -71 206 -71q108 0 169 61.5t61 170.5v90q-33 -63 -91.5 -98.5t-132.5 -35.5q-114 0 -190 79
q-75 79 -75 196q0 115 75 195q77 80 189 80q74 0 133.5 -35.5t92.5 -96.5zM310 35q100 0 164 70q66 71 66 171t-66 167q-65 68 -164 68q-97 0 -160 -68q-63 -67 -63 -170q0 -101 63 -170q63 -68 160 -68z" />
    <glyph glyph-name="Gdotaccent" unicode="&#x120;" horiz-adv-x="824" 
d="M394 854q0 18 12.5 30t29.5 12t29 -12t12 -30q0 -17 -12 -29t-29 -12t-29.5 12t-12.5 29zM430 -11q-164 0 -270 108q-107 109 -107 272q0 166 112 274q112 109 271 109q91 0 175 -38t133 -99l-28 -26q-44 57 -121 92q-75 34 -159 34q-146 0 -245 -99q-98 -100 -98 -247
q0 -148 95 -246q96 -97 242 -97q169 0 296 132v185h-323v37h362v-234q-136 -157 -335 -157z" />
    <glyph glyph-name="gdotaccent" unicode="&#x121;" horiz-adv-x="661" 
d="M273 664q0 18 12.5 30t29.5 12t29 -12t12 -30q0 -17 -12 -29t-29 -12t-29.5 12t-12.5 29zM537 416v119h39v-493q0 -125 -73 -197q-72 -72 -198 -72t-227 76l22 32q97 -71 206 -71q108 0 169 61.5t61 170.5v90q-33 -63 -91.5 -98.5t-132.5 -35.5q-114 0 -190 79
q-75 79 -75 196q0 115 75 195q77 80 189 80q74 0 133.5 -35.5t92.5 -96.5zM310 35q100 0 164 70q66 71 66 171t-66 167q-65 68 -164 68q-97 0 -160 -68q-63 -67 -63 -170q0 -101 63 -170q63 -68 160 -68z" />
    <glyph glyph-name="Gcommaaccent" unicode="&#x122;" horiz-adv-x="824" 
d="M403 343v37h362v-234q-136 -157 -335 -157q-164 0 -270 108q-107 109 -107 272q0 166 112 274q112 109 271 109q91 0 175 -38t133 -99l-28 -26q-44 57 -121 92q-75 34 -159 34q-146 0 -245 -99q-98 -100 -98 -247q0 -148 95 -246q96 -97 242 -97q169 0 296 132v185h-323z
M479 -94q0 -33 -25.5 -68t-69.5 -62l-12 18q67 43 82 95q-11 -11 -28 -11q-14 0 -25 11t-11 26q0 18 12.5 30t31.5 12t32 -14.5t13 -36.5z" />
    <glyph glyph-name="gcommaaccent" unicode="&#x123;" horiz-adv-x="661" 
d="M259 652q0 33 25.5 68t69.5 62l12 -18q-67 -43 -82 -95q11 11 28 11q14 0 25 -11t11 -26q0 -18 -12.5 -30t-31.5 -12t-32 14.5t-13 36.5zM537 416v119h39v-493q0 -125 -73 -197q-72 -72 -198 -72t-227 76l22 32q97 -71 206 -71q108 0 169 61.5t61 170.5v90
q-33 -63 -91.5 -98.5t-132.5 -35.5q-114 0 -190 79q-75 79 -75 196q0 115 75 195q77 80 189 80q74 0 133.5 -35.5t92.5 -96.5zM310 35q100 0 164 70q66 71 66 171t-66 167q-65 68 -164 68q-97 0 -160 -68q-63 -67 -63 -170q0 -101 63 -170q63 -68 160 -68z" />
    <glyph glyph-name="Hcircumflex" unicode="&#x124;" horiz-adv-x="724" 
d="M257 796h-41l137 151h19l137 -151h-42l-105 114zM145 0h-40v739h40v-360h434v360h40v-739h-40v342h-434v-342z" />
    <glyph glyph-name="hcircumflex" unicode="&#x125;" horiz-adv-x="630" 
d="M20 798h-41l137 151h19l137 -151h-42l-105 114zM145 0h-40v753h38v-325q46 121 196 121q92 0 152 -60q61 -58 61 -167v-322h-40v322q0 87 -46.5 138.5t-126.5 51.5q-32 0 -63.5 -10t-62 -32t-49.5 -65.5t-19 -102.5v-302z" />
    <glyph glyph-name="Hbar" unicode="&#x126;" horiz-adv-x="726" 
d="M632 572h79v-37h-79v-535h-40v342h-434v-342h-40v535h-79v37h79v167h40v-167h434v167h40v-167zM158 379h434v156h-434v-156z" />
    <glyph glyph-name="hbar" unicode="&#x127;" horiz-adv-x="630" 
d="M339 549q92 0 152 -60q61 -58 61 -167v-322h-40v322q0 87 -46.5 138.5t-126.5 51.5q-32 0 -63.5 -10t-62 -32t-49.5 -65.5t-19 -102.5v-302h-40v614h-93v37h93v102h38v-102h176v-37h-176v-186q46 121 196 121z" />
    <glyph glyph-name="Itilde" unicode="&#x128;" horiz-adv-x="250" 
d="M2 824l-26 11q12 36 39.5 59.5t62.5 23.5q34 0 72 -32t61 -32q21 0 40.5 17.5t28.5 40.5l24 -10q-9 -35 -36 -59t-61 -24q-37 0 -74 31t-60 31t-42.5 -17t-28.5 -40zM117 0v739h40v-739h-40z" />
    <glyph glyph-name="itilde" unicode="&#x129;" horiz-adv-x="210" 
d="M-23 634l-23 10q9 32 35 53.5t57 21.5t66 -29t55 -29q19 0 37.5 16.5t25.5 36.5l22 -9q-9 -32 -33 -54t-55 -22q-34 0 -68 28q-35 29 -54 29q-21 0 -39.5 -16t-25.5 -36zM119 535v-535h-40v535h40z" />
    <glyph glyph-name="Imacron" unicode="&#x12a;" horiz-adv-x="250" 
d="M303 828l-331 -1v37h331v-36zM117 0v739h40v-739h-40z" />
    <glyph glyph-name="imacron" unicode="&#x12b;" horiz-adv-x="210" 
d="M251 673l-301 -1v37h301v-36zM119 535v-535h-40v535h40z" />
    <glyph glyph-name="Ibreve" unicode="&#x12c;" horiz-adv-x="250" 
d="M-19 944h37q3 -120 119 -120t119 120h38q0 -70 -42 -111t-115 -41t-114.5 40.5t-41.5 111.5zM117 0v739h40v-739h-40z" />
    <glyph glyph-name="ibreve" unicode="&#x12d;" horiz-adv-x="210" 
d="M-57 769h37q3 -120 119 -120t119 120h38q0 -70 -42 -111t-115 -41t-114.5 40.5t-41.5 111.5zM119 535v-535h-40v535h40z" />
    <glyph glyph-name="Iogonek" unicode="&#x12e;" horiz-adv-x="250" 
d="M156 -203l15 -25q-29 -24 -64 -29t-63 6t-46 36.5t-16 59.5q0 97 135 161v733h40v-739q-66 -29 -103.5 -71.5t-37.5 -83.5q0 -30 20.5 -51.5t50.5 -21.5q35 0 69 25z" />
    <glyph glyph-name="iogonek" unicode="&#x12f;" horiz-adv-x="211" 
d="M59 664q0 18 12.5 30t29.5 12t29 -12t12 -30q0 -17 -12 -29t-29 -12t-29.5 12t-12.5 29zM50 -228q35 0 69 25l15 -25q-29 -24 -64 -29t-63 6t-46 36.5t-16 59.5q0 97 135 161v529h40v-535q-66 -29 -103.5 -71.5t-37.5 -83.5q0 -30 20.5 -51.5t50.5 -21.5z" />
    <glyph glyph-name="Idot" unicode="&#x130;" horiz-adv-x="250" 
d="M96 854q0 18 12.5 30t29.5 12t29 -12t12 -30q0 -17 -12 -29t-29 -12t-29.5 12t-12.5 29zM117 0v739h40v-739h-40z" />
    <glyph glyph-name="dotlessi" unicode="&#x131;" horiz-adv-x="210" 
d="M125 535v-535h-40v535h40z" />
    <glyph glyph-name="IJ" unicode="&#x132;" horiz-adv-x="761" 
d="M105 0v739h40v-739h-40zM459 -12q-128 0 -207 100l27 26q68 -89 179 -89q78 0 128 53t50 140v521h40v-510q0 -118 -62 -180q-61 -61 -155 -61z" />
    <glyph glyph-name="ij" unicode="&#x133;" horiz-adv-x="483" 
d="M58 664q0 18 12.5 30t29.5 12t29 -12t12 -30q0 -17 -12 -29t-29 -12t-29.5 12t-12.5 29zM311 664q0 18 12.5 30t29.5 12t29 -12t12 -30q0 -17 -12 -29t-29 -12t-29.5 12t-12.5 29zM119 535v-535h-40v535h40zM223 -228q-55 0 -98 25l14 34q41 -22 85 -22q51 0 79.5 33
t28.5 93v600h40v-600q0 -77 -40 -120t-109 -43z" />
    <glyph glyph-name="Jcircumflex" unicode="&#x134;" horiz-adv-x="535" 
d="M325 796h-41l137 151h19l137 -151h-42l-105 114zM233 -12q-128 0 -207 100l27 26q68 -89 179 -89q78 0 128 53t50 140v521h40v-510q0 -118 -62 -180q-61 -61 -155 -61z" />
    <glyph glyph-name="jcircumflex" unicode="&#x135;" horiz-adv-x="234" 
d="M23 619h-41l137 151h19l137 -151h-42l-105 114zM0 -228q-55 0 -98 25l14 34q41 -22 85 -22q51 0 79.5 33t28.5 93v600h40v-600q0 -77 -40 -120t-109 -43z" />
    <glyph glyph-name="Kcommaaccent" unicode="&#x136;" horiz-adv-x="600" 
d="M577 739l-296 -349l324 -390h-52l-300 359l-1 -1l-107 -124v-234h-40v739h40v-447l383 447h49zM386 -70q0 -33 -25.5 -68t-69.5 -62l-12 18q67 43 82 95q-11 -11 -28 -11q-15 0 -25.5 11t-10.5 26q0 18 12.5 30t31.5 12t32 -14.5t13 -36.5z" />
    <glyph glyph-name="kcommaaccent" unicode="&#x137;" horiz-adv-x="486" 
d="M458 535l-237 -214l271 -321h-50l-249 297l-68 -62v-235h-40v753h40v-469l281 251h52zM315 -86q0 -33 -25.5 -68t-69.5 -62l-12 18q67 43 82 95q-11 -11 -28 -11q-14 0 -25 11t-11 26q0 18 12.5 30t31.5 12t32 -14.5t13 -36.5z" />
    <glyph glyph-name="kgreenlandic" unicode="&#x138;" horiz-adv-x="486" 
d="M492 0h-50l-239 276l-78 -80v-196h-40v535h40v-290l281 290h52l-229 -233z" />
    <glyph glyph-name="Lacute" unicode="&#x139;" horiz-adv-x="590" 
d="M149 798h-33l60 156h53zM575 0h-461v739h40v-702h421v-37z" />
    <glyph glyph-name="lacute" unicode="&#x13a;" horiz-adv-x="206" 
d="M129 799h-33l60 156h53zM132 753v-753h-40v753h40z" />
    <glyph glyph-name="Lcommaaccent" unicode="&#x13b;" horiz-adv-x="581" 
d="M145 739v-702h421v-37h-461v739h40zM378 -84q0 -33 -25.5 -68t-69.5 -62l-12 18q67 43 82 95q-11 -11 -28 -11q-15 0 -25.5 11t-10.5 26q0 18 12.5 30t31.5 12t32 -14.5t13 -36.5z" />
    <glyph glyph-name="lcommaaccent" unicode="&#x13c;" horiz-adv-x="210" 
d="M96 753h40v-753h-40v753zM163 -95q0 -33 -25.5 -68t-69.5 -62l-12 18q67 43 82 95q-11 -11 -28 -11q-14 0 -25 10.5t-11 26.5q0 18 12.5 30t31.5 12t32 -14.5t13 -36.5z" />
    <glyph glyph-name="Lcaron" unicode="&#x13d;" horiz-adv-x="584" 
d="M454 618h-34l57 151h50zM566 0h-461v739h40v-702h421v-37z" />
    <glyph glyph-name="lcaron" unicode="&#x13e;" horiz-adv-x="229" 
d="M228 629h-34l57 151h50zM125 753v-753h-40v753h40z" />
    <glyph glyph-name="Ldot" unicode="&#x13f;" horiz-adv-x="582" 
d="M566 0h-461v739h40v-702h421v-37zM420 350q-24 -1 -34.5 19t0 39.5t34.5 18.5q16 0 27.5 -11t11.5 -27q0 -17 -11.5 -28t-27.5 -11z" />
    <glyph glyph-name="ldot" unicode="&#x140;" horiz-adv-x="266" 
d="M125 753v-753h-40v753h40zM235 315q-24 -1 -34.5 19t0 39.5t34.5 18.5q16 0 27.5 -11t11.5 -27q0 -17 -11.5 -28t-27.5 -11z" />
    <glyph glyph-name="Lslash" unicode="&#x141;" horiz-adv-x="597" 
d="M161 337v-300h421v-37h-461v309l-95 -67v44l95 67v386h40v-357l137 97v-45z" />
    <glyph glyph-name="lslash" unicode="&#x142;" horiz-adv-x="274" 
d="M168 416l79 65v-50l-79 -65v-366h-40v333l-78 -64v49l78 65v370h40v-337z" />
    <glyph glyph-name="Nacute" unicode="&#x143;" horiz-adv-x="764" 
d="M399 798h-33l60 156h53zM619 85v654h40v-739h-24l-490 647v-647h-40v739h20z" />
    <glyph glyph-name="nacute" unicode="&#x144;" horiz-adv-x="610" 
d="M319 621h-33l60 156h53zM125 0h-40v535h38v-107q46 121 196 121q92 0 152 -60q61 -58 61 -167v-322h-40v322q0 87 -46.5 138.5t-126.5 51.5q-32 0 -63.5 -10t-62 -32t-49.5 -65.5t-19 -102.5v-302z" />
    <glyph glyph-name="Ncommaaccent" unicode="&#x145;" horiz-adv-x="764" 
d="M619 85v654h40v-739h-24l-490 647v-647h-40v739h20zM435 -87q0 -33 -25.5 -68t-69.5 -62l-12 18q67 43 82 95q-11 -11 -28 -11q-14 0 -25 10.5t-11 26.5q0 18 12.5 30t31.5 12t32 -14.5t13 -36.5z" />
    <glyph glyph-name="ncommaaccent" unicode="&#x146;" horiz-adv-x="610" 
d="M319 549q92 0 152 -60q61 -58 61 -167v-322h-40v322q0 87 -46.5 138.5t-126.5 51.5q-32 0 -63.5 -10t-62 -32t-49.5 -65.5t-19 -102.5v-302h-40v535h38v-107q46 121 196 121zM359 -87q0 -33 -25.5 -68t-69.5 -62l-12 18q67 43 82 95q-11 -11 -28 -11q-14 0 -25 10.5
t-11 26.5q0 18 12.5 30t31.5 12t32 -14.5t13 -36.5z" />
    <glyph glyph-name="Ncaron" unicode="&#x147;" horiz-adv-x="764" 
d="M382 798l-137 151h41l105 -114l105 114h42l-137 -151h-19zM619 85v654h40v-739h-24l-490 647v-647h-40v739h20z" />
    <glyph glyph-name="ncaron" unicode="&#x148;" horiz-adv-x="610" 
d="M300 620l-137 151h41l105 -114l105 114h42l-137 -151h-19zM125 0h-40v535h38v-107q46 121 196 121q92 0 152 -60q61 -58 61 -167v-322h-40v322q0 87 -46.5 138.5t-126.5 51.5q-32 0 -63.5 -10t-62 -32t-49.5 -65.5t-19 -102.5v-302z" />
    <glyph glyph-name="napostrophe" unicode="&#x149;" horiz-adv-x="623" 
d="M11 629h-34l57 151h50zM138 0h-40v535h38v-107q46 121 196 121q92 0 152 -60q61 -58 61 -167v-322h-40v322q0 87 -46.5 138.5t-126.5 51.5q-32 0 -63.5 -10t-62 -32t-49.5 -65.5t-19 -102.5v-302z" />
    <glyph glyph-name="Eng" unicode="&#x14a;" horiz-adv-x="764" 
d="M619 85v654h40v-768q0 -104 -56 -163t-148 -59q-78 0 -154 44l17 33q64 -40 138 -40q75 0 119 50t44 132v53l-474 626v-647h-40v739h20z" />
    <glyph glyph-name="eng" unicode="&#x14b;" horiz-adv-x="590" 
d="M306 -225l4 37q162 -20 162 156v365q0 82 -45 130.5t-119 48.5q-61 0 -116 -37q-67 -45 -67 -163v-312h-40v535h38v-97q23 53 71.5 82t111.5 29q88 0 146 -57q60 -56 60 -159v-345q0 -121 -50.5 -172.5t-155.5 -40.5z" />
    <glyph glyph-name="Omacron" unicode="&#x14c;" horiz-adv-x="862" 
d="M595 828l-331 -1v37h331v-36zM699 100q-109 -112 -268 -112q-158 0 -269 112q-110 113 -110 270t110 270q111 112 269 112q159 0 268 -112q111 -112 111 -270t-111 -270zM191 126q99 -101 240 -101t240 101q99 100 99 244t-99 244q-99 101 -240 101t-240 -101
q-99 -100 -99 -244q0 -143 99 -244z" />
    <glyph glyph-name="omacron" unicode="&#x14d;" horiz-adv-x="648" 
d="M474 672l-301 -1v37h301v-36zM47 268q0 119 79 199q80 81 198 81t198 -81q79 -80 79 -199q0 -120 -79 -200q-80 -81 -198 -81t-198 81q-79 80 -79 200zM154 94q67 -70 170 -70t170 70t67 174q0 105 -67 173q-67 70 -170 70t-170 -70q-67 -68 -67 -173q0 -104 67 -174z
" />
    <glyph glyph-name="Obreve" unicode="&#x14e;" horiz-adv-x="862" 
d="M273 944h37q3 -120 119 -120t119 120h38q0 -70 -42 -111t-115 -41t-114.5 40.5t-41.5 111.5zM699 100q-109 -112 -268 -112q-158 0 -269 112q-110 113 -110 270t110 270q111 112 269 112q159 0 268 -112q111 -112 111 -270t-111 -270zM191 126q99 -101 240 -101t240 101
q99 100 99 244t-99 244q-99 101 -240 101t-240 -101q-99 -100 -99 -244q0 -143 99 -244z" />
    <glyph glyph-name="obreve" unicode="&#x14f;" horiz-adv-x="648" 
d="M171 770h37q3 -120 119 -120t119 120h38q0 -70 -42 -111t-115 -41t-114.5 40.5t-41.5 111.5zM47 268q0 119 79 199q80 81 198 81t198 -81q79 -80 79 -199q0 -120 -79 -200q-80 -81 -198 -81t-198 81q-79 80 -79 200zM154 94q67 -70 170 -70t170 70t67 174q0 105 -67 173
q-67 70 -170 70t-170 -70q-67 -68 -67 -173q0 -104 67 -174z" />
    <glyph glyph-name="Ohungarumlaut" unicode="&#x150;" horiz-adv-x="862" 
d="M363 795h-24l48 156h51zM504 795h-25l65 156h52zM699 100q-109 -112 -268 -112q-158 0 -269 112q-110 113 -110 270t110 270q111 112 269 112q159 0 268 -112q111 -112 111 -270t-111 -270zM191 126q99 -101 240 -101t240 101q99 100 99 244t-99 244q-99 101 -240 101
t-240 -101q-99 -100 -99 -244q0 -143 99 -244z" />
    <glyph glyph-name="ohungarumlaut" unicode="&#x151;" horiz-adv-x="648" 
d="M264 620h-24l48 156h51zM405 620h-25l65 156h52zM47 268q0 119 79 199q80 81 198 81t198 -81q79 -80 79 -199q0 -120 -79 -200q-80 -81 -198 -81t-198 81q-79 80 -79 200zM154 94q67 -70 170 -70t170 70t67 174q0 105 -67 173q-67 70 -170 70t-170 -70q-67 -68 -67 -173
q0 -104 67 -174z" />
    <glyph glyph-name="OE" unicode="&#x152;" horiz-adv-x="967" 
d="M513 355v-318h403v-37h-439q-46 -2 -48 -2q-189 0 -280 100q-92 101 -92 270q0 170 90 271q90 102 273 102q5 0 47 -2h445v-37h-399v-310h374v-37h-374zM418 36q7 0 55 2v663q-48 2 -55 2q-87 0 -151 -27t-100 -74.5t-53 -105t-17 -126.5q0 -70 16.5 -128t52.5 -105.5
t100 -74t152 -26.5z" />
    <glyph glyph-name="oe" unicode="&#x153;" horiz-adv-x="1064" 
d="M1018 301q0 -11 -3 -47h-439q5 -106 64 -167.5t158 -61.5q52 0 103.5 18t84.5 48l20 -30q-37 -32 -93 -52.5t-116 -20.5q-93 0 -155 47t-88 128q-30 -80 -95.5 -127.5t-148.5 -47.5q-112 0 -188 81q-75 81 -75 200q0 118 75 199q76 81 188 81q83 0 149 -47.5t95 -126.5
q25 80 87 126.5t146 46.5q99 0 165 -67q66 -66 66 -180zM534 269q0 103 -64 173q-63 70 -160 70t-160 -70q-63 -69 -63 -173q0 -103 63 -174q63 -70 160 -70t160 70q64 70 64 174zM787 511q-90 0 -147 -60t-63 -160h403q0 101 -53 160q-53 60 -140 60z" />
    <glyph glyph-name="Racute" unicode="&#x154;" horiz-adv-x="607" 
d="M329 954h53l-80 -156h-33zM363 322l189 -322h-46l-184 318q-5 -1 -22 -1h-155v-317h-40v739h208q115 0 175 -62q61 -61 61 -149q0 -74 -48 -132q-46 -57 -138 -74zM145 702v-348h157q96 0 151.5 48t55.5 127t-53.5 126t-142.5 47h-168z" />
    <glyph glyph-name="racute" unicode="&#x155;" horiz-adv-x="357" 
d="M210 620h-33l60 156h53zM125 0h-40v535h37v-90q44 104 156 104q37 0 68 -10l-6 -36q-27 9 -58 9q-80 0 -119 -57q-38 -58 -38 -139v-316z" />
    <glyph glyph-name="Rcommaaccent" unicode="&#x156;" horiz-adv-x="607" 
d="M363 322l189 -322h-46l-184 318q-5 -1 -22 -1h-155v-317h-40v739h208q115 0 175 -62q61 -61 61 -149q0 -74 -48 -132q-46 -57 -138 -74zM145 702v-348h157q96 0 151.5 48t55.5 127t-53.5 126t-142.5 47h-168zM358 -76q0 -33 -25.5 -68t-69.5 -62l-12 18q67 43 82 95
q-11 -11 -28 -11q-15 0 -25.5 11t-10.5 26q0 18 12.5 30t31.5 12t32 -14.5t13 -36.5z" />
    <glyph glyph-name="rcommaaccent" unicode="&#x157;" horiz-adv-x="367" 
d="M288 549q37 0 68 -10l-6 -36q-27 9 -58 9q-80 0 -119 -57q-38 -58 -38 -139v-316h-40v535h37v-90q44 104 156 104zM163 -89q0 -33 -25.5 -68t-69.5 -62l-12 18q67 43 82 95q-11 -11 -28 -11q-14 0 -25 10.5t-11 26.5q0 18 12.5 30t31.5 12t32 -14.5t13 -36.5z" />
    <glyph glyph-name="Rcaron" unicode="&#x158;" horiz-adv-x="607" 
d="M446 949l-137 -151h-19l-137 151h41l105 -114l105 114h42zM363 322l189 -322h-46l-184 318q-5 -1 -22 -1h-155v-317h-40v739h208q115 0 175 -62q61 -61 61 -149q0 -74 -48 -132q-46 -57 -138 -74zM145 702v-348h157q96 0 151.5 48t55.5 127t-53.5 126t-142.5 47h-168z
" />
    <glyph glyph-name="rcaron" unicode="&#x159;" horiz-adv-x="364" 
d="M197 621l-137 151h41l105 -114l105 114h42l-137 -151h-19zM135 0h-40v535h37v-90q44 104 156 104q37 0 68 -10l-6 -36q-27 9 -58 9q-80 0 -119 -57q-38 -58 -38 -139v-316z" />
    <glyph glyph-name="Sacute" unicode="&#x15a;" horiz-adv-x="547" 
d="M287 796h-33l60 156h53zM274 -12q-80 0 -143.5 39.5t-96.5 114.5l34 17q60 -134 203 -134q83 0 135 45q54 46 54 116q0 47 -26 80t-84 60q-32 15 -79 34l-63 26q-136 60 -136 178q0 82 57 135q58 53 150 53q131 0 205 -110l-31 -22q-65 95 -173 95q-74 0 -121 -42
t-47 -109q0 -45 24.5 -78t82.5 -62q18 -9 75 -33q53 -21 77 -32q129 -61 129 -173q0 -87 -65 -143q-64 -55 -161 -55z" />
    <glyph glyph-name="sacute" unicode="&#x15b;" horiz-adv-x="438" 
d="M229 620h-33l60 156h53zM220 -12q-61 0 -110 29.5t-76 86.5l34 19q48 -98 150 -98q60 0 99 34t39 83q0 34 -19.5 56.5t-60.5 41.5q-11 6 -64 26q-37 14 -61 26q-89 44 -89 123q0 60 43.5 99t116.5 39q106 0 157 -83l-29 -20q-39 66 -126 66q-57 0 -90 -27.5t-33 -72.5
q0 -58 69 -92q22 -10 62 -26q41 -16 68 -29q50 -23 73 -51t23 -72q0 -66 -50 -113q-50 -45 -126 -45z" />
    <glyph glyph-name="Scircumflex" unicode="&#x15c;" horiz-adv-x="547" 
d="M179 794h-41l137 151h19l137 -151h-42l-105 114zM274 -12q-80 0 -143.5 39.5t-96.5 114.5l34 17q60 -134 203 -134q83 0 135 45q54 46 54 116q0 47 -26 80t-84 60q-32 15 -79 34l-63 26q-136 60 -136 178q0 82 57 135q58 53 150 53q131 0 205 -110l-31 -22
q-65 95 -173 95q-74 0 -121 -42t-47 -109q0 -45 24.5 -78t82.5 -62q18 -9 75 -33q53 -21 77 -32q129 -61 129 -173q0 -87 -65 -143q-64 -55 -161 -55z" />
    <glyph glyph-name="scircumflex" unicode="&#x15d;" horiz-adv-x="438" 
d="M115 620h-41l137 151h19l137 -151h-42l-105 114zM220 -12q-61 0 -110 29.5t-76 86.5l34 19q48 -98 150 -98q60 0 99 34t39 83q0 34 -19.5 56.5t-60.5 41.5q-11 6 -64 26q-37 14 -61 26q-89 44 -89 123q0 60 43.5 99t116.5 39q106 0 157 -83l-29 -20q-39 66 -126 66
q-57 0 -90 -27.5t-33 -72.5q0 -58 69 -92q22 -10 62 -26q41 -16 68 -29q50 -23 73 -51t23 -72q0 -66 -50 -113q-50 -45 -126 -45z" />
    <glyph glyph-name="Scedilla" unicode="&#x15e;" horiz-adv-x="547" 
d="M500 186q0 -87 -65 -143q-64 -53 -160 -55l-27 -70q12 3 37 3q41 0 67.5 -22.5t26.5 -61.5q0 -44 -34.5 -74.5t-92.5 -30.5q-47 0 -95 22l12 29q42 -20 83 -20t67 22t26 51q0 24 -17.5 39t-50.5 15h-62l-7 13l32 87q-146 17 -206 152l34 17q60 -134 203 -134q83 0 135 45
q54 46 54 116q0 47 -26 80t-84 60q-32 15 -79 34l-63 26q-136 60 -136 178q0 82 57 135q58 53 150 53q131 0 205 -110l-31 -22q-65 95 -173 95q-74 0 -121 -42t-47 -109q0 -45 24.5 -78t82.5 -62q18 -9 75 -33q53 -21 77 -32q129 -61 129 -173z" />
    <glyph glyph-name="scedilla" unicode="&#x15f;" horiz-adv-x="438" 
d="M220 -12h-4l-20 -52q12 3 37 3q41 0 67.5 -22.5t26.5 -61.5q0 -44 -34.5 -74.5t-92.5 -30.5q-47 0 -95 22l12 29q42 -20 83 -20t67 22t26 51q0 24 -17.5 39t-50.5 15h-62l-7 13l26 70q-101 16 -148 113l34 19q48 -98 150 -98q60 0 99 34t39 83q0 34 -19.5 56.5
t-60.5 41.5q-11 6 -64 26q-37 14 -61 26q-89 44 -89 123q0 60 43.5 99t116.5 39q106 0 157 -83l-29 -20q-39 66 -126 66q-57 0 -90 -27.5t-33 -72.5q0 -58 69 -92q22 -10 62 -26q41 -16 68 -29q50 -23 73 -51t23 -72q0 -66 -50 -113q-50 -45 -126 -45z" />
    <glyph glyph-name="Scaron" unicode="&#x160;" horiz-adv-x="547" 
d="M282 796l-137 151h41l105 -114l105 114h42l-137 -151h-19zM274 -12q-80 0 -143.5 39.5t-96.5 114.5l34 17q60 -134 203 -134q83 0 135 45q54 46 54 116q0 47 -26 80t-84 60q-32 15 -79 34l-63 26q-136 60 -136 178q0 82 57 135q58 53 150 53q131 0 205 -110l-31 -22
q-65 95 -173 95q-74 0 -121 -42t-47 -109q0 -45 24.5 -78t82.5 -62q18 -9 75 -33q53 -21 77 -32q129 -61 129 -173q0 -87 -65 -143q-64 -55 -161 -55z" />
    <glyph glyph-name="scaron" unicode="&#x161;" horiz-adv-x="438" 
d="M209 620l-137 151h41l105 -114l105 114h42l-137 -151h-19zM220 -12q-61 0 -110 29.5t-76 86.5l34 19q48 -98 150 -98q60 0 99 34t39 83q0 34 -19.5 56.5t-60.5 41.5q-11 6 -64 26q-37 14 -61 26q-89 44 -89 123q0 60 43.5 99t116.5 39q106 0 157 -83l-29 -20
q-39 66 -126 66q-57 0 -90 -27.5t-33 -72.5q0 -58 69 -92q22 -10 62 -26q41 -16 68 -29q50 -23 73 -51t23 -72q0 -66 -50 -113q-50 -45 -126 -45z" />
    <glyph glyph-name="Tcaron" unicode="&#x164;" horiz-adv-x="523" 
d="M253 798l-137 151h41l105 -114l105 114h42l-137 -151h-19zM242 0v702h-227v37h493v-37h-226v-702h-40z" />
    <glyph glyph-name="tcaron" unicode="&#x165;" horiz-adv-x="414" 
d="M403 777h50l-73 -151h-34zM265 25q70 0 122 40l19 -30q-62 -47 -144 -47q-76 0 -115.5 47.5t-39.5 132.5v330h-95v37h95v189h40v-189h240v-37h-240v-327q0 -71 30 -108.5t88 -37.5z" />
    <glyph glyph-name="Tbar" unicode="&#x166;" horiz-adv-x="563" 
d="M528 739v-37h-226v-282h180v-37h-180v-383h-40v383h-180v37h180v282h-227v37h493z" />
    <glyph glyph-name="tbar" unicode="&#x167;" horiz-adv-x="416" 
d="M393 65l19 -30q-62 -47 -144 -47q-76 0 -115.5 47.5t-39.5 132.5v145h-93v37h93v148h-95v37h95v189h40v-189h240v-37h-240v-148h238v-37h-238v-142q0 -71 30 -108.5t88 -37.5q70 0 122 40z" />
    <glyph glyph-name="Utilde" unicode="&#x168;" horiz-adv-x="673" 
d="M202 816l-26 11q12 36 39.5 59.5t62.5 23.5q34 0 72 -32t61 -32q21 0 40.5 17.5t28.5 40.5l24 -10q-9 -35 -36 -59t-61 -24q-37 0 -74 31t-60 31t-42.5 -17t-28.5 -40zM97 236v503h40v-499q0 -101 53 -157t147 -56t146.5 56t52.5 157v499h40v-503q0 -115 -65 -183
q-65 -66 -174 -66t-175 66q-65 68 -65 183z" />
    <glyph glyph-name="utilde" unicode="&#x169;" 
d="M163 634l-23 10q9 32 35 53.5t57 21.5t66 -29t55 -29q19 0 37.5 16.5t25.5 36.5l22 -9q-9 -32 -33 -54t-55 -22q-34 0 -68 28q-35 29 -54 29q-21 0 -39.5 -16t-25.5 -36zM290 -13q-96 0 -155 59q-57 60 -57 159v330h40v-329q0 -84 46.5 -133t125.5 -49q81 0 126.5 48.5
t45.5 134.5v328h40v-330q0 -100 -56.5 -159t-155.5 -59z" />
    <glyph glyph-name="Umacron" unicode="&#x16a;" horiz-adv-x="673" 
d="M491 828l-331 -1v37h331v-36zM97 236v503h40v-499q0 -101 53 -157t147 -56t146.5 56t52.5 157v499h40v-503q0 -115 -65 -183q-65 -66 -174 -66t-175 66q-65 68 -65 183z" />
    <glyph glyph-name="umacron" unicode="&#x16b;" 
d="M441 662l-301 -1v37h301v-36zM290 -13q-96 0 -155 59q-57 60 -57 159v330h40v-329q0 -84 46.5 -133t125.5 -49q81 0 126.5 48.5t45.5 134.5v328h40v-330q0 -100 -56.5 -159t-155.5 -59z" />
    <glyph glyph-name="Ubreve" unicode="&#x16c;" horiz-adv-x="673" 
d="M178 944h37q3 -120 119 -120t119 120h38q0 -70 -42 -111t-115 -41t-114.5 40.5t-41.5 111.5zM97 236v503h40v-499q0 -101 53 -157t147 -56t146.5 56t52.5 157v499h40v-503q0 -115 -65 -183q-65 -66 -174 -66t-175 66q-65 68 -65 183z" />
    <glyph glyph-name="ubreve" unicode="&#x16d;" 
d="M133 767h37q3 -120 119 -120t119 120h38q0 -70 -42 -111t-115 -41t-114.5 40.5t-41.5 111.5zM290 -13q-96 0 -155 59q-57 60 -57 159v330h40v-329q0 -84 46.5 -133t125.5 -49q81 0 126.5 48.5t45.5 134.5v328h40v-330q0 -100 -56.5 -159t-155.5 -59z" />
    <glyph glyph-name="Uring" unicode="&#x16e;" horiz-adv-x="673" 
d="M227 897q0 45 32 77t78 32t78 -32t32 -77q0 -44 -32 -76q-31 -31 -78 -31t-78 31q-32 32 -32 76zM417 897q0 34 -23 57t-57 23t-57 -23t-23 -57q0 -33 23 -55.5t57 -22.5t57 22.5t23 55.5zM97 236v503h40v-499q0 -101 53 -157t147 -56t146.5 56t52.5 157v499h40v-503
q0 -115 -65 -183q-65 -66 -174 -66t-175 66q-65 68 -65 183z" />
    <glyph glyph-name="uring" unicode="&#x16f;" 
d="M180 700q0 45 32 77t78 32t78 -32t32 -77q0 -44 -32 -76q-31 -31 -78 -31t-78 31q-32 32 -32 76zM370 700q0 34 -23 57t-57 23t-57 -23t-23 -57q0 -33 23 -55.5t57 -22.5t57 22.5t23 55.5zM290 -13q-96 0 -155 59q-57 60 -57 159v330h40v-329q0 -84 46.5 -133t125.5 -49
q81 0 126.5 48.5t45.5 134.5v328h40v-330q0 -100 -56.5 -159t-155.5 -59z" />
    <glyph glyph-name="Uhungarumlaut" unicode="&#x170;" horiz-adv-x="673" 
d="M259 795h-24l48 156h51zM400 795h-25l65 156h52zM97 236v503h40v-499q0 -101 53 -157t147 -56t146.5 56t52.5 157v499h40v-503q0 -115 -65 -183q-65 -66 -174 -66t-175 66q-65 68 -65 183z" />
    <glyph glyph-name="uhungarumlaut" unicode="&#x171;" 
d="M216 620h-24l48 156h51zM357 620h-25l65 156h52zM290 -13q-96 0 -155 59q-57 60 -57 159v330h40v-329q0 -84 46.5 -133t125.5 -49q81 0 126.5 48.5t45.5 134.5v328h40v-330q0 -100 -56.5 -159t-155.5 -59z" />
    <glyph glyph-name="Uogonek" unicode="&#x172;" horiz-adv-x="673" 
d="M536 240v499h40v-503q0 -89 -39 -150t-109 -85q-62 -29 -96.5 -69.5t-34.5 -80.5q0 -30 20.5 -51.5t50.5 -21.5q35 0 69 25l15 -25q-29 -24 -64 -29t-63 6t-46 36.5t-16 59.5q0 78 91 136h-17q-109 0 -175 66q-65 68 -65 183v503h40v-499q0 -101 53 -157t147 -56
t146.5 56t52.5 157z" />
    <glyph glyph-name="uogonek" unicode="&#x173;" 
d="M462 207v328h40v-330q0 -76 -33.5 -129t-94.5 -75q-65 -29 -102.5 -71.5t-37.5 -83.5q0 -30 20.5 -51.5t50.5 -21.5q35 0 69 25l15 -25q-29 -24 -64 -29t-63 6t-46 36.5t-16 59.5q0 81 98 141h-8q-96 0 -155 59q-57 60 -57 159v330h40v-329q0 -84 46.5 -133t125.5 -49
q81 0 126.5 48.5t45.5 134.5z" />
    <glyph glyph-name="Wcircumflex" unicode="&#x174;" horiz-adv-x="1000" 
d="M394 796h-41l137 151h19l137 -151h-42l-105 114zM280 0h-19l-242 739h37l214 -666l221 666h18l223 -665l212 665h36l-239 -739h-19l-222 663z" />
    <glyph glyph-name="wcircumflex" unicode="&#x175;" horiz-adv-x="801" 
d="M295 619h-41l137 151h19l137 -151h-42l-105 114zM231 1h-20l-193 534h42l161 -462l167 462l25 -1l167 -461l161 462h42l-193 -534h-20l-170 476z" />
    <glyph glyph-name="Ycircumflex" unicode="&#x176;" 
d="M186 796h-41l137 151h19l137 -151h-42l-105 114zM514 739h44l-248 -429v-310h-40v310l-247 429h44l223 -394z" />
    <glyph glyph-name="ycircumflex" unicode="&#x177;" horiz-adv-x="519" 
d="M368 619l-105 114l-105 -114h-41l137 151h19l137 -151h-42zM264 48l196 487h42l-225 -558q-45 -113 -84 -158q-39 -46 -101 -46q-40 0 -74 19l9 35q36 -17 67 -17q46 0 78 40t65 126l8 22l-226 537h41z" />
    <glyph glyph-name="Ydieresis" unicode="&#x178;" 
d="M156 857q0 18 13.5 31.5t33.5 13.5t33.5 -13.5t13.5 -31.5q2 -28 -22.5 -40t-49 0t-22.5 40zM332 857q0 18 13.5 31.5t33.5 13.5t33.5 -13.5t13.5 -31.5q2 -28 -22.5 -40t-49 0t-22.5 40zM514 739h44l-248 -429v-310h-40v310l-247 429h44l223 -394z" />
    <glyph glyph-name="Zacute" unicode="&#x179;" horiz-adv-x="552" 
d="M301 798h-33l60 156h53zM523 0h-500v25l445 677h-426v37h470v-39l-434 -663h445v-37z" />
    <glyph glyph-name="zacute" unicode="&#x17a;" horiz-adv-x="458" 
d="M237 620h-33l60 156h53zM412 497l-337 -461h356v-36h-404v31l343 467h-326v36h368v-37z" />
    <glyph glyph-name="Zdotaccent" unicode="&#x17b;" horiz-adv-x="552" 
d="M243 854q0 18 12.5 30t29.5 12t29 -12t12 -30q0 -17 -12 -29t-29 -12t-29.5 12t-12.5 29zM523 0h-500v25l445 677h-426v37h470v-39l-434 -663h445v-37z" />
    <glyph glyph-name="zdotaccent" unicode="&#x17c;" horiz-adv-x="458" 
d="M194 661q0 18 12.5 30t29.5 12t29 -12t12 -30q0 -17 -12 -29t-29 -12t-29.5 12t-12.5 29zM412 497l-337 -461h356v-36h-404v31l343 467h-326v36h368v-37z" />
    <glyph glyph-name="Zcaron" unicode="&#x17d;" horiz-adv-x="552" 
d="M278 798l-137 151h41l105 -114l105 114h42l-137 -151h-19zM523 0h-500v25l445 677h-426v37h470v-39l-434 -663h445v-37z" />
    <glyph glyph-name="zcaron" unicode="&#x17e;" horiz-adv-x="458" 
d="M220 620l-137 151h41l105 -114l105 114h42l-137 -151h-19zM412 497l-337 -461h356v-36h-404v31l343 467h-326v36h368v-37z" />
    <glyph glyph-name="Scommaaccent" unicode="&#x218;" horiz-adv-x="547" 
d="M371 359q129 -61 129 -173q0 -87 -65 -143q-64 -55 -161 -55q-80 0 -143.5 39.5t-96.5 114.5l34 17q60 -134 203 -134q83 0 135 45q54 46 54 116q0 47 -26 80t-84 60q-32 15 -79 34l-63 26q-136 60 -136 178q0 82 57 135q58 53 150 53q131 0 205 -110l-31 -22
q-65 95 -173 95q-74 0 -121 -42t-47 -109q0 -45 24.5 -78t82.5 -62q18 -9 75 -33q53 -21 77 -32zM320 -106q0 -33 -25.5 -68t-69.5 -62l-12 18q67 43 82 95q-11 -11 -28 -11q-15 0 -25.5 11t-10.5 26q0 18 12.5 30t31.5 12t32 -14.5t13 -36.5z" />
    <glyph glyph-name="scommaaccent" unicode="&#x219;" horiz-adv-x="438" 
d="M300 269q50 -23 73 -51t23 -72q0 -66 -50 -113q-50 -45 -126 -45q-61 0 -110 29.5t-76 86.5l34 19q48 -98 150 -98q60 0 99 34t39 83q0 34 -19.5 56.5t-60.5 41.5q-11 6 -64 26q-37 14 -61 26q-89 44 -89 123q0 60 43.5 99t116.5 39q106 0 157 -83l-29 -20
q-39 66 -126 66q-57 0 -90 -27.5t-33 -72.5q0 -58 69 -92q22 -10 62 -26q41 -16 68 -29zM261 -103q0 -33 -25.5 -68t-69.5 -62l-12 18q67 43 82 95q-11 -11 -28 -11q-14 0 -25 10.5t-11 26.5q0 18 12.5 30t31.5 12t32 -14.5t13 -36.5z" />
    <glyph glyph-name="uni021A" unicode="&#x21a;" horiz-adv-x="523" 
d="M15 702v37h493v-37h-226v-702h-40v702h-227zM309 -86q0 -33 -25.5 -68t-69.5 -62l-12 18q67 43 82 95q-11 -11 -28 -11q-14 0 -25 11t-11 26q0 18 12.5 30t31.5 12t32 -14.5t13 -36.5z" />
    <glyph glyph-name="uni021B" unicode="&#x21b;" horiz-adv-x="408" 
d="M387 65l19 -30q-62 -47 -144 -47q-76 0 -115.5 47.5t-39.5 132.5v330h-95v37h95v189h40v-189h240v-37h-240v-327q0 -71 30 -108.5t88 -37.5q70 0 122 40zM303 -115q0 -33 -25.5 -68t-69.5 -62l-12 18q67 43 82 95q-11 -11 -28 -11q-14 0 -25 10.5t-11 26.5q0 18 12.5 30
t31.5 12t32 -14.5t13 -36.5z" />
    <glyph glyph-name="uni0237" unicode="&#x237;" horiz-adv-x="234" 
d="M-98 -228q-55 0 -98 25l14 34q41 -22 85 -22q51 0 79.5 33t28.5 93v600h40v-600q0 -77 -40 -120t-109 -43z" />
    <glyph glyph-name="circumflex" unicode="&#x2c6;" horiz-adv-x="575" 
d="M101 627h-41l137 151h19l137 -151h-42l-105 114z" />
    <glyph glyph-name="caron" unicode="&#x2c7;" horiz-adv-x="549" 
d="M197 624l-137 151h41l105 -114l105 114h42l-137 -151h-19z" />
    <glyph glyph-name="breve" unicode="&#x2d8;" horiz-adv-x="443" 
d="M60 776h37q3 -120 119 -120t119 120h38q0 -70 -42 -111t-115 -41t-114.5 40.5t-41.5 111.5z" />
    <glyph glyph-name="dotaccent" unicode="&#x2d9;" horiz-adv-x="300" 
d="M60 664q0 18 12.5 30t29.5 12t29 -12t12 -30q0 -17 -12 -29t-29 -12t-29.5 12t-12.5 29z" />
    <glyph glyph-name="ring" unicode="&#x2da;" horiz-adv-x="378" 
d="M60 715q0 45 32 77t78 32t78 -32t32 -77q0 -44 -32 -76q-31 -31 -78 -31t-78 31q-32 32 -32 76zM250 715q0 34 -23 57t-57 23t-57 -23t-23 -57q0 -33 23 -55.5t57 -22.5t57 22.5t23 55.5z" />
    <glyph glyph-name="ogonek" unicode="&#x2db;" horiz-adv-x="387" 
d="M234 -203l15 -25q-29 -24 -64 -29t-63 6t-46 36.5t-16 59.5q0 103 154 170l21 -15q-66 -29 -103.5 -71.5t-37.5 -83.5q0 -30 20.5 -51.5t50.5 -21.5q35 0 69 25z" />
    <glyph glyph-name="tilde" unicode="&#x2dc;" horiz-adv-x="539" 
d="M87 662l-23 10q9 32 35 53.5t57 21.5t66 -29t55 -29q19 0 37.5 16.5t25.5 36.5l22 -9q-9 -32 -33 -54t-55 -22q-34 0 -68 28q-35 29 -54 29q-21 0 -39.5 -16t-25.5 -36z" />
    <glyph glyph-name="hungarumlaut" unicode="&#x2dd;" horiz-adv-x="513" 
d="M73 620h-24l48 156h51zM214 620h-25l65 156h52z" />
    <glyph glyph-name="uni0394" unicode="&#x394;" horiz-adv-x="697" 
d="M681 0h-665v26l323 713h20l322 -713v-26zM349 667l-284 -630h567z" />
    <glyph glyph-name="uni03A9" unicode="&#x3a9;" horiz-adv-x="828" 
d="M347 0h-278v35h193q-99 59 -152 149t-53 197q0 157 104 264t253 107t253 -107t104 -264q0 -107 -53 -197t-152 -149h193v-35h-278v25q125 62 187.5 152.5t62.5 201.5q0 142 -91 239t-226 97t-226 -97t-91 -239q0 -111 62.5 -201.5t187.5 -152.5v-25z" />
    <glyph glyph-name="uni03BC" unicode="&#x3bc;" horiz-adv-x="597" 
d="M472 243v292h40v-535h-38v107q-46 -121 -181 -121q-121 0 -168 110v-314h-40v753h40v-315q0 -79 47 -138t122 -59q55 0 111 39q67 49 67 181z" />
    <glyph glyph-name="pi" unicode="&#x3c0;" horiz-adv-x="583" 
d="M156 0h-40v498h-94v37h539v-37h-94v-498h-40v498h-271v-498z" />
    <glyph glyph-name="uni0401" unicode="&#x401;" horiz-adv-x="599" 
d="M191 857q0 18 13.5 31.5t33.5 13.5t33.5 -13.5t13.5 -31.5q2 -28 -22.5 -40t-49 0t-22.5 40zM367 857q0 18 13.5 31.5t33.5 13.5t33.5 -13.5t13.5 -31.5q2 -28 -22.5 -40t-49 0t-22.5 40zM548 0h-443v739h439v-37h-399v-310h374v-37h-374v-318h403v-37z" />
    <glyph glyph-name="uni0410" unicode="&#x410;" horiz-adv-x="639" 
d="M621 0h-43l-93 242h-331l-94 -242h-43l290 739h25zM472 279l-153 393l-153 -393h306z" />
    <glyph glyph-name="uni0411" unicode="&#x411;" horiz-adv-x="626" 
d="M145 433h211q125 0 183 -75q51 -64 51 -144q0 -86 -60 -150t-181 -64h-244v739h405v-37h-365v-269zM145 37h198q95 0 151 50q56 51 56 133q0 81 -55 128.5t-145 47.5h-205v-359z" />
    <glyph glyph-name="uni0412" unicode="&#x412;" horiz-adv-x="655" 
d="M455 397q69 -18 108.5 -70t39.5 -119q0 -85 -62 -147q-61 -61 -177 -61h-259v739h252q101 0 153 -54q54 -54 54 -129q0 -55 -30 -99t-79 -60zM354 702h-209v-289h229q64 0 107 41q43 42 43 105q0 65 -44.5 104t-125.5 39zM145 37h220q87 0 142 48q56 50 56 124t-56 121
q-55 46 -139 46h-223v-339z" />
    <glyph glyph-name="uni0413" unicode="&#x413;" horiz-adv-x="525" 
d="M145 0h-40v739h405v-37h-365v-702z" />
    <glyph glyph-name="uni0414" unicode="&#x414;" horiz-adv-x="707" 
d="M366 739l256 -702h60v-187h-43v150h-572v-150h-43v187h61l256 702h25zM353 672l-226 -635h452z" />
    <glyph glyph-name="uni0415" unicode="&#x415;" horiz-adv-x="599" 
d="M548 0h-443v739h439v-37h-399v-310h374v-37h-374v-318h403v-37z" />
    <glyph glyph-name="uni0416" unicode="&#x416;" horiz-adv-x="886" 
d="M866 41l13 -39q-30 -13 -61 -13q-64 0 -100 41q-36 40 -90 147q-7 16 -16 32q-46 87 -65 110q-21 27 -50 27h-34v-348h-40v348h-34q-29 0 -51 -27q-19 -24 -64 -110q-64 -123 -84 -151q-45 -64 -110 -69h-12q-31 0 -61 13l13 39q27 -11 49 -11q49 0 75 34q21 27 35 52
l20 36q12 20 55 102q52 94 79 112q-25 11 -41 32q-14 20 -27 43q-9 19 -24 60q-54 139 -76 173q-23 36 -75 36q-24 0 -51 -11l-15 36q33 15 64 15q71 -1 106 -51q21 -28 33 -59l14 -36q3 -7 16 -42l17 -45q28 -71 56 -102t73 -31h20v353h40v-353h20q46 0 74.5 31.5
t54.5 101.5l16 45l16 42q27 64 30 69q23 39 38 49q40 28 86 28q31 0 64 -15l-15 -36q-27 11 -51 11q-52 0 -76 -37t-75 -172q-16 -43 -25 -60q-26 -58 -67 -75q27 -18 79 -112l33 -61l28 -51q32 -56 41 -68q21 -28 37 -35q27 -9 46 -9q22 0 49 11z" />
    <glyph glyph-name="uni0417" unicode="&#x417;" horiz-adv-x="579" 
d="M260 -12q-123 0 -234 75l22 33q103 -68 209 -68q97 0 161 48t64 127q0 64 -43 110t-132 46h-158v40h109q102 0 154 50q51 51 51 115q0 66 -54 107q-53 41 -135 41q-117 0 -200 -74l-27 30q94 84 230 84q101 0 163 -54q63 -52 63 -139q0 -127 -127 -172v-2q72 -10 109 -64
q37 -52 37 -120q0 -96 -73 -154q-74 -59 -189 -59z" />
    <glyph glyph-name="uni0418" unicode="&#x418;" horiz-adv-x="764" 
d="M125 0h-20v739h40v-647l490 647h24v-739h-40v654z" />
    <glyph glyph-name="uni0419" unicode="&#x419;" horiz-adv-x="764" 
d="M216 869l23 26q65 -75 145 -75t145 75l23 -26q-72 -83 -168 -83t-168 83zM125 0h-20v739h40v-647l490 647h24v-739h-40v654z" />
    <glyph glyph-name="uni041A" unicode="&#x41a;" horiz-adv-x="600" 
d="M281 390l324 -390h-52l-300 359l-1 -1l-107 -124v-234h-40v739h40v-447l383 447h49z" />
    <glyph glyph-name="uni041B" unicode="&#x41b;" horiz-adv-x="604" 
d="M63 0h-43l270 739h25l269 -739h-44l-236 667z" />
    <glyph glyph-name="uni041C" unicode="&#x41c;" horiz-adv-x="896" 
d="M144 0h-39v739h18l326 -480l323 480h19v-739h-39v641l-298 -443h-10l-300 442v-640z" />
    <glyph glyph-name="uni041D" unicode="&#x41d;" horiz-adv-x="724" 
d="M145 0h-40v739h40v-360h434v360h40v-739h-40v342h-434v-342z" />
    <glyph glyph-name="uni041E" unicode="&#x41e;" horiz-adv-x="862" 
d="M699 100q-109 -112 -268 -112q-158 0 -269 112q-110 113 -110 270t110 270q111 112 269 112q159 0 268 -112q111 -112 111 -270t-111 -270zM191 126q99 -101 240 -101t240 101q99 100 99 244t-99 244q-99 101 -240 101t-240 -101q-99 -100 -99 -244q0 -143 99 -244z" />
    <glyph glyph-name="uni041F" unicode="&#x41f;" horiz-adv-x="724" 
d="M145 0h-40v739h514v-739h-40v702h-434v-702z" />
    <glyph glyph-name="uni0420" unicode="&#x420;" horiz-adv-x="595" 
d="M105 739h218q115 0 175 -67q61 -67 61 -159q0 -93 -64 -160q-63 -66 -181 -66h-169v-287h-40v739zM145 324h169q94 0 149 52q56 53 56 137q0 83 -54 136q-53 53 -142 53h-178v-378z" />
    <glyph glyph-name="uni0421" unicode="&#x421;" horiz-adv-x="790" 
d="M432 -11q-160 0 -269 106q-110 107 -110 272q0 168 111 276q112 109 270 109q102 0 188 -46q88 -46 134 -119l-31 -19q-41 66 -120 106q-80 41 -172 41q-145 0 -243 -98q-97 -97 -97 -247t96 -247q97 -97 243 -97q89 0 167.5 38t127.5 105l28 -21q-56 -74 -140.5 -116.5
t-182.5 -42.5z" />
    <glyph glyph-name="uni0422" unicode="&#x422;" horiz-adv-x="523" 
d="M242 0v702h-227v37h493v-37h-226v-702h-40z" />
    <glyph glyph-name="uni0423" unicode="&#x423;" horiz-adv-x="563" 
d="M118 -12q-26 0 -56 11l3 41q25 -13 52 -13q71 0 123 96l42 86l-269 529h44l246 -480l207 480h46l-245 -559q-13 -31 -24 -51q-9 -20 -28 -49q-52 -86 -141 -91z" />
    <glyph glyph-name="uni0424" unicode="&#x424;" horiz-adv-x="907" 
d="M473 8v-88h-40v88q-168 6 -274 106t-106 256q0 155 106 255q107 101 274 107v87h40v-87q166 -6 273 -107t107 -255q0 -155 -107 -256q-106 -100 -273 -106zM433 44v652q-150 -6 -245 -97q-95 -90 -95 -229q0 -138 95 -230q96 -90 245 -96zM473 696v-652q150 6 244 96
q96 92 96 230q0 139 -96 229q-94 91 -244 97z" />
    <glyph glyph-name="uni0425" unicode="&#x425;" horiz-adv-x="571" 
d="M62 0h-48l248 376l-237 363h48l213 -326l214 326h48l-238 -363l245 -376h-48l-222 340z" />
    <glyph glyph-name="uni0426" unicode="&#x426;" horiz-adv-x="697" 
d="M656 -150h-43v150h-508v739h43v-702h393v702h43v-702h72v-187z" />
    <glyph glyph-name="uni0427" unicode="&#x427;" horiz-adv-x="650" 
d="M505 332v407h40v-739h-40v289q-99 -49 -218 -49q-112 0 -171.5 61t-59.5 168v270h40v-266q0 -92 47.5 -142.5t144.5 -50.5q120 0 217 52z" />
    <glyph glyph-name="uni0428" unicode="&#x428;" horiz-adv-x="1065" 
d="M960 0h-855v739h43v-702h363v702h43v-702h363v702h43v-739z" />
    <glyph glyph-name="uni0429" unicode="&#x429;" horiz-adv-x="1073" 
d="M1032 -150h-43v150h-884v739h43v-702h363v702h43v-702h363v702h43v-702h72v-187z" />
    <glyph glyph-name="uni042A" unicode="&#x42a;" horiz-adv-x="711" 
d="M419 476q113 0 184 -65q70 -64 70 -176q0 -96 -61 -166q-60 -69 -180 -69h-244v702h-172v37h212v-308q82 45 191 45zM228 37h198q102 0 155 60q52 59 52 142q0 93 -58.5 146.5t-157.5 53.5q-118 0 -189 -46v-356z" />
    <glyph glyph-name="uni042B" unicode="&#x42b;" horiz-adv-x="863" 
d="M157 443h211q124 0 183 -76q51 -66 51 -148q0 -88 -60 -154q-60 -65 -181 -65h-244v739h40v-296zM718 0v739h40v-739h-40zM157 37h198q96 0 151 52q56 53 56 136t-54.5 132t-145.5 49h-205v-369z" />
    <glyph glyph-name="uni042C" unicode="&#x42c;" horiz-adv-x="628" 
d="M336 476q113 0 184 -65q70 -64 70 -176q0 -96 -61 -166q-60 -69 -180 -69h-244v739h40v-308q83 45 191 45zM145 37h198q103 0 155 60q52 59 52 142q0 93 -58.5 146.5t-157.5 53.5q-118 0 -189 -46v-356z" />
    <glyph glyph-name="uni042D" unicode="&#x42d;" horiz-adv-x="795" 
d="M361 752q159 0 269 -109q112 -108 112 -276q0 -165 -110 -272q-109 -106 -269 -106q-98 0 -182.5 42.5t-140.5 116.5l28 21q49 -67 127.5 -105t167.5 -38q141 0 235 90q96 91 103 232h-437v35h438q-5 146 -101 238q-97 94 -239 94q-93 0 -173 -41q-77 -39 -119 -106
l-31 19q46 72 133 119q88 46 189 46z" />
    <glyph glyph-name="uni042E" unicode="&#x42e;" horiz-adv-x="1068" 
d="M637 752q159 0 268 -112q111 -112 111 -270t-111 -270q-109 -112 -268 -112q-151 0 -259 102q-109 104 -119 252h-114v-342h-40v739h40v-360h113q4 155 114 264q109 109 265 109zM397 126q99 -101 240 -101t240 101q99 100 99 244t-99 244q-99 101 -240 101t-240 -101
q-99 -100 -99 -244q0 -143 99 -244z" />
    <glyph glyph-name="uni042F" unicode="&#x42f;" horiz-adv-x="619" 
d="M310 739h204v-739h-40v313q-68 -12 -161 -12q-26 0 -33 1l-187 -302h-46l193 307q-88 17 -132 73t-44 140q0 95 62 157q64 62 184 62zM311 338q92 0 163 11v353h-164q-97 0 -151.5 -47t-54.5 -134q0 -183 207 -183z" />
    <glyph glyph-name="uni0430" unicode="&#x430;" horiz-adv-x="661" 
d="M536 415v120h40v-535h-40v123q-32 -63 -91.5 -99.5t-133.5 -36.5q-113 0 -189 81q-75 82 -75 202q0 118 75 198t189 80q75 0 134 -35t91 -98zM310 24q100 0 164 72q66 72 66 175q0 99 -66 170q-64 70 -164 70q-97 0 -160 -69t-63 -173q0 -105 63 -175t160 -70z" />
    <glyph glyph-name="uni0431" unicode="&#x431;" horiz-adv-x="650" 
d="M343 524q105 0 182 -72q77 -71 77 -196q0 -113 -74 -192q-74 -77 -190 -77q-73 0 -128.5 30.5t-87.5 83.5q-61 106 -61 237q0 195 61 267q33 38 74.5 58t112.5 33l22 4l24 5q23 3 48 12q39 14 50 20q62 41 81 58l15 -36q-33 -30 -77 -52q-45 -22 -70 -29q-28 -8 -72 -15
q-134 -26 -180 -83t-54 -216q22 60 67 97q75 63 180 63zM338 24q97 0 160 66q64 65 64 166t-62 166t-157 65q-99 0 -167 -65q-67 -64 -67 -159q0 -101 65 -171q66 -68 164 -68z" />
    <glyph glyph-name="uni0432" unicode="&#x432;" horiz-adv-x="594" 
d="M378 406q67 -11 117 -61q52 -51 52 -138q0 -94 -63 -157t-171 -63q-114 0 -175.5 73t-61.5 201v227q0 126 64 205t180 79q86 0 141 -54q55 -52 55 -134q0 -63 -36 -110.5t-102 -67.5zM320 735q-96 0 -150 -65t-54 -182v-71h169q76 0 134 47q58 48 58 121q0 63 -44 107
q-43 43 -113 43zM314 24q88 0 141 51q52 52 52 134q0 83 -55 127t-148 44h-188v-119q0 -113 51.5 -175t146.5 -62z" />
    <glyph glyph-name="uni0433" unicode="&#x433;" horiz-adv-x="481" 
d="M236 -13q-86 0 -141 36t-55 109q0 53 33.5 88.5t87.5 51.5q13 4 49 13.5t53 15t44.5 17t41 23t24 29.5t10.5 40q0 47 -38.5 74t-108.5 27q-84 0 -164 -33l-10 34q86 36 174 36q79 0 134 -35q55 -34 55 -103q0 -96 -122 -132q-7 -2 -41 -11t-45.5 -12.5t-39.5 -13.5
t-39.5 -18.5t-27.5 -22t-22 -30.5t-6 -38q0 -108 154 -108q99 0 194 50l15 -34q-101 -53 -209 -53z" />
    <glyph glyph-name="uni0434" unicode="&#x434;" horiz-adv-x="661" 
d="M537 416v119h39v-480q0 -136 -77.5 -209.5t-213.5 -73.5q-91 0 -190 38l11 35q90 -36 179 -36q121 0 186 63t65 183v77q-33 -63 -91.5 -98.5t-132.5 -35.5q-114 0 -190 79q-75 79 -75 196q0 115 75 195q77 80 189 80q74 0 133.5 -35.5t92.5 -96.5zM310 35q100 0 164 70
q66 71 66 171t-66 167q-65 68 -164 68q-97 0 -160 -68q-63 -67 -63 -170q0 -101 63 -170q63 -68 160 -68z" />
    <glyph glyph-name="uni0435" unicode="&#x435;" horiz-adv-x="601" 
d="M556 301q0 -11 -3 -47h-465q5 -106 67.5 -167.5t167.5 -61.5q55 0 109.5 18t90.5 48l21 -30q-38 -32 -98 -52.5t-124 -20.5q-135 0 -204.5 82.5t-69.5 198.5q0 121 72 200q73 79 192 79q106 0 174 -67q70 -66 70 -180zM312 511q-94 0 -156 -60q-61 -60 -67 -160h427
q0 101 -56 160q-56 60 -148 60z" />
    <glyph glyph-name="uni0436" unicode="&#x436;" horiz-adv-x="816" 
d="M793 36l11 -34q-30 -11 -56 -11q-65 0 -102 44q-20 24 -33 47l-36 70q-28 54 -50.5 75t-52.5 21h-46v-250h-40v250h-46q-30 0 -52.5 -21t-50.5 -75l-36 -70q-13 -23 -33 -47q-37 -44 -102 -44q-26 0 -56 11l11 34q22 -8 45 -8q44 0 65 24q19 21 71 116l12 23q30 56 65 74
q-52 19 -81 103q-32 88 -51 114q-20 26 -66 26q-27 0 -49 -7l-9 33q24 10 57 10q73 0 106 -51q14 -23 47 -115q18 -49 45 -72t71 -23h37v252h40v-252h37q44 0 71 23t45 72q33 94 48 116q33 50 105 50q33 0 57 -10l-9 -33q-22 7 -49 7q-46 0 -66 -26q-19 -26 -51 -114
q-29 -84 -81 -103q35 -18 65 -74q57 -109 76 -132q28 -29 72 -31q23 0 45 8z" />
    <glyph glyph-name="uni0437" unicode="&#x437;" horiz-adv-x="538" 
d="M249 -227q-116 0 -223 79l21 29q95 -71 201 -71q92 0 149 48q57 46 57 125q0 68 -44 118q-44 51 -135 51h-154v37h107q98 0 154 53q55 52 55 120q0 64 -51 106q-50 43 -130 43q-109 0 -190 -75l-23 27q97 85 217 85q94 0 156 -54q61 -54 61 -137q0 -61 -36 -109t-104 -69
v-2q75 -12 116 -66t41 -127q0 -93 -68 -152t-177 -59z" />
    <glyph glyph-name="uni0438" unicode="&#x438;" horiz-adv-x="610" 
d="M485 535h40v-535h-38v111q-23 -56 -79 -90q-55 -34 -124 -34q-94 0 -150 56t-56 160v332h40v-330q0 -85 43 -133t123 -48q66 0 128 42q33 22 53 66t20 102v301z" />
    <glyph glyph-name="uni0439" unicode="&#x439;" horiz-adv-x="610" 
d="M140 663l23 26q65 -75 145 -75t145 75l23 -26q-72 -83 -168 -83t-168 83zM485 535h40v-535h-38v111q-23 -56 -79 -90q-55 -34 -124 -34q-94 0 -150 56t-56 160v332h40v-330q0 -85 43 -133t123 -48q66 0 128 42q33 22 53 66t20 102v301z" />
    <glyph glyph-name="uni043A" unicode="&#x43a;" horiz-adv-x="486" 
d="M492 0h-50l-249 297l-68 -62v-235h-40v753h40v-469l281 251h52l-237 -214z" />
    <glyph glyph-name="uni043B" unicode="&#x43b;" horiz-adv-x="536" 
d="M60 0h-43l240 535h24l237 -535h-44l-205 467z" />
    <glyph glyph-name="uni043C" unicode="&#x43c;" horiz-adv-x="748" 
d="M125 0h-40v535h20l270 -346l267 346h21v-535h-40v447l-243 -317h-10l-245 316v-446z" />
    <glyph glyph-name="uni043D" unicode="&#x43d;" horiz-adv-x="586" 
d="M461 298v237h40v-535h-40v261h-336v-261h-40v535h40v-237h336z" />
    <glyph glyph-name="uni043E" unicode="&#x43e;" horiz-adv-x="648" 
d="M47 268q0 119 79 199q80 81 198 81t198 -81q79 -80 79 -199q0 -120 -79 -200q-80 -81 -198 -81t-198 81q-79 80 -79 200zM154 94q67 -70 170 -70t170 70t67 174q0 105 -67 173q-67 70 -170 70t-170 -70q-67 -68 -67 -173q0 -104 67 -174z" />
    <glyph glyph-name="uni043F" unicode="&#x43f;" horiz-adv-x="610" 
d="M125 0h-40v535h38v-107q46 121 196 121q92 0 152 -60q61 -58 61 -167v-322h-40v322q0 87 -46.5 138.5t-126.5 51.5q-32 0 -63.5 -10t-62 -32t-49.5 -65.5t-19 -102.5v-302z" />
    <glyph glyph-name="uni0440" unicode="&#x440;" horiz-adv-x="664" 
d="M353 549q113 0 188 -81q76 -80 76 -200q0 -119 -76 -199q-75 -81 -188 -81q-75 0 -135 37.5t-93 101.5v-347h-40v755h40v-128q32 66 92.5 104t135.5 38zM354 25q97 0 160 70q63 71 63 173t-63 173t-160 71q-99 0 -165 -72q-65 -73 -65 -175q0 -99 65 -170q66 -70 165 -70
z" />
    <glyph glyph-name="uni0441" unicode="&#x441;" horiz-adv-x="593" 
d="M316 -12q-116 0 -193 78q-75 80 -75 201q0 123 77 202q78 79 197 79q80 0 143.5 -36.5t94.5 -100.5l-33 -18q-26 54 -81 86t-124 32q-102 0 -168 -68q-66 -67 -66 -176q0 -108 64 -175t164 -67q68 0 124.5 32.5t84.5 86.5l32 -20q-33 -63 -98 -99.5t-143 -36.5z" />
    <glyph glyph-name="uni0442" unicode="&#x442;" horiz-adv-x="943" 
d="M666 549q83 0 141 -53q58 -52 58 -152v-344h-40v344q0 78 -42.5 123t-114.5 45q-27 0 -54.5 -8.5t-55.5 -27.5t-45.5 -56t-17.5 -88v-332h-40v334q0 81 -42 129.5t-113 48.5q-56 0 -111 -41q-29 -22 -46.5 -66.5t-17.5 -102.5v-302h-40v535h39v-97q21 53 67.5 82
t106.5 29q62 0 109.5 -33t68.5 -95q25 63 76 95.5t114 32.5z" />
    <glyph glyph-name="uni0443" unicode="&#x443;" horiz-adv-x="519" 
d="M262 48l196 487h42l-225 -558q-45 -113 -84 -158q-39 -46 -101 -46q-40 0 -74 19l9 35q36 -17 67 -17q46 0 78 40t65 126l8 22l-226 537h41z" />
    <glyph glyph-name="uni0444" unicode="&#x444;" horiz-adv-x="773" 
d="M726 268q0 -124 -87 -199q-86 -76 -233 -80v-212h-39v212q-146 4 -234 79q-86 75 -86 200t87 200q88 76 233 80v205h39v-205q147 -4 233 -80q87 -75 87 -200zM87 269q0 -110 74.5 -174.5t205.5 -69.5v486q-131 -5 -205 -68q-75 -65 -75 -174zM406 511v-486
q131 5 205.5 69.5t74.5 174.5q0 109 -75 174q-74 63 -205 68z" />
    <glyph glyph-name="uni0445" unicode="&#x445;" horiz-adv-x="456" 
d="M252 274l183 -274h-47l-160 239l-164 -239h-47l188 274l-174 261h47l151 -226l155 226h47z" />
    <glyph glyph-name="uni0446" unicode="&#x446;" horiz-adv-x="647" 
d="M525 535v-418q0 -61 25 -76q26 -15 93 -15v-206h-40v170q-55 0 -86.5 28.5t-29.5 90.5q-23 -57 -79 -89q-56 -33 -124 -33q-94 0 -150 56t-56 160v332h40v-330q0 -85 43 -133t123 -48q66 0 128 42q33 22 53 66t20 102v301h40z" />
    <glyph glyph-name="uni0447" unicode="&#x447;" horiz-adv-x="540" 
d="M415 248v287h40v-535h-40v210q-86 -34 -176 -34q-193 0 -193 202v157h40v-152q0 -87 37.5 -128.5t118.5 -41.5q91 0 173 35z" />
    <glyph glyph-name="uni0448" unicode="&#x448;" horiz-adv-x="948" 
d="M823 234v301h40v-535h-38v111q-20 -56 -71 -90t-114 -34q-66 0 -112.5 34t-63.5 99q-23 -62 -76 -97.5t-119 -35.5q-88 0 -139.5 56.5t-51.5 166.5v325h40v-323q0 -92 39.5 -140t112.5 -48q29 0 58 10t58 32t47 65.5t18 102.5v301h40v-330q0 -85 40.5 -133t111.5 -48
q60 0 116 42q64 48 64 168z" />
    <glyph glyph-name="uni0449" unicode="&#x449;" horiz-adv-x="979" 
d="M863 535v-418q0 -61 25 -76q26 -15 92 -15v-206h-40v170q-114 0 -114 112q-20 -51 -72 -83t-114 -32q-66 0 -112.5 34t-63.5 99q-23 -62 -76 -97.5t-119 -35.5q-88 0 -139.5 56.5t-51.5 166.5v325h40v-323q0 -92 39.5 -140t112.5 -48q29 0 58 10t58 32t47 65.5t18 102.5
v301h40v-330q0 -85 40.5 -133t111.5 -48q60 0 116 42q64 48 64 168v301h40z" />
    <glyph glyph-name="uni044A" unicode="&#x44a;" horiz-adv-x="622" 
d="M373 411q95 0 153 -60q60 -60 60 -155q0 -92 -59 -151q-58 -58 -153 -58q-102 0 -156 61q-22 25 -36 62q-21 59 -21 124v264h-144v37h184v-192q70 68 172 68zM374 24q76 0 124 49t48 126t-49 126q-48 49 -124 49q-50 0 -96.5 -21t-75.5 -59v-77q0 -79 42 -136
q43 -57 131 -57z" />
    <glyph glyph-name="uni044B" unicode="&#x44b;" horiz-adv-x="720" 
d="M125 326h193q68 0 111 -27q76 -46 76 -137q0 -66 -48 -114q-47 -48 -142 -48h-230v535h40v-209zM595 0v535h40v-535h-40zM125 37h184q72 0 114 35.5t42 93.5q0 56 -40.5 89.5t-109.5 33.5h-190v-252z" />
    <glyph glyph-name="uni044C" unicode="&#x44c;" horiz-adv-x="538" 
d="M289 411q95 0 153 -60q60 -60 60 -155q0 -92 -59 -151q-58 -58 -153 -58q-102 0 -156 61q-22 25 -36 62q-21 59 -21 124v301h40v-192q70 68 172 68zM290 24q76 0 124 49t48 126t-49 126q-48 49 -124 49q-50 0 -96.5 -21t-75.5 -59v-77q0 -79 42 -136q43 -57 131 -57z" />
    <glyph glyph-name="uni044D" unicode="&#x44d;" horiz-adv-x="596" 
d="M275 548q119 0 195 -79q78 -78 78 -202q0 -122 -76 -201q-75 -78 -191 -78q-78 0 -143 36.5t-98 99.5l32 20q28 -54 84.5 -86.5t124.5 -32.5q93 0 157 62q64 61 70 163h-314v37h313q-6 100 -71 162t-161 62q-69 0 -124 -32t-81 -86l-33 18q31 64 94.5 100.5t143.5 36.5z
" />
    <glyph glyph-name="uni044E" unicode="&#x44e;" horiz-adv-x="824" 
d="M500 548q118 0 198 -81q79 -80 79 -199q0 -120 -79 -200q-80 -81 -198 -81q-115 0 -194 76q-78 77 -83 191h-98v-254h-40v753h40v-462h99q7 109 86 183t190 74zM330 94q67 -70 170 -70t170 70t67 174q0 105 -67 173q-67 70 -170 70t-170 -70q-67 -68 -67 -173
q0 -104 67 -174z" />
    <glyph glyph-name="uni044F" unicode="&#x44f;" horiz-adv-x="536" 
d="M259 535h192v-535h-40v224q-64 -10 -146 -10q-23 0 -29 1l-148 -215h-46l154 220q-68 14 -103.5 55t-35.5 100q0 71 53 115.5t149 44.5zM264 250q83 0 147 8v241h-153q-76 0 -118.5 -32.5t-42.5 -91.5q0 -125 167 -125z" />
    <glyph glyph-name="uni0451" unicode="&#x451;" horiz-adv-x="601" 
d="M181 647q0 18 13.5 31.5t33.5 13.5t33.5 -13.5t13.5 -31.5q2 -28 -22.5 -40t-49 0t-22.5 40zM357 647q0 18 13.5 31.5t33.5 13.5t33.5 -13.5t13.5 -31.5q2 -28 -22.5 -40t-49 0t-22.5 40zM556 301q0 -11 -3 -47h-465q5 -106 67.5 -167.5t167.5 -61.5q55 0 109.5 18
t90.5 48l21 -30q-38 -32 -98 -52.5t-124 -20.5q-135 0 -204.5 82.5t-69.5 198.5q0 121 72 200q73 79 192 79q106 0 174 -67q70 -66 70 -180zM312 511q-94 0 -156 -60q-61 -60 -67 -160h427q0 101 -56 160q-56 60 -148 60z" />
    <glyph glyph-name="Wgrave" unicode="&#x1e80;" horiz-adv-x="1000" 
d="M457 952l60 -156h-33l-80 156h53zM280 0h-19l-242 739h37l214 -666l221 666h18l223 -665l212 665h36l-239 -739h-19l-222 663z" />
    <glyph glyph-name="wgrave" unicode="&#x1e81;" horiz-adv-x="801" 
d="M356 776l60 -156h-33l-80 156h53zM231 1h-20l-193 534h42l161 -462l167 462l25 -1l167 -461l161 462h42l-193 -534h-20l-170 476z" />
    <glyph glyph-name="Wacute" unicode="&#x1e82;" horiz-adv-x="1000" 
d="M525 798h-33l60 156h53zM280 0h-19l-242 739h37l214 -666l221 666h18l223 -665l212 665h36l-239 -739h-19l-222 663z" />
    <glyph glyph-name="wacute" unicode="&#x1e83;" horiz-adv-x="801" 
d="M415 620h-33l60 156h53zM231 1h-20l-193 534h42l161 -462l167 462l25 -1l167 -461l161 462h42l-193 -534h-20l-170 476z" />
    <glyph glyph-name="Wdieresis" unicode="&#x1e84;" horiz-adv-x="1000" 
d="M364 857q0 18 13.5 31.5t33.5 13.5t33.5 -13.5t13.5 -31.5q2 -28 -22.5 -40t-49 0t-22.5 40zM540 857q0 18 13.5 31.5t33.5 13.5t33.5 -13.5t13.5 -31.5q2 -28 -22.5 -40t-49 0t-22.5 40zM280 0h-19l-242 739h37l214 -666l221 666h18l223 -665l212 665h36l-239 -739h-19
l-222 663z" />
    <glyph glyph-name="wdieresis" unicode="&#x1e85;" horiz-adv-x="801" 
d="M265 677q0 18 13.5 31.5t33.5 13.5t33.5 -13.5t13.5 -31.5q2 -28 -22.5 -40t-49 0t-22.5 40zM441 677q0 18 13.5 31.5t33.5 13.5t33.5 -13.5t13.5 -31.5q2 -28 -22.5 -40t-49 0t-22.5 40zM231 1h-20l-193 534h42l161 -462l167 462l25 -1l167 -461l161 462h42l-193 -534
h-20l-170 476z" />
    <glyph glyph-name="Ygrave" unicode="&#x1ef2;" 
d="M246 952l60 -156h-33l-80 156h53zM514 739h44l-248 -429v-310h-40v310l-247 429h44l223 -394z" />
    <glyph glyph-name="ygrave" unicode="&#x1ef3;" horiz-adv-x="519" 
d="M228 776l60 -156h-33l-80 156h53zM264 48l196 487h42l-225 -558q-45 -113 -84 -158q-39 -46 -101 -46q-40 0 -74 19l9 35q36 -17 67 -17q46 0 78 40t65 126l8 22l-226 537h41z" />
    <glyph glyph-name="uni2009" unicode="&#x2009;" horiz-adv-x="78" 
 />
    <glyph glyph-name="endash" unicode="&#x2013;" horiz-adv-x="687" 
d="M614 259h-541v37h541v-37z" />
    <glyph glyph-name="emdash" unicode="&#x2014;" horiz-adv-x="1006" 
d="M933 259h-860v37h860v-37z" />
    <glyph glyph-name="quoteleft" unicode="&#x2018;" horiz-adv-x="211" 
d="M108 653q14 0 25 -10.5t11 -26.5q0 -18 -12.5 -30t-31.5 -12t-32 14.5t-13 36.5q0 33 25.5 68t69.5 62l12 -18q-67 -43 -82 -95q11 11 28 11z" />
    <glyph glyph-name="quoteright" unicode="&#x2019;" horiz-adv-x="208" 
d="M165 701q0 -33 -25.5 -68t-69.5 -62l-12 18q67 43 82 95q-11 -11 -28 -11q-14 0 -25 10.5t-11 26.5q0 18 12.5 30t31.5 12t32 -14.5t13 -36.5z" />
    <glyph glyph-name="quotesinglbase" unicode="&#x201a;" horiz-adv-x="213" 
d="M159 11q0 -33 -25.5 -68t-69.5 -62l-12 18q67 43 82 95q-11 -11 -28 -11q-14 0 -25 10.5t-11 26.5q0 18 12.5 30t31.5 12t32 -14.5t13 -36.5z" />
    <glyph glyph-name="quotedblleft" unicode="&#x201c;" horiz-adv-x="383" 
d="M164 755l12 -18q-67 -43 -82 -95q11 11 28 11q14 0 25 -10.5t11 -26.5q0 -18 -12.5 -30t-31.5 -12t-32 14.5t-13 36.5q0 33 25.5 68t69.5 62zM294 653q14 0 25 -10.5t11 -26.5q0 -18 -12.5 -30t-31.5 -12t-32 14.5t-13 36.5q0 33 25.5 68t69.5 62l12 -18q-67 -43 -82 -95
q11 11 28 11z" />
    <glyph glyph-name="quotedblright" unicode="&#x201d;" horiz-adv-x="380" 
d="M152 703q0 -33 -25.5 -68t-69.5 -62l-12 18q67 43 82 95q-11 -11 -28 -11q-15 0 -25.5 10.5t-10.5 26.5q0 18 12.5 30t31.5 12t32 -14.5t13 -36.5zM322 703q0 -33 -25.5 -68t-69.5 -62l-12 18q67 43 82 95q-11 -11 -28 -11q-15 0 -25.5 10.5t-10.5 26.5q0 18 12.5 30
t31.5 12t32 -14.5t13 -36.5z" />
    <glyph glyph-name="quotedblbase" unicode="&#x201e;" horiz-adv-x="381" 
d="M144 10q0 -33 -25.5 -68t-69.5 -62l-12 18q67 43 82 95q-11 -11 -28 -11q-15 0 -25.5 11t-10.5 26q0 18 12.5 30t31.5 12t32 -14.5t13 -36.5zM314 10q0 -33 -25.5 -68t-69.5 -62l-12 18q67 43 82 95q-11 -11 -28 -11q-15 0 -25.5 11t-10.5 26q0 18 12.5 30t31.5 12
t32 -14.5t13 -36.5z" />
    <glyph glyph-name="dagger" unicode="&#x2020;" horiz-adv-x="482" 
d="M261 488h182v-37h-182v-629h-40v629h-183v37h183v361h40v-361z" />
    <glyph glyph-name="daggerdbl" unicode="&#x2021;" horiz-adv-x="482" 
d="M444 516v-37h-183v-287h183v-37h-183v-333h-40v333h-183v37h183v287h-183v37h183v333h40v-333h183z" />
    <glyph glyph-name="bullet" unicode="&#x2022;" horiz-adv-x="338" 
d="M220 311q-21 -21 -51 -21t-51 21t-21 51t21 51q21 22 51 22t51 -22q21 -21 21 -51t-21 -51z" />
    <glyph glyph-name="ellipsis" unicode="&#x2026;" horiz-adv-x="586" 
d="M118 -16q-24 -1 -34.5 19t0 39.5t34.5 18.5q16 0 27.5 -11t11.5 -27q0 -17 -11.5 -28t-27.5 -11zM305 -16q-24 -1 -34.5 19t0 39.5t34.5 18.5q16 0 27.5 -11t11.5 -27q0 -17 -11.5 -28t-27.5 -11zM492 -16q-24 -1 -34.5 19t0 39.5t34.5 18.5q16 0 27.5 -11t11.5 -27
q0 -17 -11.5 -28t-27.5 -11z" />
    <glyph glyph-name="perthousand" unicode="&#x2030;" horiz-adv-x="1298" 
d="M347 442q-53 -53 -128 -53q-74 0 -129 53q-53 53 -53 128q0 76 54 128q54 54 128 54t128 -54q54 -52 54 -128t-54 -128zM166 0h-44l574 739h44zM117 466q43 -43 102 -43t102 43t43 104t-43 104q-44 44 -102 44t-102 -44q-43 -43 -43 -104t43 -104zM778 41
q-53 -53 -128 -53q-74 0 -129 53q-53 53 -53 128t54 128q54 54 128 54t128 -54q54 -53 54 -128t-54 -128zM1209 41q-53 -53 -128 -53q-74 0 -129 53q-53 53 -53 128t54 128q54 54 128 54t128 -54q54 -53 54 -128t-54 -128zM547 65q43 -43 103 -43t102 43q43 43 43 104
t-43 104q-44 44 -102 44t-102 -44q-43 -43 -43 -104t42 -104zM978 65q43 -43 103 -43t102 43q43 43 43 104t-43 104q-44 44 -102 44t-102 -44q-43 -43 -43 -104t42 -104z" />
    <glyph glyph-name="guilsinglleft" unicode="&#x2039;" horiz-adv-x="304" 
d="M239 88h-42l-146 203l146 203h42l-146 -203z" />
    <glyph glyph-name="guilsinglright" unicode="&#x203a;" horiz-adv-x="304" 
d="M253 291l-146 -203h-42l146 203l-146 203h42z" />
    <glyph glyph-name="fraction" unicode="&#x2044;" horiz-adv-x="160" 
d="M-186 0h-43l578 739h42z" />
    <glyph glyph-name="uni2070" unicode="&#x2070;" horiz-adv-x="367" 
d="M183 501q-75 0 -112 61q-36 62 -36 145t36 144q37 61 112 61q53 0 87 -33q62 -57 62 -172q2 -52 -12.5 -97t-50 -76.5t-86.5 -32.5zM183 539q53 0 81 46t28 122q0 77 -28 121q-28 46 -81 46q-52 0 -80 -44t-28 -123q0 -77 28.5 -122.5t79.5 -45.5z" />
    <glyph glyph-name="uni2074" unicode="&#x2074;" horiz-adv-x="334" 
d="M247 643h46v-34h-46v-102h-37v102h-190l-8 24l211 270h24v-260zM210 832l-148 -189h148v189z" />
    <glyph glyph-name="uni2075" unicode="&#x2075;" horiz-adv-x="315" 
d="M156 757q56 0 92 -34.5t36 -90.5q0 -58 -39.5 -94.5t-100.5 -36.5q-64 0 -123 48l20 30q51 -42 102 -42q46 0 73.5 26.5t27.5 69.5q0 42 -25 66.5t-67 24.5q-51 0 -87 -43l-25 17l21 201h197v-35h-168l-15 -133q32 26 81 26z" />
    <glyph glyph-name="uni2076" unicode="&#x2076;" horiz-adv-x="344" 
d="M177 501q-70 0 -108.5 53t-38.5 140q0 89 42 154q43 64 123 64q60 0 102 -33l-17 -27q-35 28 -83 28q-47 0 -79 -33q-58 -58 -53 -166h1q9 36 42.5 59t75.5 23q55 0 92 -37q38 -36 38 -92q0 -57 -38.5 -95t-98.5 -38zM180 533q41 0 69.5 29t28.5 72q0 42 -28.5 70
t-69.5 28q-42 0 -72 -29t-30 -70q0 -40 30 -70t72 -30z" />
    <glyph glyph-name="uni2077" unicode="&#x2077;" horiz-adv-x="299" 
d="M31 868v35h246v-25l-159 -371h-39l157 361h-205z" />
    <glyph glyph-name="uni2078" unicode="&#x2078;" horiz-adv-x="344" 
d="M28 614q0 36 23.5 64t64.5 39v1q-71 29 -71 91q0 45 35.5 74t91.5 29t91.5 -29.5t35.5 -72.5q0 -30 -19 -55t-53 -37v-1q41 -11 65 -39t24 -64q0 -48 -40.5 -80.5t-103.5 -32.5t-103.5 32.5t-40.5 80.5zM172 734q30 0 52 13.5t30.5 33t4 41t-22.5 36.5q-24 21 -64 21
q-39 0 -64 -20.5t-25 -51.5t23.5 -52t65.5 -21zM278 617q0 35 -27.5 59t-78.5 24t-78.5 -23.5t-27.5 -59.5t29.5 -59t76.5 -23t76.5 23t29.5 59z" />
    <glyph glyph-name="uni2079" unicode="&#x2079;" horiz-adv-x="337" 
d="M150 501q-60 0 -100 33l16 27q37 -28 83 -28q67 0 97 59q30 60 27 141h-1q-9 -36 -42 -59.5t-73 -23.5q-54 0 -90.5 36.5t-36.5 91.5q0 58 37.5 96t96.5 38q68 0 105.5 -53t37.5 -141q0 -91 -39 -154t-118 -63zM161 681q40 0 69.5 29.5t29.5 69.5t-29 70t-70 30
q-40 0 -67.5 -28.5t-27.5 -72.5q0 -42 27 -70t68 -28z" />
    <glyph glyph-name="uni2080" unicode="&#x2080;" horiz-adv-x="367" 
d="M183 -161q-74 0 -112 62q-36 61 -36 144t36 144q37 61 112 61q53 0 87 -33q62 -57 62 -172q2 -52 -12.5 -97t-50 -76.5t-86.5 -32.5zM183 -123q53 0 81 46t28 122q0 77 -28 121q-28 46 -81 46q-52 0 -80 -44t-28 -123q0 -77 28.5 -122.5t79.5 -45.5z" />
    <glyph glyph-name="uni2081" unicode="&#x2081;" horiz-adv-x="255" 
d="M28 138l129 103h28v-396h-38v342l-98 -78z" />
    <glyph glyph-name="uni2082" unicode="&#x2082;" horiz-adv-x="329" 
d="M193 -12l-94 -108h184v-35h-235l-1 31l112 127q43 48 61.5 78.5t18.5 58.5q0 33 -22.5 54.5t-57.5 21.5q-51 0 -98 -48l-22 26q56 56 121 56q51 0 84 -31t33 -80q0 -53 -84 -151z" />
    <glyph glyph-name="uni2083" unicode="&#x2083;" horiz-adv-x="301" 
d="M144 -161q-64 0 -122 41l18 30q52 -35 103 -35q44 0 70 21.5t26 57.5q0 76 -99 76h-44v36h39q46 0 71 21.5t25 54.5t-23.5 52.5t-61.5 19.5q-56 0 -96 -39l-20 27q46 48 118 48q54 0 88 -29.5t34 -74.5q0 -34 -19.5 -59t-51.5 -35v-2q37 -8 58 -34.5t21 -62.5
q0 -50 -37.5 -82t-96.5 -32z" />
    <glyph glyph-name="uni2084" unicode="&#x2084;" horiz-adv-x="334" 
d="M247 -19h46v-34h-46v-102h-37v102h-190l-8 24l211 270h24v-260zM210 170l-148 -189h148v189z" />
    <glyph glyph-name="uni2085" unicode="&#x2085;" horiz-adv-x="315" 
d="M156 95q56 0 92 -34.5t36 -90.5q0 -58 -39.5 -94.5t-100.5 -36.5q-64 0 -123 48l20 30q51 -42 102 -42q46 0 73.5 26.5t27.5 69.5q0 42 -25 66.5t-67 24.5q-51 0 -87 -43l-25 17l21 201h197v-35h-168l-15 -133q32 26 81 26z" />
    <glyph glyph-name="uni2086" unicode="&#x2086;" horiz-adv-x="344" 
d="M177 -161q-70 0 -108.5 53t-38.5 140q0 90 42 154q43 64 123 64q60 0 102 -33l-17 -27q-35 28 -83 28q-47 0 -79 -33q-58 -58 -53 -166h1q9 36 42.5 59t75.5 23q55 0 92 -37q38 -36 38 -92q0 -57 -38.5 -95t-98.5 -38zM180 -129q41 0 69.5 29t28.5 72q0 42 -28.5 70
t-69.5 28q-42 0 -72 -29t-30 -70q0 -40 30 -70t72 -30z" />
    <glyph glyph-name="uni2087" unicode="&#x2087;" horiz-adv-x="299" 
d="M31 206v35h246v-25l-159 -371h-39l157 361h-205z" />
    <glyph glyph-name="uni2088" unicode="&#x2088;" horiz-adv-x="344" 
d="M28 -48q0 36 23.5 64t64.5 39v1q-71 29 -71 91q0 45 35.5 74t91.5 29t91.5 -29.5t35.5 -72.5q0 -30 -19 -55t-53 -37v-1q41 -11 65 -39t24 -64q0 -48 -40.5 -80.5t-103.5 -32.5t-103.5 32.5t-40.5 80.5zM172 72q30 0 52 13.5t30.5 33t4 41t-22.5 36.5q-24 21 -64 21
q-39 0 -64 -20.5t-25 -51.5t23.5 -52t65.5 -21zM278 -45q0 35 -27.5 59t-78.5 24t-78.5 -23.5t-27.5 -59.5t29.5 -59t76.5 -23t76.5 23t29.5 59z" />
    <glyph glyph-name="uni2089" unicode="&#x2089;" horiz-adv-x="337" 
d="M150 -161q-60 0 -100 33l16 27q37 -28 83 -28q67 0 97 60q30 59 27 140h-1q-9 -36 -42 -59.5t-73 -23.5q-54 0 -90.5 36.5t-36.5 91.5q0 58 37.5 96t96.5 38q68 0 105.5 -53t37.5 -141q0 -91 -39 -154t-118 -63zM161 19q40 0 69.5 29.5t29.5 69.5t-29 70t-70 30
q-40 0 -67.5 -28.5t-27.5 -72.5q0 -42 27 -70t68 -28z" />
    <glyph glyph-name="Euro" unicode="&#x20ac;" horiz-adv-x="729" 
d="M468 715q-116 0 -201 -72q-87 -73 -112 -188h439l-13 -37h-432q-3 -24 -3 -49t5 -60h393l-14 -37h-372q30 -109 114 -178q86 -68 196 -68q94 0 177 45l19 -33q-89 -49 -196 -49q-126 0 -223 78q-96 79 -128 205h-81l10 37h64q-4 23 -4 60q0 25 3 49h-66l12 37h59
q27 132 125 215q98 82 229 82q130 0 222 -68l-18 -31q-91 62 -204 62z" />
    <glyph glyph-name="trademark" unicode="&#x2122;" horiz-adv-x="781" 
d="M151 707h-116v32h265v-32h-115v-318h-34v318zM515 509l154 230h23v-350h-32v284l-135 -203h-19l-134 202v-283h-32v350h23z" />
    <glyph glyph-name="estimated" unicode="&#x212e;" horiz-adv-x="968" 
d="M492 -17q-184 0 -312 110q-127 109 -127 273q0 165 127 274q128 111 312 111q183 0 310 -109q129 -109 129 -281v-21q0 -5 -7 -5h-686v-230q0 -3 4 -4q104 -72 250 -72q103 0 189 37t137 105l35 -29q-60 -75 -155.5 -117t-205.5 -42zM238 628v-243h508v244q0 3 -3 4
q-106 73 -251 73q-146 0 -252 -73q-2 -2 -2 -5z" />
    <glyph glyph-name="uni2150" unicode="&#x2150;" horiz-adv-x="839" 
d="M205 346h-38v343l-98 -78l-21 29l129 103h28v-397zM123 0l578 739h42l-577 -739h-43zM557 361v35h246v-25l-159 -371h-39l157 361h-205z" />
    <glyph glyph-name="uni2151" unicode="&#x2151;" horiz-adv-x="834" 
d="M199 346h-38v343l-98 -78l-21 29l129 103h28v-397zM119 0l578 739h42l-577 -739h-43zM635 405q68 0 105.5 -53t37.5 -141q0 -91 -39 -154t-118 -63q-59 0 -100 33l16 27q37 -28 83 -28q67 0 97 59q30 60 27 141h-1q-9 -36 -42 -59.5t-73 -23.5q-54 0 -90.5 36.5
t-36.5 91.5q0 58 37.5 96t96.5 38zM632 174q40 0 69.5 29.5t29.5 69.5t-29 70t-70 30q-40 0 -67.5 -28.5t-27.5 -72.5q0 -42 27 -70t68 -28z" />
    <glyph glyph-name="uni2153" unicode="&#x2153;" horiz-adv-x="824" 
d="M199 346h-38v343l-98 -78l-21 29l129 103h28v-397zM89 0l578 739h42l-577 -739h-43zM691 208v-2q37 -8 58 -34.5t21 -62.5q0 -50 -37.5 -82t-96.5 -32q-64 0 -122 41l18 30q52 -35 103 -35q44 0 70 21.5t26 57.5q0 76 -99 76h-44v36h39q46 0 71 21.5t25 54.5t-23.5 52.5
t-61.5 19.5q-56 0 -96 -39l-20 27q46 48 118 48q54 0 88 -29.5t34 -74.5q0 -34 -19.5 -59t-51.5 -35z" />
    <glyph glyph-name="uni2154" unicode="&#x2154;" horiz-adv-x="819" 
d="M102 382h184v-35h-235l-1 31l112 127q43 48 61.5 78.5t18.5 58.5q0 33 -22.5 54.5t-57.5 21.5q-52 0 -98 -48l-22 26q56 56 121 56q51 0 84 -31t33 -80q0 -53 -84 -151zM118 0l578 739h42l-577 -739h-43zM675 206v-2q37 -8 58 -34.5t21 -62.5q0 -50 -37.5 -82t-96.5 -32
q-64 0 -122 41l18 30q52 -35 103 -35q44 0 70 21.5t26 57.5q0 76 -99 76h-44v36h39q46 0 71 21.5t25 54.5t-23.5 52.5t-61.5 19.5q-56 0 -96 -39l-20 27q46 48 118 48q54 0 88 -29.5t34 -74.5q0 -34 -19.5 -59t-51.5 -35z" />
    <glyph glyph-name="uni2155" unicode="&#x2155;" horiz-adv-x="838" 
d="M197 346h-38v343l-98 -78l-21 29l129 103h28v-397zM95 0l578 739h42l-577 -739h-43zM667 250q56 0 92 -34.5t36 -90.5q0 -58 -39.5 -94.5t-100.5 -36.5q-65 0 -123 48l20 30q51 -42 102 -42q46 0 73.5 26.5t27.5 69.5q0 42 -25 66.5t-67 24.5q-51 0 -87 -43l-25 17
l21 201h197v-35h-168l-15 -133q32 26 81 26z" />
    <glyph glyph-name="uni2156" unicode="&#x2156;" horiz-adv-x="820" 
d="M102 382h184v-35h-235l-1 31l112 127q43 48 61.5 78.5t18.5 58.5q0 33 -22.5 54.5t-57.5 21.5q-52 0 -98 -48l-22 26q56 56 121 56q51 0 84 -31t33 -80q0 -53 -84 -151zM120 0l578 739h42l-577 -739h-43zM628 250q56 0 92 -34.5t36 -90.5q0 -58 -39.5 -94.5t-100.5 -36.5
q-64 0 -123 48l20 30q51 -42 102 -42q46 0 73.5 26.5t27.5 69.5q0 42 -25 66.5t-67 24.5q-51 0 -87 -43l-25 17l21 201h197v-35h-168l-15 -133q32 26 81 26z" />
    <glyph glyph-name="uni2157" unicode="&#x2157;" horiz-adv-x="811" 
d="M146 377q44 0 70 21.5t26 57.5q0 76 -99 76h-44v36h39q46 0 71 21.5t25 54.5t-23.5 52.5t-61.5 19.5q-55 0 -96 -39l-20 27q47 48 118 48q54 0 88 -29.5t34 -74.5q0 -34 -19.5 -59t-51.5 -35v-2q37 -8 58 -34.5t21 -62.5q0 -50 -37.5 -82t-96.5 -32q-64 0 -122 41l18 30
q52 -35 103 -35zM108 0l578 739h42l-577 -739h-43zM620 250q56 0 92 -34.5t36 -90.5q0 -58 -39.5 -94.5t-100.5 -36.5q-64 0 -123 48l20 30q51 -42 102 -42q46 0 73.5 26.5t27.5 69.5q0 42 -25 66.5t-67 24.5q-51 0 -87 -43l-25 17l21 201h197v-35h-168l-15 -133
q32 26 81 26z" />
    <glyph glyph-name="uni2158" unicode="&#x2158;" horiz-adv-x="844" 
d="M251 347h-37v102h-190l-8 24l211 270h24v-260h46v-34h-46v-102zM130 0l578 739h42l-577 -739h-43zM214 672l-148 -189h148v189zM645 250q56 0 92 -34.5t36 -90.5q0 -58 -39.5 -94.5t-100.5 -36.5q-65 0 -123 48l20 30q51 -42 102 -42q46 0 73.5 26.5t27.5 69.5
q0 42 -25 66.5t-67 24.5q-51 0 -87 -43l-25 17l21 201h197v-35h-168l-15 -133q32 26 81 26z" />
    <glyph glyph-name="uni2159" unicode="&#x2159;" horiz-adv-x="838" 
d="M197 346h-38v343l-98 -78l-21 29l129 103h28v-397zM105 0l578 739h42l-577 -739h-43zM667 250q56 0 92 -34.5t36 -90.5q0 -58 -39.5 -94.5t-100.5 -36.5q-65 0 -123 48l20 30q51 -42 102 -42q46 0 73.5 26.5t27.5 69.5q0 42 -25 66.5t-67 24.5q-51 0 -87 -43l-25 17
l21 201h197v-35h-168l-15 -133q32 26 81 26z" />
    <glyph glyph-name="uni215A" unicode="&#x215a;" horiz-adv-x="844" 
d="M143 377q46 0 73.5 26.5t27.5 69.5q0 42 -25 66.5t-67 24.5q-51 0 -87 -43l-25 17l21 201h197v-35h-168l-15 -133q32 26 81 26q56 0 92 -34.5t36 -90.5q0 -58 -39.5 -94.5t-100.5 -36.5q-64 0 -123 48l20 30q51 -42 102 -42zM106 0l578 739h42l-577 -739h-43zM653 256
q55 0 92 -37q38 -36 38 -92q0 -57 -38.5 -95t-98.5 -38q-70 0 -108.5 53t-38.5 140q0 89 42 154q43 64 123 64q60 0 102 -33l-17 -27q-35 28 -83 28t-79 -33q-58 -58 -53 -166h1q9 36 42.5 59t75.5 23zM649 26q41 0 69.5 29t28.5 72q0 42 -28.5 70t-69.5 28q-42 0 -72 -29
t-30 -70q0 -40 30 -70t72 -30z" />
    <glyph glyph-name="oneeighth" unicode="&#x215b;" horiz-adv-x="857" 
d="M198 346h-38v343l-98 -78l-21 29l129 103h28v-397zM132 0l578 739h42l-577 -739h-43zM708 211v-1q41 -11 65 -39t24 -64q0 -48 -40.5 -80.5t-103.5 -32.5t-103.5 32.5t-40.5 80.5q0 36 23.5 64t64.5 39v1q-71 29 -71 91q0 45 35.5 74t91.5 29t91.5 -29.5t35.5 -72.5
q0 -30 -19 -55t-53 -37zM564 300q0 -31 23.5 -52t65.5 -21q30 0 52 13.5t30.5 33t4 41t-22.5 36.5q-24 21 -64 21q-39 0 -64 -20.5t-25 -51.5zM759 110q0 35 -27.5 59t-78.5 24t-78.5 -23.5t-27.5 -59.5t29.5 -59t76.5 -23t76.5 23t29.5 59z" />
    <glyph glyph-name="threeeighths" unicode="&#x215c;" horiz-adv-x="857" 
d="M145 341q-64 0 -122 41l18 30q52 -35 103 -35q44 0 70 21.5t26 57.5q0 76 -99 76h-44v36h39q46 0 71 21.5t25 54.5t-23.5 52.5t-61.5 19.5q-55 0 -96 -39l-20 27q47 48 118 48q54 0 88 -29.5t34 -74.5q0 -34 -19.5 -59t-51.5 -35v-2q37 -8 58 -34.5t21 -62.5
q0 -50 -37.5 -82t-96.5 -32zM165 0h-43l578 739h42zM510 107q0 36 23.5 64t64.5 39v1q-71 29 -71 91q0 45 35.5 74t91.5 29t91.5 -29.5t35.5 -72.5q0 -30 -19 -55t-53 -37v-1q41 -11 65 -39t24 -64q0 -48 -40.5 -80.5t-103.5 -32.5t-103.5 32.5t-40.5 80.5zM654 227
q30 0 52 13.5t30.5 33t4 41t-22.5 36.5q-24 21 -64 21q-39 0 -64 -20.5t-25 -51.5t23.5 -52t65.5 -21zM760 110q0 35 -27.5 59t-78.5 24t-78.5 -23.5t-27.5 -59.5t29.5 -59t76.5 -23t76.5 23t29.5 59z" />
    <glyph glyph-name="fiveeighths" unicode="&#x215d;" horiz-adv-x="855" 
d="M142 377q46 0 73.5 26.5t27.5 69.5q0 42 -25 66.5t-67 24.5q-51 0 -87 -43l-25 17l21 201h197v-35h-168l-15 -133q32 26 81 26q56 0 92 -34.5t36 -90.5q0 -58 -39.5 -94.5t-100.5 -36.5q-65 0 -123 48l20 30q51 -42 102 -42zM119 0l578 739h42l-577 -739h-43zM707 211v-1
q41 -11 65 -39t24 -64q0 -48 -40.5 -80.5t-103.5 -32.5t-103.5 32.5t-40.5 80.5q0 36 23.5 64t64.5 39v1q-71 29 -71 91q0 45 35.5 74t91.5 29t91.5 -29.5t35.5 -72.5q0 -30 -19 -55t-53 -37zM563 300q0 -31 23.5 -52t65.5 -21q30 0 52 13.5t30.5 33t4 41t-22.5 36.5
q-24 21 -64 21q-39 0 -64 -20.5t-25 -51.5zM758 110q0 35 -27.5 59t-78.5 24t-78.5 -23.5t-27.5 -59.5t29.5 -59t76.5 -23t76.5 23t29.5 59z" />
    <glyph glyph-name="seveneighths" unicode="&#x215e;" horiz-adv-x="795" 
d="M125 347h-39l157 361h-205v35h246v-25zM57 0l578 739h42l-577 -739h-43zM645 211v-1q41 -11 65 -39t24 -64q0 -48 -40.5 -80.5t-103.5 -32.5t-103.5 32.5t-40.5 80.5q0 36 23.5 64t64.5 39v1q-71 29 -71 91q0 45 35.5 74t91.5 29t91.5 -29.5t35.5 -72.5q0 -30 -19 -55
t-53 -37zM501 300q0 -31 23.5 -52t65.5 -21q30 0 52 13.5t30.5 33t4 41t-22.5 36.5q-24 21 -64 21q-39 0 -64 -20.5t-25 -51.5zM696 110q0 35 -27.5 59t-78.5 24t-78.5 -23.5t-27.5 -59.5t29.5 -59t76.5 -23t76.5 23t29.5 59z" />
    <glyph glyph-name="partialdiff" unicode="&#x2202;" horiz-adv-x="623" 
d="M302 -13q-108 0 -182 74q-72 75 -72 184q0 107 71 180q72 73 177 73q82 0 147 -47q64 -46 87 -124q-7 132 -80 246t-206 200l28 28q72 -47 142 -123q46 -49 76 -99q79 -124 79 -270q0 -142 -74 -233q-74 -89 -193 -89zM297 24q90 0 152 65t62 155q0 88 -62 153
q-61 64 -154 64q-90 0 -149 -62q-58 -61 -58 -153q0 -93 59 -158q60 -64 150 -64z" />
    <glyph glyph-name="product" unicode="&#x220f;" horiz-adv-x="691" 
d="M36 708h619v-37h-115v-789h-40v789h-309v-789h-40v789h-115v37z" />
    <glyph glyph-name="summation" unicode="&#x2211;" horiz-adv-x="603" 
d="M568 -179h-525v35l230 423l-230 425v35h525v-37h-482l228 -423l-228 -421h482v-37z" />
    <glyph glyph-name="minus" unicode="&#x2212;" horiz-adv-x="574" 
d="M498 321h-422v37h422v-37z" />
    <glyph glyph-name="radical" unicode="&#x221a;" horiz-adv-x="665" 
d="M328 -118h-29l-194 432h-109v37h136l180 -408l326 865h42z" />
    <glyph glyph-name="infinity" unicode="&#x221e;" horiz-adv-x="905" 
d="M681 546q72 0 120 -50q49 -49 49 -124q0 -76 -52 -127t-121 -51q-107 0 -231 145l-31 -32l-34 -36l-32 -29q-23 -20 -39 -27q-44 -23 -87 -23q-71 0 -120 51q-48 51 -48 125q0 76 52 127q53 51 126 51q48 0 91 -31q46 -32 123 -121q80 84 132 118q50 34 102 34zM221 229
q53 0 106 44q25 21 45 41q18 18 50 53q-74 86 -118 115q-40 27 -73 27q-57 0 -98 -41q-40 -40 -40 -101q0 -57 38 -98q37 -40 90 -40zM678 231q55 0 94 41q40 40 40 102q0 58 -38 96q-38 39 -95 39q-40 0 -81 -29q-40 -28 -126 -114q117 -135 206 -135z" />
    <glyph glyph-name="integral" unicode="&#x222b;" horiz-adv-x="413" 
d="M77 -210q-61 0 -102 32l17 31q38 -26 85 -26q50 0 79 40.5t29 112.5v663q0 88 40 134.5t107 46.5q61 0 106 -33l-20 -31q-40 27 -86 27q-51 0 -79 -36.5t-28 -107.5v-663q0 -89 -41.5 -139.5t-106.5 -50.5z" />
    <glyph glyph-name="approxequal" unicode="&#x2248;" horiz-adv-x="623" 
d="M425 398q-40 0 -99 34t-91 34q-39 0 -66.5 -16t-54.5 -52l-28 22q57 83 149 83q42 0 103 -34t87 -34q33 0 54.5 13t45.5 46l28 -23q-28 -39 -57 -56t-71 -17zM427 230q-40 0 -99 34t-91 34q-39 0 -66.5 -16t-54.5 -52l-28 22q57 83 149 83q42 0 103 -34t87 -34
q33 0 54.5 13t45.5 46l28 -23q-28 -39 -57 -56t-71 -17z" />
    <glyph glyph-name="notequal" unicode="&#x2260;" horiz-adv-x="574" 
d="M498 432v-37h-164l-66 -135h230v-37h-248l-62 -126h-39l62 126h-135v37h153l66 135h-219v37h237l62 126h39l-62 -126h146z" />
    <glyph glyph-name="lessequal" unicode="&#x2264;" horiz-adv-x="594" 
d="M510 235v-43l-439 218v18l439 218v-44l-379 -183zM510 117v-37h-442v37h442z" />
    <glyph glyph-name="greaterequal" unicode="&#x2265;" horiz-adv-x="594" 
d="M523 410l-439 -218v43l379 184l-379 183v44l439 -218v-18zM526 80h-442v37h442v-37z" />
    <glyph glyph-name="lozenge" unicode="&#x25ca;" horiz-adv-x="700" 
d="M361 -42h-22l-307 418l307 416h22l307 -416zM78 376l272 -372l272 372l-272 370z" />
    <glyph glyph-name="NULL" horiz-adv-x="0" 
 />
    <glyph glyph-name="Euro.osf" horiz-adv-x="539" 
d="M360 553q-88 0 -151.5 -52.5t-84.5 -139.5h349l-13 -37h-342q-2 -32 -2 -36q0 -22 3 -43h313l-14 -36h-293q22 -84 84 -133.5t152 -49.5q82 0 159 53v-41q-65 -49 -160 -49q-106 0 -180 60q-74 62 -96 160h-68l12 36h49q-2 38 -2 43q0 4 2 36h-56l13 37h48q23 104 98 166
q76 63 179 63q112 0 183 -65l-21 -31q-67 59 -161 59z" />
    <glyph glyph-name="I_J.loclNLD" horiz-adv-x="773" 
d="M105 0v739h40v-739h-40zM459 -12q-128 0 -207 100l27 26q68 -89 179 -89q78 0 128 53t50 140v521h40v-510q0 -118 -62 -180q-61 -61 -155 -61z" />
    <glyph glyph-name="Iacute_J.loclNLD" horiz-adv-x="766" 
d="M148 798h-33l60 156h53zM675 798h-33l60 156h53zM110 0v739h40v-739h-40zM464 -12q-128 0 -207 100l27 26q68 -89 179 -89q78 0 128 53t50 140v521h40v-510q0 -118 -62 -180q-61 -61 -155 -61z" />
    <glyph glyph-name="J.loclNLD" horiz-adv-x="535" 
d="M444 798h-33l60 156h53zM233 -12q-128 0 -207 100l27 26q68 -89 179 -89q78 0 128 53t50 140v521h40v-510q0 -118 -62 -180q-61 -61 -155 -61z" />
    <glyph glyph-name="Jacute" horiz-adv-x="535" 
d="M446 798h-33l60 156h53zM233 -12q-128 0 -207 100l27 26q68 -89 179 -89q78 0 128 53t50 140v521h40v-510q0 -118 -62 -180q-61 -61 -155 -61z" />
    <glyph glyph-name="_1" horiz-adv-x="0" 
 />
    <glyph glyph-name="a.ss02" horiz-adv-x="539" 
d="M251 548q96 0 153 -58t57 -166v-324h-40v100q-63 -116 -202 -116q-83 0 -133 46.5t-50 120.5q0 75 54 117t153 42q141 0 178 15q0 89 -44.5 137.5t-125.5 48.5q-47 0 -93 -15t-74 -40l-22 31q29 25 82.5 43t106.5 18zM219 21q91 0 146 61q56 62 56 160v42
q-41 -11 -170 -11q-175 0 -175 -123q0 -59 39 -94t104 -35z" />
    <glyph glyph-name="aacute.ss02" horiz-adv-x="539" 
d="M287 776h53l-80 -156h-33zM251 548q96 0 153 -58t57 -166v-324h-40v100q-63 -116 -202 -116q-83 0 -133 46.5t-50 120.5q0 75 54 117t153 42q141 0 178 15q0 89 -44.5 137.5t-125.5 48.5q-47 0 -93 -15t-74 -40l-22 31q29 25 82.5 43t106.5 18zM219 21q91 0 146 61
q56 62 56 160v42q-41 -11 -170 -11q-175 0 -175 -123q0 -59 39 -94t104 -35z" />
    <glyph glyph-name="abreve.ss02" horiz-adv-x="539" 
d="M102 768h37q3 -120 119 -120t119 120h38q0 -70 -42 -111t-115 -41t-114.5 40.5t-41.5 111.5zM251 548q96 0 153 -58t57 -166v-324h-40v100q-63 -116 -202 -116q-83 0 -133 46.5t-50 120.5q0 75 54 117t153 42q141 0 178 15q0 89 -44.5 137.5t-125.5 48.5q-47 0 -93 -15
t-74 -40l-22 31q29 25 82.5 43t106.5 18zM219 21q91 0 146 61q56 62 56 160v42q-41 -11 -170 -11q-175 0 -175 -123q0 -59 39 -94t104 -35z" />
    <glyph glyph-name="acircumflex.ss02" horiz-adv-x="539" 
d="M362 619l-105 114l-105 -114h-41l137 151h19l137 -151h-42zM251 548q96 0 153 -58t57 -166v-324h-40v100q-63 -116 -202 -116q-83 0 -133 46.5t-50 120.5q0 75 54 117t153 42q141 0 178 15q0 89 -44.5 137.5t-125.5 48.5q-47 0 -93 -15t-74 -40l-22 31q29 25 82.5 43
t106.5 18zM219 21q91 0 146 61q56 62 56 160v42q-41 -11 -170 -11q-175 0 -175 -123q0 -59 39 -94t104 -35z" />
    <glyph glyph-name="acute.case" horiz-adv-x="310" 
d="M96 798h-33l60 156h53z" />
    <glyph glyph-name="adieresis.ss02" horiz-adv-x="539" 
d="M127 677q0 18 13.5 31.5t33.5 13.5t33.5 -13.5t13.5 -31.5q2 -28 -22.5 -40t-49 0t-22.5 40zM303 677q0 18 13.5 31.5t33.5 13.5t33.5 -13.5t13.5 -31.5q2 -28 -22.5 -40t-49 0t-22.5 40zM251 548q96 0 153 -58t57 -166v-324h-40v100q-63 -116 -202 -116q-83 0 -133 46.5
t-50 120.5q0 75 54 117t153 42q141 0 178 15q0 89 -44.5 137.5t-125.5 48.5q-47 0 -93 -15t-74 -40l-22 31q29 25 82.5 43t106.5 18zM219 21q91 0 146 61q56 62 56 160v42q-41 -11 -170 -11q-175 0 -175 -123q0 -59 39 -94t104 -35z" />
    <glyph glyph-name="agrave.ss02" horiz-adv-x="539" 
d="M223 776l60 -156h-33l-80 156h53zM251 548q96 0 153 -58t57 -166v-324h-40v100q-63 -116 -202 -116q-83 0 -133 46.5t-50 120.5q0 75 54 117t153 42q141 0 178 15q0 89 -44.5 137.5t-125.5 48.5q-47 0 -93 -15t-74 -40l-22 31q29 25 82.5 43t106.5 18zM219 21
q91 0 146 61q56 62 56 160v42q-41 -11 -170 -11q-175 0 -175 -123q0 -59 39 -94t104 -35z" />
    <glyph glyph-name="amacron.ss02" horiz-adv-x="539" 
d="M105 708h301v-36l-301 -1v37zM251 548q96 0 153 -58t57 -166v-324h-40v100q-63 -116 -202 -116q-83 0 -133 46.5t-50 120.5q0 75 54 117t153 42q141 0 178 15q0 89 -44.5 137.5t-125.5 48.5q-47 0 -93 -15t-74 -40l-22 31q29 25 82.5 43t106.5 18zM219 21q91 0 146 61
q56 62 56 160v42q-41 -11 -170 -11q-175 0 -175 -123q0 -59 39 -94t104 -35z" />
    <glyph glyph-name="aogonek.ss02" horiz-adv-x="540" 
d="M460 -203l15 -25q-29 -24 -64 -29t-63 6t-46 36.5t-16 59.5q0 97 135 161v94q-63 -116 -202 -116q-83 0 -133 46.5t-50 120.5q0 75 54 117t153 42q141 0 178 15q0 89 -44.5 137.5t-125.5 48.5q-47 0 -93 -15t-74 -40l-22 31q29 25 82.5 43t106.5 18q96 0 153 -58t57 -166
v-324q-66 -29 -103.5 -71.5t-37.5 -83.5q0 -30 20.5 -51.5t50.5 -21.5q35 0 69 25zM219 21q91 0 146 61q56 62 56 160v42q-41 -11 -170 -11q-175 0 -175 -123q0 -59 39 -94t104 -35z" />
    <glyph glyph-name="aring.ss02" horiz-adv-x="539" 
d="M150 714q0 45 32 77t78 32t78 -32t32 -77q0 -44 -32 -76q-31 -31 -78 -31t-78 31q-32 32 -32 76zM180 714q0 -33 23 -55.5t57 -22.5t57 22.5t23 55.5q0 34 -23 57t-57 23t-57 -23t-23 -57zM251 548q96 0 153 -58t57 -166v-324h-40v100q-63 -116 -202 -116
q-83 0 -133 46.5t-50 120.5q0 75 54 117t153 42q141 0 178 15q0 89 -44.5 137.5t-125.5 48.5q-47 0 -93 -15t-74 -40l-22 31q29 25 82.5 43t106.5 18zM219 21q91 0 146 61q56 62 56 160v42q-41 -11 -170 -11q-175 0 -175 -123q0 -59 39 -94t104 -35z" />
    <glyph glyph-name="at.case" horiz-adv-x="949" 
d="M618 485v68h38v-279q0 -41 20.5 -63t53.5 -22q59 0 101 63q42 64 42 153q0 148 -115 256q-116 108 -271 108q-165 0 -282 -121q-116 -122 -116 -291q0 -171 119 -290q119 -118 293 -118q83 0 159 29.5t130 82.5l23 -26q-54 -54 -137 -87.5t-176 -33.5q-190 0 -320 129
q-129 129 -129 314t127 315q127 132 310 132q174 0 299 -119q124 -118 124 -283q0 -106 -53 -179q-53 -71 -128 -71q-45 0 -75 27t-36 68q-23 -44 -65.5 -69.5t-94.5 -25.5q-81 0 -137 59q-54 60 -54 147t56 149q57 61 140 61q49 0 90 -22.5t64 -60.5zM462 189q69 0 112 49
q45 50 45 122t-45 122q-45 49 -110 49t-112 -50q-45 -49 -45 -123q0 -70 44 -120q43 -49 111 -49z" />
    <glyph glyph-name="atilde.ss02" horiz-adv-x="539" 
d="M201 686q-21 0 -39.5 -16t-25.5 -36l-23 10q9 32 35 53.5t57 21.5t66 -29t55 -29q19 0 37.5 16.5t25.5 36.5l22 -9q-9 -32 -33 -54t-55 -22q-34 0 -68 28q-35 29 -54 29zM251 548q96 0 153 -58t57 -166v-324h-40v100q-63 -116 -202 -116q-83 0 -133 46.5t-50 120.5
q0 75 54 117t153 42q141 0 178 15q0 89 -44.5 137.5t-125.5 48.5q-47 0 -93 -15t-74 -40l-22 31q29 25 82.5 43t106.5 18zM219 21q91 0 146 61q56 62 56 160v42q-41 -11 -170 -11q-175 0 -175 -123q0 -59 39 -94t104 -35z" />
    <glyph glyph-name="backslash.case" horiz-adv-x="500" 
d="M64 739l407 -739h-37l-407 739h37z" />
    <glyph glyph-name="braceleft.case" horiz-adv-x="330" 
d="M317 842h-37q-63 0 -92.5 -33t-29.5 -103q0 -42 3 -125q4 -73 4 -103q0 -88 -65 -120q65 -32 65 -120q0 -30 -4 -103q-3 -83 -3 -124q0 -137 122 -137h37v-37h-37q-162 0 -162 174q0 43 3 125q4 73 4 102q0 96 -97 105v31q44 3 70.5 29t26.5 75q0 29 -4 102q-3 82 -3 126
q0 173 162 173h37v-37z" />
    <glyph glyph-name="braceright.case" horiz-adv-x="330" 
d="M205 478q0 -49 26.5 -75t70.5 -29v-31q-97 -9 -97 -105q0 -20 3 -102q4 -73 4 -125q0 -174 -162 -174h-37v37h37q122 0 122 137q0 51 -4 124q-3 82 -3 103q0 88 65 120q-65 32 -65 120q0 20 3 103q4 73 4 125q0 70 -29.5 103t-92.5 33h-37v37h37q162 0 162 -173
q0 -53 -4 -126q-3 -82 -3 -102z" />
    <glyph glyph-name="bracketleft.case" horiz-adv-x="366" 
d="M355 -157h-250v1038h250v-37h-210v-964h210v-37z" />
    <glyph glyph-name="bracketright.case" horiz-adv-x="366" 
d="M261 -157h-250v37h210v964h-210v37h250v-1038z" />
    <glyph glyph-name="breve.case" horiz-adv-x="441" 
d="M60 953h37q3 -120 119 -120t119 120h38q0 -70 -42 -111t-115 -41t-114.5 40.5t-41.5 111.5z" />
    <glyph glyph-name="brevecombcy" horiz-adv-x="0" 
d="M-389 693l23 26q64 -75 145 -75q80 0 145 75l23 -26q-72 -83 -168 -83t-168 83z" />
    <glyph glyph-name="caron.alt" horiz-adv-x="299" 
d="M79 629h-34l57 151h50z" />
    <glyph glyph-name="caron.case" horiz-adv-x="477" 
d="M228 795l-137 151h41l105 -114l105 114h42l-137 -151h-19z" />
    <glyph glyph-name="cedilla.case" horiz-adv-x="310" 
d="M188 -59q41 0 67.5 -22.5t26.5 -61.5q0 -44 -34.5 -74.5t-92.5 -30.5q-47 0 -95 22l12 29q42 -20 83 -20t67 22t26 51q0 24 -17.5 39t-50.5 15h-62l-7 13l36 97h36l-32 -82q12 3 37 3z" />
    <glyph glyph-name="circumflex.case" horiz-adv-x="478" 
d="M101 800h-41l137 151h19l137 -151h-42l-105 114z" />
    <glyph glyph-name="colon.case" horiz-adv-x="231" 
d="M116 458q-24 -1 -34.5 19t0 39.5t34.5 18.5q16 0 27.5 -11t11.5 -27q0 -17 -11.5 -28t-27.5 -11zM116 159q-24 -1 -34.5 19t0 39.5t34.5 18.5q16 0 27.5 -11t11.5 -27q0 -17 -11.5 -28t-27.5 -11z" />
    <glyph glyph-name="comma.ss03" horiz-adv-x="163" 
d="M15 -175l70 270h38l-79 -270h-29z" />
    <glyph glyph-name="commaccent" horiz-adv-x="227" 
d="M171 -117q0 -33 -25.5 -68t-69.5 -62l-12 18q67 43 82 95q-11 -11 -28 -11q-14 0 -25 10.5t-11 26.5q0 18 12.5 30t31.5 12t32 -14.5t13 -36.5z" />
    <glyph glyph-name="commaccent.case" horiz-adv-x="163" 
d="M171 -117q0 -33 -25.5 -68t-69.5 -62l-12 18q67 43 82 95q-11 -11 -28 -11q-14 0 -25 10.5t-11 26.5q0 18 12.5 30t31.5 12t32 -14.5t13 -36.5z" />
    <glyph glyph-name="dieresis.case" horiz-adv-x="392" 
d="M60 864q0 18 13.5 31.5t33.5 13.5t33.5 -13.5t13.5 -31.5q2 -28 -22.5 -40t-49 0t-22.5 40zM236 864q0 18 13.5 31.5t33.5 13.5t33.5 -13.5t13.5 -31.5q2 -28 -22.5 -40t-49 0t-22.5 40z" />
    <glyph glyph-name="dollar.osf" horiz-adv-x="467" 
d="M441 149q0 -67 -51 -110q-52 -44 -129 -50v-110h-39v109q-66 4 -118 35t-79 87l33 19q53 -104 179 -104q72 0 118 35t46 89q0 35 -22 58.5t-72 44.5q-35 14 -71 26l-60 23q-115 45 -115 141q0 60 43.5 100.5t117.5 46.5v103h40v-103q104 -8 165 -86l-30 -23
q-57 74 -154 74q-63 0 -102.5 -31t-39.5 -81q0 -34 19.5 -59t66.5 -45q21 -10 77 -30l67 -24q110 -45 110 -135z" />
    <glyph glyph-name="dotaccent.case" horiz-adv-x="302" 
d="M60 862q0 18 12.5 30t29.5 12t29 -12t12 -30q0 -17 -12 -29t-29 -12t-29.5 12t-12.5 29z" />
    <glyph glyph-name="eight.dnom" horiz-adv-x="344" 
d="M28 107q0 36 23.5 64t64.5 39v1q-71 29 -71 91q0 45 35.5 74t91.5 29t91.5 -29.5t35.5 -72.5q0 -30 -19 -55t-53 -37v-1q41 -11 65 -39t24 -64q0 -48 -40.5 -80.5t-103.5 -32.5t-103.5 32.5t-40.5 80.5zM172 227q30 0 52 13.5t30.5 33t4 41t-22.5 36.5q-24 21 -64 21
q-39 0 -64 -20.5t-25 -51.5t23.5 -52t65.5 -21zM278 110q0 35 -27.5 59t-78.5 24t-78.5 -23.5t-27.5 -59.5t29.5 -59t76.5 -23t76.5 23t29.5 59z" />
    <glyph glyph-name="eight.lf" horiz-adv-x="599" 
d="M55 197q0 66 41 121q42 55 117 71v2q-63 24 -96 70.5t-33 102.5q0 79 61 133q61 55 155 55t154 -54q61 -54 61 -133q0 -57 -33.5 -104.5t-96.5 -69.5v-3q74 -17 116.5 -69.5t42.5 -121.5q0 -87 -69 -149q-67 -60 -175 -60q-107 0 -176 60t-69 149zM299 407q86 0 132 49
t46 109q0 62 -50 106t-127 44q-78 0 -128 -45q-49 -43 -49 -106q0 -58 45 -108q46 -49 131 -49zM505 197q0 30 -11 59.5t-33.5 56t-64 43t-95.5 16.5q-103 0 -156 -54q-51 -52 -51 -122q0 -73 58 -122t148 -49q91 0 147 49q58 49 58 123z" />
    <glyph glyph-name="eight.num" horiz-adv-x="344" 
d="M28 454q0 36 23.5 64t64.5 39v1q-71 29 -71 91q0 45 35.5 74t91.5 29t91.5 -29.5t35.5 -72.5q0 -30 -19 -55t-53 -37v-1q41 -11 65 -39t24 -64q0 -48 -40.5 -80.5t-103.5 -32.5t-103.5 32.5t-40.5 80.5zM172 574q30 0 52 13.5t30.5 33t4 41t-22.5 36.5q-24 21 -64 21
q-39 0 -64 -20.5t-25 -51.5t23.5 -52t65.5 -21zM278 457q0 35 -27.5 59t-78.5 24t-78.5 -23.5t-27.5 -59.5t29.5 -59t76.5 -23t76.5 23t29.5 59z" />
    <glyph glyph-name="eight.osf" horiz-adv-x="593" 
d="M52 188q0 65 42 115.5t116 67.5v2q-63 23 -96 67.5t-33 97.5q0 76 61 128t155 52q95 0 154 -52q61 -51 61 -127q0 -55 -33.5 -100t-96.5 -66v-3q74 -15 116.5 -65.5t42.5 -116.5q0 -84 -69 -142q-67 -58 -175 -58q-107 0 -176 57q-69 59 -69 143zM296 389q86 0 132 46
t46 104q0 59 -50 101t-127 42q-79 0 -128 -43q-49 -42 -49 -101q0 -56 45 -103q46 -46 131 -46zM502 188q0 65 -50 115q-50 51 -154 51t-156 -51q-51 -49 -51 -116q0 -70 58 -116t148 -46q91 0 147 46q58 46 58 117z" />
    <glyph glyph-name="eight.tf" horiz-adv-x="560" 
d="M35 197q0 66 41 121q42 55 117 71v2q-63 24 -96 70.5t-33 102.5q0 79 61 133q61 55 155 55t154 -54q61 -54 61 -133q0 -57 -33.5 -104.5t-96.5 -69.5v-3q74 -17 116.5 -69.5t42.5 -121.5q0 -87 -69 -149q-67 -60 -175 -60q-107 0 -176 60t-69 149zM279 407q86 0 132 49
t46 109q0 62 -50 106t-127 44q-78 0 -128 -45q-49 -43 -49 -106q0 -58 45 -108q46 -49 131 -49zM485 197q0 30 -11 59.5t-33.5 56t-64 43t-95.5 16.5q-103 0 -156 -54q-51 -52 -51 -122q0 -73 58 -122t148 -49q91 0 147 49q58 49 58 123z" />
    <glyph glyph-name="eight_fraction_nine" horiz-adv-x="809" 
d="M25 454q0 36 23.5 64t64.5 39v1q-71 29 -71 91q0 45 35.5 74t91.5 29t91.5 -29.5t35.5 -72.5q0 -30 -19 -55t-53 -37v-1q41 -11 65 -39t24 -64q0 -48 -40.5 -80.5t-103.5 -32.5t-103.5 32.5t-40.5 80.5zM140 0h-43l578 739h42zM169 574q30 0 52 13.5t30.5 33t4 41
t-22.5 36.5q-24 21 -64 21q-39 0 -64 -20.5t-25 -51.5t23.5 -52t65.5 -21zM275 457q0 35 -27.5 59t-78.5 24t-78.5 -23.5t-27.5 -59.5t29.5 -59t76.5 -23t76.5 23t29.5 59zM596 -6q-60 0 -100 33l16 27q37 -28 83 -28q67 0 97 59q30 60 27 141h-1q-9 -36 -42 -59.5
t-73 -23.5q-54 0 -90.5 36.5t-36.5 91.5q0 58 37.5 96t96.5 38q68 0 105.5 -53t37.5 -141q0 -91 -39 -154t-118 -63zM607 174q40 0 69.5 29.5t29.5 69.5t-29 70t-70 30q-40 0 -67.5 -28.5t-27.5 -72.5q0 -42 27 -70t68 -28z" />
    <glyph glyph-name="emdash.case" horiz-adv-x="1014" 
d="M937 343h-860v37h860v-37z" />
    <glyph glyph-name="endash.case" horiz-adv-x="695" 
d="M618 343h-541v37h541v-37z" />
    <glyph glyph-name="exclamdown.case" horiz-adv-x="248" 
d="M135 757q16 0 27.5 -11t11.5 -28q0 -16 -11.5 -27t-27.5 -11q-24 -1 -34.5 18.5t0 39.5t34.5 19zM114 1l3 588h33l4 -588h-40z" />
    <glyph glyph-name="five.dnom" horiz-adv-x="315" 
d="M156 250q56 0 92 -34.5t36 -90.5q0 -58 -39.5 -94.5t-100.5 -36.5q-64 0 -123 48l20 30q51 -42 102 -42q46 0 73.5 26.5t27.5 69.5q0 42 -25 66.5t-67 24.5q-51 0 -87 -43l-25 17l21 201h197v-35h-168l-15 -133q32 26 81 26z" />
    <glyph glyph-name="five.lf" horiz-adv-x="551" 
d="M281 468q95 0 160 -63t65 -171q0 -111 -70 -178q-71 -68 -176 -68q-112 0 -213 92l24 27q89 -82 188 -82q91 0 149 58t58 152q0 90 -53 143t-134 53q-101 0 -170 -90l-31 13l35 385h344v-37h-309l-29 -299q62 65 162 65z" />
    <glyph glyph-name="five.num" horiz-adv-x="315" 
d="M156 597q56 0 92 -34.5t36 -90.5q0 -58 -39.5 -94.5t-100.5 -36.5q-64 0 -123 48l20 30q51 -42 102 -42q46 0 73.5 26.5t27.5 69.5q0 42 -25 66.5t-67 24.5q-51 0 -87 -43l-25 17l21 201h197v-35h-168l-15 -133q32 26 81 26z" />
    <glyph glyph-name="five.osf" horiz-adv-x="528" 
d="M268 328q94 0 159 -59q64 -58 64 -157q0 -102 -70 -163q-69 -63 -173 -63q-114 0 -211 85l24 27q87 -75 186 -75q89 0 147 53q57 53 57 137q0 81 -52 129q-52 49 -133 49q-100 0 -167 -81l-31 13l34 352h341v-37h-307l-27 -269q62 59 159 59z" />
    <glyph glyph-name="five.tf" horiz-adv-x="560" 
d="M286 468q96 0 160 -63q65 -63 65 -171q0 -111 -70 -178q-71 -68 -176 -68q-112 0 -213 92l24 27q89 -82 188 -82q91 0 149 58t58 152q0 90 -53 143t-134 53q-101 0 -170 -90l-31 13l35 385h344v-37h-309l-29 -299q62 65 162 65z" />
    <glyph glyph-name="five_fraction_nine" horiz-adv-x="807" 
d="M146 377q46 0 73.5 26.5t27.5 69.5q0 42 -25 66.5t-67 24.5q-51 0 -87 -43l-25 17l21 201h197v-35h-168l-15 -133q32 26 81 26q56 0 92 -34.5t36 -90.5q0 -58 -39.5 -94.5t-100.5 -36.5q-65 0 -123 48l20 30q51 -42 102 -42zM94 0l578 739h42l-577 -739h-43zM608 405
q68 0 105.5 -53t37.5 -141q0 -91 -39 -154t-118 -63q-60 0 -100 33l16 27q37 -28 83 -28q67 0 97 59q30 60 27 141h-1q-9 -36 -42 -59.5t-73 -23.5q-54 0 -90.5 36.5t-36.5 91.5q0 58 37.5 96t96.5 38zM605 174q40 0 69.5 29.5t29.5 69.5t-29 70t-70 30q-40 0 -67.5 -28.5
t-27.5 -72.5q0 -42 27 -70t68 -28z" />
    <glyph glyph-name="five_fraction_seven" horiz-adv-x="817" 
d="M148 377q46 0 73.5 26.5t27.5 69.5q0 42 -25 66.5t-67 24.5q-51 0 -87 -43l-25 17l21 201h197v-35h-168l-15 -133q32 26 81 26q56 0 92 -34.5t36 -90.5q0 -58 -39.5 -94.5t-100.5 -36.5q-65 0 -123 48l20 30q51 -42 102 -42zM110 0l578 739h42l-577 -739h-43zM535 361v35
h246v-25l-159 -371h-39l157 361h-205z" />
    <glyph glyph-name="four.dnom" horiz-adv-x="334" 
d="M247 136h46v-34h-46v-102h-37v102h-190l-8 24l211 270h24v-260zM210 325l-148 -189h148v189z" />
    <glyph glyph-name="four.lf" horiz-adv-x="549" 
d="M425 241h84v-37h-84v-204h-40v204h-364l-5 25l382 510h27v-498zM385 658l-314 -417h314v417z" />
    <glyph glyph-name="four.num" horiz-adv-x="334" 
d="M247 483h46v-34h-46v-102h-37v102h-190l-8 24l211 270h24v-260zM210 672l-148 -189h148v189z" />
    <glyph glyph-name="four.osf" horiz-adv-x="557" 
d="M435 115h84v-37h-84v-176h-40v176h-364l-5 25l382 475h27v-463zM395 499l-313 -384h313v384z" />
    <glyph glyph-name="four.tf" horiz-adv-x="560" 
d="M439 241h84v-37h-84v-204h-40v204h-364l-5 25l382 510h27v-498zM399 658l-314 -417h314v417z" />
    <glyph glyph-name="four_fraction_nine" horiz-adv-x="865" 
d="M250 347h-37v102h-190l-8 24l211 270h24v-260h46v-34h-46v-102zM141 0l578 739h42l-577 -739h-43zM213 672l-148 -189h148v189zM658 405q68 0 105.5 -53t37.5 -141q0 -91 -39 -154t-118 -63q-60 0 -100 33l16 27q37 -28 83 -28q67 0 97 59q30 60 27 141h-1
q-9 -36 -42 -59.5t-73 -23.5q-54 0 -90.5 36.5t-36.5 91.5q0 58 37.5 96t96.5 38zM655 174q40 0 69.5 29.5t29.5 69.5t-29 70t-70 30q-40 0 -67.5 -28.5t-27.5 -72.5q0 -42 27 -70t68 -28z" />
    <glyph glyph-name="four_fraction_seven" horiz-adv-x="826" 
d="M251 347h-37v102h-190l-8 24l211 270h24v-260h46v-34h-46v-102zM129 0l578 739h42l-577 -739h-43zM214 672l-148 -189h148v189zM540 361v35h246v-25l-159 -371h-39l157 361h-205z" />
    <glyph glyph-name="grave.case" horiz-adv-x="294" 
d="M110 953l60 -156h-33l-80 156h53z" />
    <glyph glyph-name="guillemotleft.case" horiz-adv-x="493" 
d="M244 159h-42l-146 203l146 203h42l-146 -203zM422 159h-42l-146 203l146 203h42l-146 -203z" />
    <glyph glyph-name="guillemotright.case" horiz-adv-x="493" 
d="M259 362l-146 -203h-42l146 203l-146 203h42zM437 362l-146 -203h-42l146 203l-146 203h42z" />
    <glyph glyph-name="guilsinglleft.case" horiz-adv-x="315" 
d="M244 159h-42l-146 203l146 203h42l-146 -203z" />
    <glyph glyph-name="guilsinglright.case" horiz-adv-x="315" 
d="M259 362l-146 -203h-42l146 203l-146 203h42z" />
    <glyph glyph-name="hungarumlaut.case" horiz-adv-x="502" 
d="M73 798h-24l48 156h51zM214 798h-25l65 156h52z" />
    <glyph glyph-name="hyphen.case" horiz-adv-x="536" 
d="M459 343h-382v37h382v-37z" />
    <glyph glyph-name="i.loclTRK" horiz-adv-x="210" 
d="M59 664q0 18 12.5 30t29.5 12t29 -12t12 -30q0 -17 -12 -29t-29 -12t-29.5 12t-12.5 29zM119 535v-535h-40v535h40z" />
    <glyph glyph-name="i_j.loclNLD" horiz-adv-x="483" 
d="M58 664q0 18 12.5 30t29.5 12t29 -12t12 -30q0 -17 -12 -29t-29 -12t-29.5 12t-12.5 29zM311 664q0 18 12.5 30t29.5 12t29 -12t12 -30q0 -17 -12 -29t-29 -12t-29.5 12t-12.5 29zM119 535v-535h-40v535h40zM223 -228q-55 0 -98 25l14 34q41 -22 85 -22q51 0 79.5 33
t28.5 93v600h40v-600q0 -77 -40 -120t-109 -43z" />
    <glyph glyph-name="iacute_j.loclNLD" horiz-adv-x="457" 
d="M124 620h-33l60 156h53zM367 620h-33l60 156h53zM125 535v-535h-40v535h40zM223 -228q-55 0 -98 25l14 34q41 -22 85 -22q51 0 79.5 33t28.5 93v600h40v-600q0 -77 -40 -120t-109 -43z" />
    <glyph glyph-name="j.loclNLD" horiz-adv-x="234" 
d="M88 664q0 18 12.5 30t29.5 12t29 -12t12 -30q0 -17 -12 -29t-29 -12t-29.5 12t-12.5 29zM0 -228q-55 0 -98 25l14 34q41 -22 85 -22q51 0 79.5 33t28.5 93v600h40v-600q0 -77 -40 -120t-109 -43z" />
    <glyph glyph-name="jacute" horiz-adv-x="234" 
d="M144 620h-33l60 156h53zM0 -228q-55 0 -98 25l14 34q41 -22 85 -22q51 0 79.5 33t28.5 93v600h40v-600q0 -77 -40 -120t-109 -43z" />
    <glyph glyph-name="macron.case" horiz-adv-x="474" 
d="M386 849l-331 -1v37h331v-36z" />
    <glyph glyph-name="nine.dnom" horiz-adv-x="337" 
d="M150 -6q-60 0 -100 33l16 27q37 -28 83 -28q67 0 97 59q30 60 27 141h-1q-9 -36 -42 -59.5t-73 -23.5q-54 0 -90.5 36.5t-36.5 91.5q0 58 37.5 96t96.5 38q68 0 105.5 -53t37.5 -141q0 -91 -39 -154t-118 -63zM161 174q40 0 69.5 29.5t29.5 69.5t-29 70t-70 30
q-40 0 -67.5 -28.5t-27.5 -72.5q0 -42 27 -70t68 -28z" />
    <glyph glyph-name="nine.lf" horiz-adv-x="593" 
d="M261 -9q-100 0 -173 61l22 30q62 -54 150 -54q68 0 119.5 37.5t76.5 102.5q47 121 39 278h-2q-12 -74 -77 -127q-64 -52 -142 -52q-95 0 -163 68q-66 67 -66 171q0 106 66 176t169 70q121 0 188.5 -101.5t65.5 -256.5q0 -62 -9.5 -119t-30.5 -109.5t-52.5 -91t-77.5 -61
t-103 -22.5zM274 304q79 0 139 61q61 61 61 143q0 79 -59 143q-58 64 -141 64q-78 0 -134 -59q-55 -58 -55 -149q0 -87 54 -145q55 -58 135 -58z" />
    <glyph glyph-name="nine.num" horiz-adv-x="337" 
d="M150 341q-60 0 -100 33l16 27q37 -28 83 -28q67 0 97 59q30 60 27 141h-1q-9 -36 -42 -59.5t-73 -23.5q-54 0 -90.5 36.5t-36.5 91.5q0 58 37.5 96t96.5 38q68 0 105.5 -53t37.5 -141q0 -91 -39 -154t-118 -63zM161 521q40 0 69.5 29.5t29.5 69.5t-29 70t-70 30
q-40 0 -67.5 -28.5t-27.5 -72.5q0 -42 27 -70t68 -28z" />
    <glyph glyph-name="nine.osf" horiz-adv-x="570" 
d="M250 -112q-97 0 -170 56l22 30q61 -49 147 -49q68 0 117.5 34t74.5 92q47 108 39 251h-2q-12 -67 -76 -113q-62 -46 -139 -46q-95 0 -160 62q-65 63 -65 157q0 97 65 162t166 65q120 0 185 -93q65 -92 65 -237q0 -146 -62 -255q-31 -54 -85 -85t-122 -31zM263 179
q78 0 136 55q60 56 60 130q0 73 -57 130q-57 58 -139 58q-77 0 -131 -54t-54 -135q0 -79 53 -132q53 -52 132 -52z" />
    <glyph glyph-name="nine.tf" horiz-adv-x="560" 
d="M245 -9q-100 0 -173 61l22 30q62 -54 150 -54q68 0 119.5 37.5t76.5 102.5q47 121 39 278h-2q-12 -74 -77 -127q-64 -52 -142 -52q-95 0 -163 68q-66 67 -66 171q0 106 66 176t169 70q121 0 188.5 -101.5t65.5 -256.5q0 -62 -9.5 -119t-30.5 -109.5t-52.5 -91t-77.5 -61
t-103 -22.5zM258 304q79 0 139 61q61 61 61 143q0 79 -59 143q-58 64 -141 64q-78 0 -134 -59q-55 -58 -55 -149q0 -87 54 -145q55 -58 135 -58z" />
    <glyph glyph-name="ogonek.case" horiz-adv-x="323" 
d="M234 -203l15 -25q-29 -24 -64 -29t-63 6t-46 36.5t-16 59.5q0 103 154 170l21 -15q-66 -29 -103.5 -71.5t-37.5 -83.5q0 -30 20.5 -51.5t50.5 -21.5q35 0 69 25z" />
    <glyph glyph-name="one.dnom" horiz-adv-x="255" 
d="M28 293l129 103h28v-397h-38v343l-98 -78z" />
    <glyph glyph-name="one.lf" horiz-adv-x="360" 
d="M11 557l216 182h28v-739h-40v679l-178 -150z" />
    <glyph glyph-name="one.num" horiz-adv-x="255" 
d="M28 640l129 103h28v-396h-38v342l-98 -78z" />
    <glyph glyph-name="one.numalt" horiz-adv-x="328" 
d="M41 640l129 103h28v-397h-38v343l-98 -78z" />
    <glyph glyph-name="one.osf" horiz-adv-x="418" 
d="M264 580v-543h140v-37h-372v37h192v488l-185 -124l-22 32l218 147h29z" />
    <glyph glyph-name="one.tf" horiz-adv-x="560" 
d="M332 739v-703h170v-37h-387v37h177v643l-178 -150l-26 28l216 182h28z" />
    <glyph glyph-name="parenleft.case" horiz-adv-x="360" 
d="M355 -122l-18 -33q-138 77 -213 211q-75 135 -75 303q0 169 75 303q75 136 213 212l18 -33q-127 -70 -198 -197q-69 -126 -69 -285q0 -160 70 -285q71 -126 197 -196z" />
    <glyph glyph-name="parenright.case" horiz-adv-x="360" 
d="M23 -155l-18 33q126 70 197 196q70 125 70 285t-70 285q-69 126 -197 197l18 33q138 -76 213 -212q75 -134 75 -303q0 -168 -75 -303q-75 -134 -213 -211z" />
    <glyph glyph-name="periodcentered.case" horiz-adv-x="223" 
d="M112 324q-24 -1 -34.5 19t0 39.5t34.5 18.5q16 0 27.5 -11t11.5 -27q0 -17 -11.5 -28t-27.5 -11z" />
    <glyph glyph-name="questiondown.case" horiz-adv-x="490" 
d="M269 757q24 1 34.5 -19t0 -39.5t-34.5 -18.5q-16 0 -27.5 11t-11.5 27q0 17 11.5 28t27.5 11zM250 586h38v-76q0 -76 -70 -142q-4 -3 -24.5 -22t-26.5 -25.5t-23 -23.5t-23 -27.5l-15.5 -27t-13 -32t-3.5 -32.5q0 -62 47 -106q46 -42 120 -42q102 0 175 88l28 -23
q-38 -48 -91.5 -75t-111.5 -27q-84 0 -146 51q-61 51 -61 135q0 80 71 149l35 33.5t37 36t28 32.5t23 39t7 38v79z" />
    <glyph glyph-name="quotedblbase.ss03" horiz-adv-x="361" 
d="M23 -146l70 270h38l-79 -270h-29zM230 -146l70 270h38l-79 -270h-29z" />
    <glyph glyph-name="quotedblleft.ss03" horiz-adv-x="383" 
d="M163 828l-70 -270h-38l79 270h29zM369 828l-70 -270h-38l79 270h29z" />
    <glyph glyph-name="quotedblright.ss03" horiz-adv-x="380" 
d="M59 559l70 270h38l-79 -270h-29zM266 559l70 270h38l-79 -270h-29z" />
    <glyph glyph-name="quoteleft.ss03" horiz-adv-x="211" 
d="M166 828l-70 -270h-38l79 270h29z" />
    <glyph glyph-name="quoteright.ss03" horiz-adv-x="208" 
d="M58 559l70 270h38l-79 -270h-29z" />
    <glyph glyph-name="quotesinglbase.ss03" horiz-adv-x="213" 
d="M37 -146l70 270h38l-79 -270h-29z" />
    <glyph glyph-name="ring.case" horiz-adv-x="320" 
d="M60 891q0 45 32 77t78 32t78 -32t32 -77q0 -44 -32 -76q-31 -31 -78 -31t-78 31q-32 32 -32 76zM250 891q0 34 -23 57t-57 23t-57 -23t-23 -57q0 -33 23 -55.5t57 -22.5t57 22.5t23 55.5z" />
    <glyph glyph-name="semicolon.case" horiz-adv-x="259" 
d="M93 496q0 16 12.5 28t29.5 12t29 -11.5t12 -28.5q2 -32 -30 -39q-29 -6 -46 15q-8 10 -7 24zM181 195q0 -33 -25.5 -68t-69.5 -62l-12 18q67 43 82 95q-11 -11 -28 -11q-14 0 -25 10.5t-11 26.5q0 18 12.5 30t31.5 12t32 -14.5t13 -36.5z" />
    <glyph glyph-name="semicolon.case.ss03" horiz-adv-x="259" 
d="M93 496q0 16 12.5 28t29.5 12t29 -11.5t12 -28.5q2 -32 -30 -39q-29 -6 -46 15q-8 10 -7 24zM43 -99l70 270h38l-79 -270h-29z" />
    <glyph glyph-name="semicolon.ss03" horiz-adv-x="236" 
d="M86 414q0 16 12.5 28t29.5 12t29 -11.5t12 -28.5q2 -32 -30 -39q-29 -6 -46 15q-8 10 -7 24zM39 -175l70 270h38l-79 -270h-29z" />
    <glyph glyph-name="seven.dnom" horiz-adv-x="299" 
d="M31 361v35h246v-25l-159 -371h-39l157 361h-205z" />
    <glyph glyph-name="seven.lf" horiz-adv-x="478" 
d="M17 702v37h442v-28l-297 -711h-43l297 702h-399z" />
    <glyph glyph-name="seven.num" horiz-adv-x="299" 
d="M31 708v35h246v-25l-159 -371h-39l157 361h-205z" />
    <glyph glyph-name="seven.osf" horiz-adv-x="473" 
d="M13 538v37h442v-27l-287 -645h-43l287 635h-399z" />
    <glyph glyph-name="seven.tf" horiz-adv-x="560" 
d="M58 702v37h462v-28l-327 -711h-43l326 702h-418z" />
    <glyph glyph-name="seven_fraction_nine" horiz-adv-x="787" 
d="M124 347h-39l157 361h-205v35h246v-25zM47 0l578 739h42l-577 -739h-43zM587 405q68 0 105.5 -53t37.5 -141q0 -91 -39 -154t-118 -63q-59 0 -100 33l16 27q37 -28 83 -28q67 0 97 59q30 60 27 141h-1q-9 -36 -42 -59.5t-73 -23.5q-54 0 -90.5 36.5t-36.5 91.5
q0 58 37.5 96t96.5 38zM584 174q40 0 69.5 29.5t29.5 69.5t-29 70t-70 30q-40 0 -67.5 -28.5t-27.5 -72.5q0 -42 27 -70t68 -28z" />
    <glyph glyph-name="six.dnom" horiz-adv-x="344" 
d="M177 -6q-70 0 -108.5 53t-38.5 140q0 89 42 154q43 64 123 64q60 0 102 -33l-17 -27q-35 28 -83 28q-47 0 -79 -33q-58 -58 -53 -166h1q9 36 42.5 59t75.5 23q55 0 92 -37q38 -36 38 -92q0 -57 -38.5 -95t-98.5 -38zM180 26q41 0 69.5 29t28.5 72q0 42 -28.5 70t-69.5 28
q-42 0 -72 -29t-30 -70q0 -40 30 -70t72 -30z" />
    <glyph glyph-name="six.lf" horiz-adv-x="594" 
d="M312 -9q-121 0 -188.5 101.5t-65.5 256.5q0 107 28 194q28 88 94 149q66 60 158 60q100 0 173 -61l-22 -30q-61 54 -150 54q-67 0 -119 -37.5t-80 -102.5q-51 -122 -43 -278h2q12 76 76 128t143 52q96 0 162 -69q67 -67 67 -171q0 -105 -66 -176q-66 -70 -169 -70z
M318 28q78 0 134 59q55 58 55 149q0 88 -55 146q-54 58 -134 58q-79 0 -140 -61q-60 -61 -60 -144q0 -80 58 -144q58 -63 142 -63z" />
    <glyph glyph-name="six.num" horiz-adv-x="344" 
d="M177 341q-70 0 -108.5 53t-38.5 140q0 90 42 154q43 64 123 64q60 0 102 -33l-17 -27q-35 28 -83 28q-47 0 -79 -33q-58 -58 -53 -166h1q9 36 42.5 59t75.5 23q55 0 92 -37q38 -36 38 -92q0 -57 -38.5 -95t-98.5 -38zM180 373q41 0 69.5 29t28.5 72q0 42 -28.5 70
t-69.5 28q-42 0 -72 -29t-30 -70q0 -40 30 -70t72 -30z" />
    <glyph glyph-name="six.osf" horiz-adv-x="594" 
d="M312 -9q-122 0 -188 96t-66 246q0 74 17 141.5t50 122.5t88 88t125 33q100 0 173 -58l-22 -30q-61 52 -150 52q-68 0 -119.5 -36t-79.5 -97q-51 -115 -43 -263h2q12 72 76 121t143 49q96 0 162 -66q67 -64 67 -164t-66 -168q-66 -67 -169 -67zM318 28q78 0 134 56
q55 55 55 141q0 83 -55 138q-54 56 -134 56q-79 0 -140 -58q-60 -59 -60 -137q0 -77 58 -136q58 -60 142 -60z" />
    <glyph glyph-name="six.tf" horiz-adv-x="560" 
d="M295 -9q-121 0 -188.5 101.5t-65.5 256.5q0 107 28 194q28 88 94 149q66 60 158 60q100 0 173 -61l-22 -30q-62 54 -150 54q-67 0 -119 -37.5t-80 -102.5q-51 -122 -43 -278h2q12 76 76 128t143 52q96 0 162 -69q67 -67 67 -171q0 -105 -66 -176q-66 -70 -169 -70z
M301 28q78 0 134 59q55 58 55 149q0 88 -55 146q-54 58 -134 58q-79 0 -140 -61q-60 -61 -60 -144q0 -80 58 -144q59 -63 142 -63z" />
    <glyph glyph-name="six_fraction_seven" horiz-adv-x="822" 
d="M311 474q0 -57 -38.5 -95t-98.5 -38q-70 0 -108.5 53t-38.5 140q0 90 42 154q43 64 123 64q60 0 102 -33l-17 -27q-35 28 -83 28t-79 -33q-58 -58 -53 -166h1q9 36 42.5 59t75.5 23q55 0 92 -37q38 -36 38 -92zM111 0l578 739h42l-577 -739h-43zM75 473q0 -40 30 -70
t72 -30q41 0 69.5 29t28.5 72q0 42 -28.5 70t-69.5 28q-42 0 -72 -29t-30 -70zM540 361v35h246v-25l-159 -371h-39l157 361h-205z" />
    <glyph glyph-name="slash.case" horiz-adv-x="500" 
d="M66 0h-37l407 739h37z" />
    <glyph glyph-name="sterling.osf" horiz-adv-x="448" 
d="M100 37h338v-37h-401v26q38 28 61.5 71.5t23.5 91.5q0 41 -21 87h-71v36h55q-22 50 -22 96q0 81 52 130t137 51q54 1 101.5 -25t71.5 -69l-31 -20q-48 77 -142 77q-67 0 -108 -38t-41 -104q0 -44 25 -98h252v-36h-236q18 -45 18 -86q0 -85 -62 -153z" />
    <glyph glyph-name="three.dnom" horiz-adv-x="301" 
d="M144 -6q-64 0 -122 41l18 30q52 -35 103 -35q44 0 70 21.5t26 57.5q0 76 -99 76h-44v36h39q46 0 71 21.5t25 54.5t-23.5 52.5t-61.5 19.5q-56 0 -96 -39l-20 27q46 48 118 48q54 0 88 -29.5t34 -74.5q0 -34 -19.5 -59t-51.5 -35v-2q37 -8 58 -34.5t21 -62.5
q0 -50 -37.5 -82t-96.5 -32z" />
    <glyph glyph-name="three.lf" horiz-adv-x="535" 
d="M244 -12q-117 0 -209 76l23 31q86 -70 186 -70q86 0 138 48q53 48 53 123t-48 118t-149 43h-72v37h61q99 0 146 50.5t47 113.5q0 69 -47 113t-123 44q-51 0 -99 -20.5t-80 -57.5l-24 26q35 41 90 65t113 24q94 0 152 -56q58 -55 58 -138q0 -62 -34.5 -110.5t-90.5 -66.5
v-4q64 -15 102 -64.5t38 -116.5q0 -90 -65 -149t-166 -59z" />
    <glyph glyph-name="three.num" horiz-adv-x="301" 
d="M144 341q-64 0 -122 41l18 30q52 -35 103 -35q44 0 70 21.5t26 57.5q0 76 -99 76h-44v36h39q46 0 71 21.5t25 54.5t-23.5 52.5t-61.5 19.5q-56 0 -96 -39l-20 27q46 48 118 48q54 0 88 -29.5t34 -74.5q0 -34 -19.5 -59t-51.5 -35v-2q37 -8 58 -34.5t21 -62.5
q0 -50 -37.5 -82t-96.5 -32z" />
    <glyph glyph-name="three.osf" horiz-adv-x="510" 
d="M231 -110q-116 0 -206 69l23 31q86 -63 183 -63q83 0 135 43t52 111q0 67 -47.5 106.5t-145.5 39.5h-71v36h60q98 0 143 45q46 45 46 103q0 62 -46 101.5t-120 39.5q-51 0 -98 -19t-78 -52l-24 26q35 38 88.5 60t111.5 22q94 0 149 -52q57 -51 57 -126q0 -56 -34 -99.5
t-89 -61.5v-4q63 -13 100.5 -58t37.5 -107q0 -82 -64 -136q-62 -55 -163 -55z" />
    <glyph glyph-name="three.tf" horiz-adv-x="560" 
d="M249 -12q-117 0 -209 76l23 31q86 -70 186 -70q85 0 138 48t53 123t-48 118t-149 43h-72v37h61q99 0 146 50.5t47 113.5q0 69 -47 113t-123 44q-51 0 -99 -20.5t-80 -57.5l-24 26q35 41 90 65t113 24q94 0 152 -56q58 -55 58 -138q0 -62 -34.5 -110.5t-90.5 -66.5v-4
q64 -15 102 -64.5t38 -116.5q0 -90 -65 -149t-166 -59z" />
    <glyph glyph-name="three_fraction_seven" horiz-adv-x="856" 
d="M150 377q44 0 70 21.5t26 57.5q0 76 -99 76h-44v36h39q46 0 71 21.5t25 54.5t-23.5 52.5t-61.5 19.5q-55 0 -96 -39l-20 27q47 48 118 48q54 0 88 -29.5t34 -74.5q0 -34 -19.5 -59t-51.5 -35v-2q37 -8 58 -34.5t21 -62.5q0 -50 -37.5 -82t-96.5 -32q-64 0 -122 41l18 30
q52 -35 103 -35zM125 0l578 739h42l-577 -739h-43zM575 361v35h246v-25l-159 -371h-39l157 361h-205z" />
    <glyph glyph-name="tilde.case" horiz-adv-x="536" 
d="M79 832l-26 11q12 36 39.5 59.5t62.5 23.5q34 0 72 -32t61 -32q21 0 40.5 17.5t28.5 40.5l24 -10q-9 -35 -36 -59t-61 -24q-37 0 -74 31t-60 31t-42.5 -17t-28.5 -40z" />
    <glyph glyph-name="two.dnom" horiz-adv-x="329" 
d="M193 143l-94 -108h184v-35h-235l-1 31l112 127q43 48 61.5 78.5t18.5 58.5q0 33 -22.5 54.5t-57.5 21.5q-51 0 -98 -48l-22 26q56 56 121 56q51 0 84 -31t33 -80q0 -53 -84 -151z" />
    <glyph glyph-name="two.lf" horiz-adv-x="525" 
d="M279 238l-172 -202h370v-37h-423v36l196 229l69 83q26 33 52 71q52 77 52 141q0 66 -47 111q-46 45 -121 45q-102 0 -189 -92l-28 26q97 103 217 103q90 0 149 -56t59 -140q0 -55 -39 -124q-37 -67 -145 -194z" />
    <glyph glyph-name="two.num" horiz-adv-x="329" 
d="M193 490l-94 -108h184v-35h-235l-1 31l112 127q43 48 61.5 78.5t18.5 58.5q0 33 -22.5 54.5t-57.5 21.5q-51 0 -98 -48l-22 26q56 56 121 56q51 0 84 -31t33 -80q0 -53 -84 -151z" />
    <glyph glyph-name="two.osf" horiz-adv-x="496" 
d="M268 181l-156 -145h336v-37h-395v35l208 193l51 48q5 5 39 43q46 53 46 109q0 55 -44 90t-106 35q-92 0 -184 -89l-25 28q96 98 211 98q78 0 132 -45q55 -45 55 -117q0 -49 -35 -102q-33 -50 -133 -144z" />
    <glyph glyph-name="two.tf" horiz-adv-x="560" 
d="M296 238l-172 -202h370v-37h-423v36l196 229l69 83q26 33 52 71q52 77 52 141q0 66 -47 111t-121 45q-102 0 -189 -92l-28 26q97 103 217 103q90 0 149 -56t59 -140q0 -55 -39 -124q-37 -67 -145 -194z" />
    <glyph glyph-name="two_fraction_nine" horiz-adv-x="836" 
d="M102 382h184v-35h-235l-1 31l112 127q43 48 61.5 78.5t18.5 58.5q0 33 -22.5 54.5t-57.5 21.5q-52 0 -98 -48l-22 26q56 56 121 56q51 0 84 -31t33 -80q0 -53 -84 -151zM121 0l578 739h42l-577 -739h-43zM637 405q68 0 105.5 -53t37.5 -141q0 -91 -39 -154t-118 -63
q-59 0 -100 33l16 27q37 -28 83 -28q67 0 97 59q30 60 27 141h-1q-9 -36 -42 -59.5t-73 -23.5q-54 0 -90.5 36.5t-36.5 91.5q0 58 37.5 96t96.5 38zM634 174q40 0 69.5 29.5t29.5 69.5t-29 70t-70 30q-40 0 -67.5 -28.5t-27.5 -72.5q0 -42 27 -70t68 -28z" />
    <glyph glyph-name="two_fraction_seven" horiz-adv-x="833" 
d="M106 382h184v-35h-235l-1 31l112 127q43 48 61.5 78.5t18.5 58.5q0 33 -22.5 54.5t-57.5 21.5q-52 0 -98 -48l-22 26q56 56 121 56q51 0 84 -31t33 -80q0 -53 -84 -151zM133 0l578 739h42l-577 -739h-43zM551 361v35h246v-25l-159 -371h-39l157 361h-205z" />
    <glyph glyph-name="uni0414.ss01" horiz-adv-x="712" 
d="M593 739v-702h82v-187h-43v150h-571v-150h-43v187h62q50 71 76 194q24 113 50 390l11 118h376zM136 37h414v665h-290l-11 -119q-23 -247 -47 -357q-26 -118 -66 -189z" />
    <glyph glyph-name="uni0416.ss01" horiz-adv-x="810" 
d="M820 0h-52l-339 355l-4 -4v-351h-40v351l-3 3l-340 -354h-52l363 385l-325 354h49l308 -331v331h40v-331l308 331h49l-325 -354z" />
    <glyph glyph-name="uni041B.ss01" horiz-adv-x="684" 
d="M48 -1q-27 0 -40 5l-3 43q21 -6 38 -6q70 0 121 103q75 151 90 595h325v-739h-40v699h-245q-9 -198 -27 -330q-18 -129 -62 -235q-59 -135 -157 -135z" />
    <glyph glyph-name="uni0424.ss01" horiz-adv-x="898" 
d="M469 38v-118h-40v118q-175 4 -278 94q-102 90 -102 238t102 237q103 91 278 95v117h40v-117q175 -4 278 -95q102 -89 102 -237t-102 -238q-103 -90 -278 -94zM429 74v592q-157 -4 -249 -84q-91 -79 -91 -212t91 -212q92 -80 249 -84zM469 666v-592q157 4 249 84
q91 79 91 212t-91 212q-92 80 -249 84z" />
    <glyph glyph-name="uni042A.ss01" horiz-adv-x="720" 
d="M240 443h211q124 0 183 -76q51 -66 51 -148q0 -88 -60 -154q-60 -65 -181 -65h-244v702h-184v37h224v-296zM240 37h198q96 0 151 52q56 53 56 136t-54.5 132t-145.5 49h-205v-369z" />
    <glyph glyph-name="uni042C.ss01" horiz-adv-x="625" 
d="M145 443h211q124 0 183 -76q51 -66 51 -148q0 -88 -60 -154q-60 -65 -181 -65h-244v739h40v-296zM145 37h198q96 0 151 52q56 53 56 136t-54.5 132t-145.5 49h-205v-369z" />
    <glyph glyph-name="uni0431.ss01" horiz-adv-x="648" 
d="M341 524q105 0 182 -72q77 -71 77 -196q0 -113 -74 -192q-74 -77 -190 -77q-73 0 -128.5 30.5t-87.5 83.5q-61 106 -61 237q0 137 45 219q41 74 117 114q67 35 157 57q109 28 169 52v-39q-31 -11 -98 -31l-93 -25q-38 -11 -80 -27q-73 -27 -125 -94q-51 -66 -59 -207
q15 47 45 81t66.5 52t70.5 26t67 8zM336 24q97 0 160 66q64 65 64 166t-62 166t-157 65q-99 0 -167 -65q-67 -64 -67 -159q0 -101 65 -171q66 -68 164 -68z" />
    <glyph glyph-name="uni0432.ss01" horiz-adv-x="542" 
d="M391 289q48 -12 75 -50.5t27 -87.5q0 -63 -43 -107q-44 -44 -123 -44h-242v535h218q78 0 120.5 -37.5t42.5 -95.5q0 -38 -20.5 -69.5t-54.5 -43.5zM307 497h-182v-192h199q45 0 73.5 28t28.5 70q0 43 -30.5 68.5t-88.5 25.5zM125 38h201q56 0 91.5 33t35.5 82
q0 50 -35 82t-91 32h-202v-229z" />
    <glyph glyph-name="uni0433.ss01" horiz-adv-x="403" 
d="M85 535h300v-37h-260v-498h-40v535z" />
    <glyph glyph-name="uni0434.ss01" 
d="M481 535v-501h64v-155h-42v119h-453v-119h-42v155h54q39 52 58 133q21 94 40 267l11 101h310zM209 498l-8 -77q-18 -164 -38 -253q-19 -84 -52 -134h330v464h-232z" />
    <glyph glyph-name="uni0436.ss01" horiz-adv-x="680" 
d="M680 0h-54l-265 256l-1 -1v-255h-40v255l-1 1l-265 -256h-54l290 285l-272 250h51l251 -224v224h40v-225l251 225h51l-272 -250z" />
    <glyph glyph-name="uni0437.ss01" horiz-adv-x="480" 
d="M221 -12q-98 0 -192 56l18 31q83 -51 172 -51q77 0 124.5 33.5t47.5 88.5q0 49 -37 80t-106 31h-126v36h90q77 0 120.5 33.5t43.5 81.5q0 46 -42.5 74.5t-108.5 28.5q-92 0 -163 -53l-21 28q83 62 187 62q82 0 134 -40q53 -41 53 -102q0 -43 -27 -76.5t-77 -48.5v-2
q57 -8 88.5 -45.5t31.5 -88.5q0 -70 -58 -113q-59 -44 -152 -44z" />
    <glyph glyph-name="uni0438.ss01" horiz-adv-x="627" 
d="M106 0h-21v535h40v-455l393 455h24v-535h-40v459z" />
    <glyph glyph-name="uni0439.ss01" horiz-adv-x="627" 
d="M151 662l23 26q64 -75 145 -75t145 75l23 -26q-72 -83 -168 -83t-168 83zM106 0h-21v535h40v-455l393 455h24v-535h-40v459z" />
    <glyph glyph-name="uni043A.ss01" horiz-adv-x="487" 
d="M492 0h-50l-239 276l-78 -80v-196h-40v535h40v-290l281 290h52l-229 -233z" />
    <glyph glyph-name="uni043B.ss01" horiz-adv-x="579" 
d="M56 -2q-23 0 -34 4l-6 38q13 -4 30 -4q59 0 98 67q58 99 81 432h269v-535h-40v500h-192q-7 -88 -15 -151q-7 -59 -24 -137q-16 -72 -41 -121q-48 -93 -126 -93z" />
    <glyph glyph-name="uni043F.ss01" horiz-adv-x="586" 
d="M85 535h416v-535h-40v498h-336v-498h-40v535z" />
    <glyph glyph-name="uni0442.ss01" horiz-adv-x="476" 
d="M18 535h440v-37h-200v-498h-40v498h-200v37z" />
    <glyph glyph-name="uni0444.ss01" horiz-adv-x="773" 
d="M726 268q0 -124 -87 -199q-86 -76 -233 -80v-144h-39v144q-146 4 -234 79q-86 75 -86 200t87 200q88 76 233 80v143h39v-143q147 -4 233 -80q87 -75 87 -200zM87 269q0 -110 74.5 -174.5t205.5 -69.5v486q-131 -5 -205 -68q-75 -65 -75 -174zM406 511v-486
q131 5 205.5 69.5t74.5 174.5q0 109 -75 174q-74 63 -205 68z" />
    <glyph glyph-name="uni0446.ss01" horiz-adv-x="602" 
d="M579 -180h-43v180h-451v548h43v-511h326v511h43v-511h82v-217z" />
    <glyph glyph-name="uni0448.ss01" horiz-adv-x="853" 
d="M768 0h-683v548h43v-511h277v511h43v-511h277v511h43v-548z" />
    <glyph glyph-name="uni0449.ss01" horiz-adv-x="873" 
d="M768 548v-511h86v-217h-43v180h-726v548h43v-511h277v511h43v-511h277v511h43z" />
    <glyph glyph-name="uni044A.ss01" horiz-adv-x="584" 
d="M192 326h173q67 0 111 -27q76 -46 76 -137q0 -66 -48 -114q-46 -48 -142 -48h-210v498h-133v37h173v-209zM192 37h164q72 0 114 35.5t42 93.5q0 56 -40.5 89.5t-109.5 33.5h-170v-252z" />
    <glyph glyph-name="uni044C.ss01" horiz-adv-x="537" 
d="M125 326h193q68 0 111 -27q76 -46 76 -137q0 -66 -48 -114q-47 -48 -142 -48h-230v535h40v-209zM125 37h184q72 0 114 35.5t42 93.5q0 56 -40.5 89.5t-109.5 33.5h-190v-252z" />
    <glyph glyph-name="uni044E.ss01" horiz-adv-x="824" 
d="M500 548q118 0 198 -81q79 -80 79 -199q0 -120 -79 -200q-80 -81 -198 -81q-115 0 -194 76q-78 77 -83 191h-98v-254h-40v535h40v-244h99q7 109 86 183t190 74zM330 94q67 -70 170 -70t170 70t67 174q0 105 -67 173q-67 70 -170 70t-170 -70q-67 -68 -67 -173
q0 -104 67 -174z" />
    <glyph glyph-name="yen.osf" horiz-adv-x="401" 
d="M378 581h40l-180 -306h141v-34h-159v-66h159v-35h-159v-140h-39v140h-161v35h161v66h-161v34h144l-179 306h41l175 -301z" />
    <glyph glyph-name="zero.dnom" horiz-adv-x="367" 
d="M183 -5q-75 0 -112 61q-36 62 -36 145t36 144q37 61 112 61q53 0 87 -33q62 -57 62 -172q2 -52 -12.5 -97t-50 -76.5t-86.5 -32.5zM183 33q53 0 81 46t28 122q0 77 -28 121q-28 46 -81 46q-52 0 -80 -44t-28 -123q0 -77 28.5 -122.5t79.5 -45.5z" />
    <glyph glyph-name="zero.lf" horiz-adv-x="652" 
d="M326 -12q-70 0 -124 34t-85 92q-58 115 -58 256q0 142 58 255q31 59 85 93t124 34t124 -34t85 -93q58 -110 58 -255q0 -144 -58 -256q-31 -59 -85 -92.5t-124 -33.5zM160 118q62 -93 166 -93t166 93q61 92 61 252t-61 252q-62 93 -166 93q-105 0 -166 -94
q-61 -92 -61 -251q0 -158 61 -252z" />
    <glyph glyph-name="zero.num" horiz-adv-x="367" 
d="M183 341q-75 0 -112 61q-36 62 -36 145t36 144q37 61 112 61q53 0 87 -33q62 -57 62 -172q2 -52 -12.5 -97t-50 -76.5t-86.5 -32.5zM183 379q53 0 81 46t28 122q0 77 -28 121q-28 46 -81 46q-52 0 -80 -44t-28 -123q0 -77 28.5 -122.5t79.5 -45.5z" />
    <glyph glyph-name="zero.osf" horiz-adv-x="573" 
d="M393 15q-47 -27 -107 -27t-107 27q-80 48 -108 168q-13 72 -11 142t32.5 135.5t86.5 101.5q47 27 107 27t107 -27q81 -48 109 -168q12 -71 10.5 -140.5t-32.5 -136t-87 -102.5zM286 25q88 0 138 71q50 73 50 193q0 121 -50 192t-137 71t-137.5 -71t-50.5 -192t50 -192.5
t137 -71.5z" />
    <glyph glyph-name="zero.slash" horiz-adv-x="652" 
d="M326 752q70 0 124 -34t85 -93q58 -110 58 -255q0 -144 -58 -256q-31 -59 -85 -92.5t-124 -33.5t-124 34t-85 92q-58 115 -58 256q0 142 58 255q31 59 85 93t124 34zM326 715q-105 0 -166 -94q-61 -92 -61 -251q0 -134 45 -224l345 481q-60 88 -163 88zM326 25
q104 0 166 93q61 92 61 252q0 132 -44 223l-344 -482q62 -86 161 -86z" />
    <glyph glyph-name="zero.tf" horiz-adv-x="560" 
d="M280 -12q-65 0 -117 34t-80 92q-55 114 -55 256t55 255q28 59 79.5 93t117.5 34q68 0 119 -34.5t79 -92t41 -121.5t13 -134t-13 -134t-41 -121.5t-79 -92t-119 -34.5zM280 25q100 0 155 93q57 93 57 252t-57 252q-55 93 -155 93q-98 0 -155 -94q-57 -93 -57 -251t57 -252
q57 -93 155 -93z" />
    </font>
</defs>
</svg>
