<?xml version="1.0" standalone="no"?>
<!DOCTYPE svg PUBLIC "-//W3C//DTD SVG 1.1//EN" "http://www.w3.org/Graphics/SVG/1.1/DTD/svg11.dtd" >
<svg>
<metadata>
Created by FontForge 20090622 at Sat Aug 26 09:54:40 2017
 By deploy user
Copyright &#194;&#169; 2017 by Kastelov. All rights reserved.
</metadata>
<defs>
<font id="Axiforma-Light" horiz-adv-x="604" >
  <font-face 
    font-family="Axiforma Light"
    font-weight="300"
    font-stretch="normal"
    units-per-em="1000"
    panose-1="0 0 4 0 0 0 0 0 0 0"
    ascent="771"
    descent="-229"
    x-height="534"
    cap-height="739"
    bbox="-397 -274 1265 1004"
    underline-thickness="50"
    underline-position="-50"
    unicode-range="U+000D-U+25CA"
  />
<missing-glyph horiz-adv-x="130" 
 />
    <glyph glyph-name="f_b" unicode="fb" horiz-adv-x="1047" 
d="M118 535v43q0 89 48.5 139.5t128.5 50.5q57 0 108 -27l-22 -49q-45 20 -82 20q-58 0 -89.5 -35t-31.5 -100v-42h200v-53h-200v-482h-60v482h-94v53h94zM737 547q113 0 189 -81q76 -80 76 -199q0 -118 -76 -200q-76 -81 -190 -81q-69 0 -124.5 32t-88.5 89v-107h-60v755
h60v-328q34 57 89.5 88.5t124.5 31.5zM733 43q91 0 149 64q59 65 59 160t-58 159q-59 65 -150 65q-93 0 -153 -65q-59 -65 -59 -157q0 -94 59 -161q60 -65 153 -65z" />
    <glyph glyph-name="f_f" unicode="ff" horiz-adv-x="728" 
d="M652 712q-62 0 -95.5 -35t-33.5 -100v-42h200v-53h-200v-482h-60v482h-285v-482h-60v482h-94v53h94v43q0 89 53.5 139.5t144.5 50.5q78 0 146 -41l-25 -49q-56 34 -118 34q-67 0 -104 -35t-37 -100v-42h285v43q0 89 50 139.5t135 50.5q62 0 115 -29l-21 -49
q-43 22 -90 22z" />
    <glyph glyph-name="f_f_i" unicode="ffi" horiz-adv-x="951" 
d="M644 712q-57 0 -89 -35t-32 -100v-42h212v-53h-212v-482h-60v482h-285v-482h-60v482h-94v53h94v43q0 89 53.5 139.5t144.5 50.5q78 0 146 -41l-25 -49q-56 34 -118 34q-67 0 -104 -35t-37 -100v-42h285v43q0 89 48.5 139.5t128.5 50.5q56 0 109 -27l-23 -49
q-45 20 -82 20zM841 722q21 0 35.5 -14.5t14.5 -36.5t-14.5 -37t-35.5 -15q-23 0 -38 15t-15 37t15 36.5t38 14.5zM870 0h-60v535h60v-535z" />
    <glyph glyph-name="f_f_j" unicode="ffj" horiz-adv-x="951" 
d="M733 535v-53h-210v-482h-60v482h-285v-482h-60v482h-94v53h94v43q0 89 53.5 139.5t144.5 50.5q78 0 146 -41l-25 -49q-56 34 -118 34q-67 0 -104 -35t-37 -100v-42h285v43q0 89 48.5 139.5t128.5 50.5q56 0 109 -27l-23 -49q-45 20 -82 20q-57 0 -89 -35t-32 -100v-42
h210zM841 722q21 0 35.5 -14.5t14.5 -36.5t-14.5 -37t-35.5 -15q-23 0 -38 15t-15 37t15 36.5t38 14.5zM810 -53v588h60v-584q0 -86 -42 -132.5t-116 -46.5q-55 0 -96 23l16 51q44 -19 76 -19q50 0 76 31t26 89z" />
    <glyph glyph-name="f_h" unicode="fh" horiz-adv-x="993" 
d="M118 535v43q0 89 48.5 139.5t128.5 50.5q57 0 108 -27l-22 -49q-45 20 -82 20q-58 0 -89.5 -35t-31.5 -100v-42h200v-53h-200v-482h-60v482h-94v53h94zM706 549q90 0 151 -59q61 -58 61 -167v-323h-60v313q0 84 -42.5 132t-116.5 48q-71 0 -123 -48q-53 -48 -53 -144
v-301h-60v755h58v-310q24 50 72.5 77t112.5 27z" />
    <glyph glyph-name="f_i" unicode="fi" horiz-adv-x="606" 
d="M118 535v43q0 89 48.5 139.5t128.5 50.5q57 0 108 -27l-22 -49q-45 20 -82 20q-58 0 -89.5 -35t-31.5 -100v-42h200v-53h-200v-482h-60v482h-94v53h94zM458 707q15 15 37 15t36 -15q15 -15 15 -37t-15 -37q-14 -14 -36 -14t-37 14q-15 15 -15 37t15 37zM525 0h-60v535h60
v-535z" />
    <glyph glyph-name="f_j" unicode="fj" horiz-adv-x="606" 
d="M388 535v-53h-210v-482h-60v482h-94v53h94v43q0 89 48.5 139.5t128.5 50.5q57 0 108 -27l-22 -49q-45 20 -82 20q-58 0 -89.5 -35t-31.5 -100v-42h210zM458 707q15 15 37 15t36 -15q15 -14 15 -36t-15 -37q-14 -14 -36 -14t-37 14q-15 15 -15 37t15 36zM465 -53v588h60
v-584q0 -86 -42.5 -132.5t-116.5 -46.5q-54 0 -95 23l16 51q42 -19 76 -19q49 0 75.5 31.5t26.5 88.5z" />
    <glyph glyph-name="f_k" unicode="fk" horiz-adv-x="890" 
d="M118 535v43q0 89 48.5 139.5t128.5 50.5q57 0 108 -27l-22 -49q-45 20 -82 20q-58 0 -89.5 -35t-31.5 -100v-42h200v-53h-200v-482h-60v482h-94v53h94zM894 0h-78l-230 279l-63 -56v-223h-60v755h60v-459l267 239h81l-243 -218z" />
    <glyph glyph-name="f_l" unicode="fl" horiz-adv-x="605" 
d="M118 535v43q0 89 46.5 139.5t126.5 50.5q57 0 108 -27l-18 -49q-45 20 -82 20q-58 0 -89.5 -35t-31.5 -100v-42h200v-53h-200v-482h-60v482h-94v53h94zM463 0v755h60v-755h-60z" />
    <glyph glyph-name=".notdef" horiz-adv-x="130" 
 />
    <glyph glyph-name=".null" horiz-adv-x="0" 
 />
    <glyph glyph-name="nonmarkingreturn" horiz-adv-x="333" 
 />
    <glyph glyph-name="CR.001" horiz-adv-x="130" 
 />
    <glyph glyph-name="CR.001" horiz-adv-x="130" 
 />
    <glyph glyph-name="CR" unicode="&#xd;" horiz-adv-x="333" 
 />
    <glyph glyph-name="space" unicode=" " horiz-adv-x="247" 
 />
    <glyph glyph-name="exclam" unicode="!" horiz-adv-x="270" 
d="M163 164h-57l-3 578h64zM136 -12q-21 0 -35 14t-14 34t14 33.5t35 13.5q20 0 34 -13.5t14 -33.5q0 -21 -14 -34.5t-34 -13.5z" />
    <glyph glyph-name="quotedbl" unicode="&#x22;" horiz-adv-x="397" 
d="M133 449h-53l85 290h71zM298 449h-53l85 290h71z" />
    <glyph glyph-name="numbersign" unicode="#" horiz-adv-x="684" 
d="M648 519l-10 -50h-124l-39 -192h126l-10 -51h-127l-46 -226h-55l46 226h-191l-46 -226h-55l46 226h-127l9 51h129l39 192h-131l10 50h132l45 220h55l-45 -220h191l45 220h55l-45 -220h123zM229 277h191l39 192h-191z" />
    <glyph glyph-name="dollar" unicode="$" horiz-adv-x="552" 
d="M508 191q0 -82 -56 -138q-56 -55 -144 -63v-102h-51v101q-75 5 -133.5 44t-90.5 109l50 33q28 -61 78 -95t113 -34q75 0 122 40.5t47 102.5q0 78 -96 126q-34 17 -76 34q-46 20 -73 35q-126 63 -126 176q0 78 51 130q52 53 138 61v92h50v-92q114 -12 181 -109l-45 -37
q-63 90 -162 90q-66 0 -107.5 -36.5t-41.5 -95.5q0 -76 89 -123q25 -13 81 -38q62 -27 84 -39q118 -63 118 -172z" />
    <glyph glyph-name="percent" unicode="%" horiz-adv-x="872" 
d="M220 389q-74 0 -130 53q-54 52 -54 128t54 128q56 54 130 54q76 0 130 -54q54 -52 54 -128t-54 -128q-55 -53 -130 -53zM184 0h-64l562 739h65zM126 476q39 -39 94 -39q56 0 93 39q39 39 39 94t-39 94q-37 39 -93 39q-55 0 -94 -39q-38 -40 -38 -94t38 -94zM782 41
q-55 -53 -130 -53t-130 53q-54 53 -54 128t54 128q54 54 130 54t130 -54q54 -53 54 -128t-54 -128zM520 169q0 -54 38 -94q39 -39 94 -39t93 38q39 39 39 95t-39 95q-37 39 -93 39q-55 0 -94 -39q-38 -40 -38 -95z" />
    <glyph glyph-name="ampersand" unicode="&#x26;" horiz-adv-x="680" 
d="M551 148l122 -113l-36 -42l-122 114q-116 -117 -245 -117q-98 0 -163 60q-64 60 -64 148q0 135 155 219q-53 73 -53 149q0 79 52 131q53 53 126 53q64 0 111 -41q46 -40 46 -104q0 -73 -64 -123q-25 -20 -56 -38q-22 -14 -69 -36l-12 -6q24 -27 56 -56l175 -161
q36 41 82 114l43 -33q-39 -64 -84 -118zM324 701q-52 0 -88 -39q-35 -40 -35 -95q0 -61 45 -126l55 27q10 5 45 26q32 21 42 32q35 39 35 77q0 41 -28.5 69.5t-70.5 28.5zM275 43q102 0 200 101l-184 172q-33 30 -60 60q-64 -37 -96 -79t-32 -97q0 -68 48 -113
q49 -44 124 -44z" />
    <glyph glyph-name="quotesingle" unicode="'" horiz-adv-x="232" 
d="M102 449h-53l85 290h71z" />
    <glyph glyph-name="parenleft" unicode="(" horiz-adv-x="369" 
d="M364 -174l-27 -46q-140 77 -216 211t-76 303q0 170 76 303q77 136 216 212l27 -46q-125 -75 -191 -195.5t-66 -273.5q0 -152 66.5 -273t190.5 -195z" />
    <glyph glyph-name="parenright" unicode=")" horiz-adv-x="369" 
d="M31 -220l-26 46q124 74 190 195t66 273t-66 273t-190 196l26 46q139 -76 216 -212q77 -134 77 -303q0 -167 -77 -303q-76 -134 -216 -211z" />
    <glyph glyph-name="asterisk" unicode="*" horiz-adv-x="441" 
d="M221 525l-97 -120l-39 31l98 114l-135 62l21 44l129 -61l-2 149h50l-2 -149l129 61l20 -44l-135 -62l98 -114l-39 -31z" />
    <glyph glyph-name="plus" unicode="+" horiz-adv-x="513" 
d="M285 371h191v-56h-191v-190l-56 -1v191h-191v56h191v192h56v-192z" />
    <glyph glyph-name="comma" unicode="," horiz-adv-x="224" 
d="M116 79q23 0 38 -17t15 -42q0 -76 -105 -142l-19 27q65 46 79 84q-8 -4 -17 -4q-17 0 -30 13.5t-13 31.5q0 20 15 34.5t37 14.5z" />
    <glyph glyph-name="hyphen" unicode="-" horiz-adv-x="523" 
d="M453 249h-382v56h382v-56z" />
    <glyph glyph-name="period" unicode="." horiz-adv-x="219" 
d="M110 -16q-21 0 -35 14t-14 34t14 33.5t35 13.5q20 0 34 -13.5t14 -33.5q0 -21 -14 -34.5t-34 -13.5z" />
    <glyph glyph-name="slash" unicode="/" horiz-adv-x="570" 
d="M79 -123h-58l471 948h56z" />
    <glyph glyph-name="zero" unicode="0" horiz-adv-x="663" 
d="M331 -12q-71 0 -127.5 34t-87.5 92q-60 113 -60 256q0 144 60 255q31 59 87.5 93t127.5 34q73 0 128.5 -34t86.5 -93q60 -111 60 -255q0 -143 -60 -256q-31 -58 -86.5 -92t-128.5 -34zM331 45q101 0 157 89t56 236q0 146 -56 235q-56 90 -157 90t-157 -90
q-55 -88 -55 -235t55 -236q56 -89 157 -89z" />
    <glyph glyph-name="one" unicode="1" horiz-adv-x="369" 
d="M9 560l211 179h48v-739h-62v653l-161 -136z" />
    <glyph glyph-name="two" unicode="2" horiz-adv-x="538" 
d="M328 274l-191 -218h352v-57h-437v53l213 240q79 90 114 145q37 56 37 113q0 63 -43.5 104t-112.5 41q-100 0 -185 -88l-38 42q100 103 224 103q95 0 154 -58q61 -57 61 -148q0 -51 -31 -112q-33 -64 -117 -160z" />
    <glyph glyph-name="three" unicode="3" horiz-adv-x="542" 
d="M245 -12q-118 0 -215 75l31 49q89 -67 184 -67q80 0 128.5 42.5t48.5 111.5t-47 110t-135 41h-79v55h73q85 0 129 44t44 104q0 63 -43.5 102.5t-112.5 39.5q-100 0 -173 -73l-34 42q37 40 93.5 64t115.5 24q97 0 156 -56q60 -56 60 -138q0 -62 -34.5 -109.5t-91.5 -65.5
v-4q65 -15 103 -64t38 -117q0 -91 -67 -151q-67 -59 -172 -59z" />
    <glyph glyph-name="four" unicode="4" horiz-adv-x="566" 
d="M442 253h83v-56h-83v-197h-61v197h-357l-10 38l391 504h37v-486zM381 618l-284 -365h284v365z" />
    <glyph glyph-name="five" unicode="5" horiz-adv-x="559" 
d="M281 474q101 0 168 -66t67 -173q0 -110 -72 -179q-71 -68 -180 -68q-121 0 -222 91l33 46q89 -80 187 -80q83 0 138 53q54 52 54 137q0 82 -50 132t-128 50q-94 0 -157 -78l-44 22l38 378h353v-55h-302l-28 -259q58 49 145 49z" />
    <glyph glyph-name="six" unicode="6" horiz-adv-x="601" 
d="M315 -9q-125 0 -192 100t-67 257q0 78 17.5 149t52 128.5t91.5 92t129 34.5q105 0 178 -61l-28 -46q-64 52 -147 52q-62 0 -111 -34t-76 -92q-52 -112 -46 -245h3q17 64 75 108q58 43 132 43q98 0 164 -68q66 -67 66 -172t-68 -176q-67 -70 -173 -70zM319 47q74 0 125 54
q52 55 52 136q0 79 -51 132q-50 53 -125 53t-130 -55q-54 -54 -54 -131q0 -75 53 -133q53 -56 130 -56z" />
    <glyph glyph-name="seven" unicode="7" horiz-adv-x="487" 
d="M19 684v55h450v-38l-295 -701h-66l294 684h-383z" />
    <glyph glyph-name="eight" unicode="8" horiz-adv-x="609" 
d="M305 -12q-112 0 -182 60t-70 149q0 67 41 120t112 73v2q-59 24 -91.5 69.5t-32.5 100.5q0 81 62 135q62 55 161 55q98 0 159 -55q62 -54 62 -135q0 -55 -32.5 -101t-91.5 -69v-3q71 -20 112.5 -72.5t41.5 -119.5q0 -89 -71 -149t-180 -60zM304 416q78 0 121 43t43 100
q0 58 -46 98q-46 41 -117 41q-72 0 -119 -41q-45 -41 -45 -98t43 -100t120 -43zM496 203q0 65 -49 111q-49 48 -142 48t-143 -48q-50 -47 -50 -112q0 -68 54 -114q56 -45 139 -45q85 0 137 45q54 46 54 115z" />
    <glyph glyph-name="nine" unicode="9" horiz-adv-x="600" 
d="M261 -10q-109 0 -180 61l27 47q65 -53 151 -53q64 0 111.5 33.5t72 89.5t34.5 118.5t8 131.5h-3q-17 -65 -76 -109q-58 -43 -132 -43q-96 0 -164 68q-66 68 -66 171q0 105 68 176t174 71q125 0 191 -100q66 -99 66 -259q0 -80 -16.5 -150.5t-49 -128t-88.5 -91
t-128 -33.5zM281 321q74 0 128 54q55 55 55 132q0 75 -53 133q-52 57 -130 57q-74 0 -125 -55q-51 -54 -51 -136q0 -80 50 -133q51 -52 126 -52z" />
    <glyph glyph-name="colon" unicode=":" horiz-adv-x="238" 
d="M126 368q-21 0 -35 14t-14 34t14 33.5t35 13.5q20 0 34 -13.5t14 -33.5q0 -21 -14 -34.5t-34 -13.5zM126 -16q-21 0 -35 14t-14 34t14 33.5t35 13.5q20 0 34 -13.5t14 -33.5q0 -21 -14 -34.5t-34 -13.5z" />
    <glyph glyph-name="semicolon" unicode=";" horiz-adv-x="268" 
d="M136 366q-36 -2 -46 33q-10 34 13 54q13 12 33 10q21 0 35.5 -13.5t14.5 -34.5t-14.5 -35t-35.5 -14zM136 79q23 0 38 -17t15 -42q0 -76 -105 -142l-19 27q65 46 79 84q-8 -4 -17 -4q-17 0 -30 13.5t-13 31.5q0 20 15 34.5t37 14.5z" />
    <glyph glyph-name="less" unicode="&#x3c;" horiz-adv-x="541" 
d="M474 130v-65l-441 243v44l441 243v-64l-367 -201z" />
    <glyph glyph-name="equal" unicode="=" horiz-adv-x="586" 
d="M512 386h-438v55h438v-55zM512 214h-438v55h438v-55z" />
    <glyph glyph-name="greater" unicode="&#x3e;" horiz-adv-x="529" 
d="M498 308l-436 -249v65l354 201l-354 200v64l436 -249v-32z" />
    <glyph glyph-name="question" unicode="?" horiz-adv-x="496" 
d="M245 161h-56v75q0 73 70 138q3 3 24.5 22l27.5 24.5t23 22.5t23 27l15.5 26.5t13 31.5t3.5 32q0 59 -44 98q-43 40 -111 40q-94 0 -166 -84l-39 39q38 47 93 74t114 27q88 0 150 -54q63 -52 63 -140q0 -84 -72 -151l-35 -31.5t-37.5 -35t-28.5 -31t-24 -37.5t-7 -36v-77z
M218 -12q-21 0 -35.5 14t-14.5 34t14.5 33.5t35.5 13.5q19 0 33 -13.5t14 -33.5q0 -21 -14 -34.5t-33 -13.5z" />
    <glyph glyph-name="at" unicode="@" horiz-adv-x="968" 
d="M618 424v59h52v-279q0 -38 19 -59t49 -21q54 0 92 59q38 61 38 146q0 145 -112 250q-111 105 -265 105q-161 0 -274 -117q-113 -118 -113 -283q0 -166 117 -282q116 -115 287 -115q80 0 155 28.5t130 78.5l30 -40q-53 -50 -138 -84q-84 -34 -181 -34q-126 0 -231 60
t-165 163t-60 224q-3 119 57 224.5t163.5 167t221.5 59.5q178 0 305 -121t127 -286q0 -107 -56 -181q-56 -72 -133 -72q-44 0 -74 25t-37 62q-26 -41 -68.5 -64t-92.5 -23q-83 0 -140 60q-56 62 -56 150q0 91 58 152q59 62 143 62q48 0 88.5 -20t63.5 -54zM468 124
q64 0 107 46q44 47 44 115q0 70 -43 116q-44 47 -106 47q-64 0 -108 -47q-43 -46 -43 -116q0 -69 42 -115t107 -46z" />
    <glyph glyph-name="A" unicode="A" horiz-adv-x="652" 
d="M636 0h-67l-88 224h-311l-88 -224h-67l295 739h33zM461 281l-135 349l-136 -349h271z" />
    <glyph glyph-name="B" unicode="B" horiz-adv-x="661" 
d="M467 400q67 -18 105.5 -70.5t38.5 -119.5q0 -86 -61 -148q-62 -62 -173 -62h-276v739h266q99 0 151 -55q54 -54 54 -129q0 -54 -28.5 -96.5t-76.5 -58.5zM361 681h-199v-257h210q60 0 99 38t39 93q0 56 -39.5 91t-109.5 35zM162 58h210q78 0 127 44q49 45 49 111t-49 109
q-50 44 -128 44h-209v-308z" />
    <glyph glyph-name="C" unicode="C" horiz-adv-x="785" 
d="M430 -11q-160 0 -269 106q-110 107 -110 272q0 168 111 276q112 109 270 109q102 0 188 -46q87 -45 133 -118l-47 -35q-42 64 -115.5 102t-158.5 38q-136 0 -228 -92q-91 -91 -91 -233q0 -140 90 -231q91 -90 228 -90q83 0 156.5 36.5t121.5 100.5l44 -36
q-54 -74 -139 -116.5t-184 -42.5z" />
    <glyph glyph-name="D" unicode="D" horiz-adv-x="749" 
d="M347 0h-246v739h254q157 0 248 -100q92 -101 92 -271t-93 -269t-255 -99zM162 681v-623h185q134 0 209 84q76 85 76 227q0 141 -75 227q-73 85 -204 85h-191z" />
    <glyph glyph-name="E" unicode="E" horiz-adv-x="601" 
d="M548 0h-447v739h445v-58h-384v-278h358v-57h-358v-288h386v-58z" />
    <glyph glyph-name="F" unicode="F" horiz-adv-x="555" 
d="M162 0h-61v739h428v-59h-367v-276h326v-59h-326v-345z" />
    <glyph glyph-name="G" unicode="G" horiz-adv-x="819" 
d="M428 -11q-164 0 -270 108q-107 109 -107 272q0 166 112 274q112 109 271 109q91 0 175 -38t133 -99l-44 -40q-45 55 -115.5 86.5t-148.5 31.5q-136 0 -229 -93q-92 -92 -92 -231t90 -231q90 -91 226 -91q156 0 275 122v173h-295v57h354v-253q-136 -157 -335 -157z" />
    <glyph glyph-name="H" unicode="H" horiz-adv-x="737" 
d="M163 0h-62v739h62v-342h412v342h61v-739h-61v339h-412v-339z" />
    <glyph glyph-name="I" unicode="I" horiz-adv-x="263" 
d="M101 0v739h61v-739h-61z" />
    <glyph glyph-name="J" unicode="J" horiz-adv-x="550" 
d="M229 -12q-127 0 -208 98l41 43q64 -83 167 -83q74 0 120 49t46 132v512h62v-508q0 -118 -64 -181q-65 -62 -164 -62z" />
    <glyph glyph-name="K" unicode="K" horiz-adv-x="625" 
d="M633 0h-78l-287 346l-106 -124v-222h-61v739h61v-432l369 432h74l-296 -349z" />
    <glyph glyph-name="L" unicode="L" horiz-adv-x="589" 
d="M575 0h-474v739h61v-680h413v-59z" />
    <glyph glyph-name="M" unicode="M" horiz-adv-x="904" 
d="M162 0h-61v739h27l325 -478l322 478h28v-739h-61v588l-282 -418h-15l-283 417v-587z" />
    <glyph glyph-name="N" unicode="N" horiz-adv-x="770" 
d="M608 132v607h61v-739h-32l-475 601v-601h-61v739h27z" />
    <glyph glyph-name="O" unicode="O" horiz-adv-x="860" 
d="M428 -12q-158 0 -268 111q-110 112 -110 269q0 158 111 271t269 113q157 0 268 -112q112 -112 112 -270t-112 -270q-111 -112 -270 -112zM430 47q134 0 225 93q92 95 92 229q0 135 -92 230q-91 94 -225 94q-133 0 -226 -95q-92 -95 -92 -229t92 -229q91 -93 226 -93z" />
    <glyph glyph-name="P" unicode="P" horiz-adv-x="598" 
d="M101 739h228q115 0 175 -67q61 -67 61 -159q0 -93 -64 -160q-63 -66 -181 -66h-158v-287h-61v739zM162 344h159q83 0 132.5 48t49.5 122t-46.5 120.5t-124.5 46.5h-170v-337z" />
    <glyph glyph-name="Q" unicode="Q" horiz-adv-x="860" 
d="M706 -68q45 0 91 17l8 -53q-45 -19 -101 -19q-138 0 -239 113q-32 -2 -35 -2q-157 0 -269 112q-111 112 -111 270t111 270q112 112 269 112q158 0 269 -112t111 -270q0 -128 -77 -231q-77 -102 -197 -136q74 -71 170 -71zM113 369q0 -134 92 -229q91 -93 225 -93t225 93
q92 95 92 229q0 135 -92 230q-91 94 -225 94t-225 -94q-92 -95 -92 -230z" />
    <glyph glyph-name="R" unicode="R" horiz-adv-x="619" 
d="M573 0h-74l-189 312h-148v-312h-61v739h223q113 0 173 -64q61 -62 61 -150q0 -75 -48 -133q-46 -57 -135 -74zM325 681h-163v-311h148q88 0 136.5 43t48.5 114q0 69 -46 111.5t-124 42.5z" />
    <glyph glyph-name="S" unicode="S" horiz-adv-x="551" 
d="M275 -12q-80 0 -145 40t-98 114l49 33q28 -61 77.5 -95t114.5 -34q75 0 122 41t47 102q0 42 -24 71.5t-73 54.5q-32 16 -76 35q-56 25 -73 34q-126 63 -126 176q0 83 58 137q58 55 154 55q132 0 209 -110l-46 -37q-63 90 -162 90q-66 0 -107.5 -36.5t-41.5 -95.5
q0 -76 89 -123q25 -13 81 -38q62 -27 84 -39q119 -65 119 -172q0 -90 -67 -147q-67 -56 -165 -56z" />
    <glyph glyph-name="T" unicode="T" horiz-adv-x="539" 
d="M239 0v680h-224v59h509v-59h-224v-680h-61z" />
    <glyph glyph-name="U" unicode="U" horiz-adv-x="685" 
d="M93 240v499h61v-489q0 -96 49.5 -149t139.5 -53q89 0 138.5 53.5t49.5 148.5v489h61v-499q0 -118 -68 -186q-67 -67 -181 -67t-182 67q-68 68 -68 186z" />
    <glyph glyph-name="V" unicode="V" horiz-adv-x="664" 
d="M333 108l251 631h65l-300 -739h-32l-304 739h67z" />
    <glyph glyph-name="W" unicode="W" horiz-adv-x="1010" 
d="M293 0h-30l-247 739h62l201 -618l212 618h27l215 -617l199 617h61l-245 -739h-30l-213 622z" />
    <glyph glyph-name="X" unicode="X" horiz-adv-x="591" 
d="M86 0h-74l248 376l-237 363h72l201 -313l202 313h74l-240 -363l245 -376h-72l-209 323z" />
    <glyph glyph-name="Y" unicode="Y" horiz-adv-x="602" 
d="M514 739h67l-250 -446v-293h-61v293l-248 446h67l212 -389z" />
    <glyph glyph-name="Z" unicode="Z" horiz-adv-x="577" 
d="M546 0h-520v37l430 644h-411v58h490v-46l-421 -635h432v-58z" />
    <glyph glyph-name="bracketleft" unicode="[" horiz-adv-x="360" 
d="M349 -227h-254v1038h254v-51h-193v-936h193v-51z" />
    <glyph glyph-name="backslash" unicode="\" horiz-adv-x="571" 
d="M79 825l471 -948h-57l-471 948h57z" />
    <glyph glyph-name="bracketright" unicode="]" horiz-adv-x="360" 
d="M265 -227h-254v51h193v936h-193v51h254v-1038z" />
    <glyph glyph-name="asciicircum" unicode="^" horiz-adv-x="504" 
d="M109 431h-63l193 308h27l192 -308h-62l-144 237z" />
    <glyph glyph-name="underscore" unicode="_" horiz-adv-x="575" 
d="M575 -141h-575v55h575v-55z" />
    <glyph glyph-name="grave" unicode="`" horiz-adv-x="426" 
d="M127 780l59 -160h-51l-85 160h77z" />
    <glyph glyph-name="a" unicode="a" horiz-adv-x="662" 
d="M522 432v103h58v-535h-58v104q-34 -55 -89.5 -86t-121.5 -31q-113 0 -190 81q-76 82 -76 202q0 118 75 198q77 80 191 80q67 0 122 -30.5t89 -85.5zM314 42q93 0 153 66t60 162q0 94 -60 158q-60 65 -153 65q-92 0 -151 -65q-58 -64 -58 -160q0 -97 58 -161
q59 -65 151 -65z" />
    <glyph glyph-name="b" unicode="b" horiz-adv-x="665" 
d="M355 547q113 0 189 -81q76 -80 76 -199q0 -118 -76 -200q-77 -81 -190 -81q-69 0 -124.5 32t-88.5 89v-107h-60v755h60v-328q34 57 89.5 88.5t124.5 31.5zM351 43q91 0 149 64q59 65 59 160t-58 159q-59 65 -150 65q-93 0 -153 -65q-59 -65 -59 -157q0 -94 59 -161
q60 -65 153 -65z" />
    <glyph glyph-name="c" unicode="c" horiz-adv-x="595" 
d="M319 -12q-119 0 -196 78q-77 80 -77 201q0 123 78 202q79 79 201 79q79 0 143.5 -37t95.5 -101l-49 -28q-27 51 -78 81t-112 30q-96 0 -157 -64q-62 -64 -62 -162t60 -161t153 -63q60 0 113.5 31t79.5 80l49 -30q-31 -61 -98 -99q-65 -37 -144 -37z" />
    <glyph glyph-name="d" unicode="d" horiz-adv-x="665" 
d="M523 430v325h60v-755h-60v104q-34 -56 -89 -87t-123 -31q-113 0 -190 81q-76 82 -76 200q0 119 76 199q77 81 190 81q68 0 123 -31t89 -86zM314 42q93 0 153 66t60 161q0 93 -60 158t-153 65q-92 0 -151 -65q-58 -64 -58 -160t58 -160q59 -65 151 -65z" />
    <glyph glyph-name="e" unicode="e" 
d="M561 291q0 -11 -3 -47h-450q7 -91 64 -145.5t153 -54.5q52 0 106 17.5t90 46.5l28 -46q-41 -32 -101.5 -53t-123.5 -21q-138 0 -208 82.5t-70 198.5q0 121 73 200t193 79q108 0 178 -70q71 -69 71 -187zM312 493q-84 0 -139.5 -53t-64.5 -141h391q-1 88 -52.5 141
t-134.5 53z" />
    <glyph glyph-name="f" unicode="f" horiz-adv-x="382" 
d="M307 712q-62 0 -95.5 -35t-33.5 -100v-42h200v-53h-200v-482h-60v482h-94v53h94v43q0 89 50 139.5t135 50.5q62 0 115 -29l-21 -49q-44 22 -90 22z" />
    <glyph glyph-name="g" unicode="g" horiz-adv-x="663" 
d="M522 439v96h60v-488q0 -127 -75 -200q-74 -74 -202 -74q-127 0 -230 76l31 48q91 -69 200 -69q100 0 158 57.5t58 155.5v69q-34 -53 -89 -82.5t-121 -29.5q-115 0 -191 79t-76 196q0 115 77 195t191 80q66 0 120.5 -28.5t88.5 -80.5zM314 53q92 0 152 64q61 64 61 158
q0 93 -61 155q-60 63 -152 63t-150 -63q-59 -64 -59 -157t59 -157q58 -63 150 -63z" />
    <glyph glyph-name="h" unicode="h" horiz-adv-x="611" 
d="M141 0h-60v755h58v-310q24 50 72.5 77t112.5 27q90 0 151 -59q61 -58 61 -167v-323h-60v313q0 84 -42.5 132t-116.5 48q-71 0 -123 -48q-53 -48 -53 -144v-301z" />
    <glyph glyph-name="i" unicode="i" horiz-adv-x="223" 
d="M109 619q-22 0 -37 14.5t-15 36.5t15 36.5t37 14.5q21 0 36 -14.5t15 -36.5t-15 -36.5t-36 -14.5zM137 535v-535h-60v535h60z" />
    <glyph glyph-name="j" unicode="j" horiz-adv-x="247" 
d="M136 619q-22 0 -37 14.5t-15 36.5t15 36.5t37 14.5q21 0 36 -14.5t15 -36.5t-15 -36.5t-36 -14.5zM7 -228q-57 0 -95 23l15 51q44 -19 76 -19q50 0 76 31t26 89v588h60v-584q0 -86 -42 -132.5t-116 -46.5z" />
    <glyph glyph-name="k" unicode="k" horiz-adv-x="508" 
d="M512 0h-78l-230 279l-63 -56v-223h-60v755h60v-459l267 239h81l-243 -218z" />
    <glyph glyph-name="l" unicode="l" horiz-adv-x="223" 
d="M141 755v-755h-60v755h60z" />
    <glyph glyph-name="m" unicode="m" horiz-adv-x="954" 
d="M675 549q90 0 147 -57q58 -57 58 -159v-333h-60v328q0 77 -40 121t-107 44q-63 0 -113 -44q-49 -43 -49 -129v-320h-60v321q0 79 -39.5 125.5t-106.5 46.5q-65 0 -115 -47q-49 -46 -49 -145v-301h-60v535h59v-90q22 49 67 76.5t102 27.5q59 0 106 -30.5t68 -85.5
q24 55 76 85.5t116 30.5z" />
    <glyph glyph-name="n" unicode="n" horiz-adv-x="612" 
d="M141 0h-60v535h58v-94q49 108 186 108q89 0 151 -59q61 -58 61 -167v-323h-60v312q0 84 -42.5 132.5t-116.5 48.5q-71 0 -124 -49q-53 -48 -53 -144v-300z" />
    <glyph glyph-name="o" unicode="o" horiz-adv-x="646" 
d="M45 268q0 119 79 199q80 81 199 81t199 -81q79 -80 79 -199q0 -120 -79 -200q-80 -81 -199 -81t-199 81q-79 80 -79 200zM323 42q94 0 156 65q62 67 62 161q0 95 -62 160t-156 65q-93 0 -156 -66q-62 -65 -62 -159t62 -161q63 -65 156 -65z" />
    <glyph glyph-name="p" unicode="p" horiz-adv-x="666" 
d="M355 549q114 0 190 -82q76 -80 76 -199t-76 -199q-77 -81 -190 -81q-69 0 -124.5 31t-89.5 88v-327h-60v755h60v-109q34 58 90 90.5t124 32.5zM352 43q91 0 150 65t59 160t-59 160t-150 65q-93 0 -153 -66t-60 -161q0 -94 60 -158q60 -65 153 -65z" />
    <glyph glyph-name="q" unicode="q" horiz-adv-x="666" 
d="M524 428v107h60v-755h-60v325q-34 -55 -89.5 -86t-123.5 -31q-113 0 -190 81q-76 80 -76 199t76 199q76 82 190 82q68 0 123.5 -32t89.5 -89zM314 43q93 0 153 65q60 64 60 158q0 95 -60 161t-153 66q-91 0 -150 -65t-59 -160q0 -96 58 -160q59 -65 151 -65z" />
    <glyph glyph-name="r" unicode="r" horiz-adv-x="366" 
d="M141 0h-60v535h57v-86q43 100 155 100q31 0 66 -9l-7 -57q-28 9 -57 9q-72 0 -113 -51.5t-41 -135.5v-305z" />
    <glyph glyph-name="s" unicode="s" horiz-adv-x="442" 
d="M220 -12q-61 0 -111 29.5t-78 87.5l48 30q47 -93 141 -93q53 0 87.5 29.5t34.5 71.5q0 52 -68 87q-20 10 -64 27q-51 21 -64 29q-85 43 -85 125q0 62 45 102t119 40q110 0 161 -84l-42 -34q-38 65 -120 65q-49 0 -77 -24t-28 -63q0 -53 58 -81l60 -26q56 -23 71 -31
q94 -45 94 -128q0 -66 -51 -113q-50 -46 -131 -46z" />
    <glyph glyph-name="t" unicode="t" horiz-adv-x="414" 
d="M386 80l25 -46q-58 -46 -142 -46q-79 0 -120 49t-41 138v307h-95v53h96v189h59v-189h220v-53h-220v-309q0 -130 106 -130q62 0 112 37z" />
    <glyph glyph-name="u" unicode="u" horiz-adv-x="585" 
d="M292 -13q-99 0 -159 60q-59 62 -59 162v326h60v-325q0 -77 42.5 -122t115.5 -45q75 0 117 45t42 123v324h60v-326q0 -102 -58.5 -162t-160.5 -60z" />
    <glyph glyph-name="v" unicode="v" horiz-adv-x="539" 
d="M270 93l188 442h66l-236 -534h-37l-236 534h66z" />
    <glyph glyph-name="w" unicode="w" horiz-adv-x="814" 
d="M246 1h-42l-188 534h62l149 -440l160 440l40 -1l162 -439l146 440h63l-187 -534h-42l-162 449z" />
    <glyph glyph-name="x" unicode="x" horiz-adv-x="474" 
d="M272 273l184 -273h-70l-150 225l-151 -225h-72l189 276l-174 259h71l139 -212l143 212h71z" />
    <glyph glyph-name="y" unicode="y" horiz-adv-x="531" 
d="M274 78l175 457h66l-226 -575q-40 -102 -81 -144.5t-102 -42.5q-43 0 -77 19l9 53q35 -16 66 -16q41 0 71 33.5t57 103.5l13 34l-228 535h66z" />
    <glyph glyph-name="z" unicode="z" horiz-adv-x="477" 
d="M432 491l-326 -438h341v-53h-419v41l330 440h-312v53h386v-43z" />
    <glyph glyph-name="braceleft" unicode="{" horiz-adv-x="343" 
d="M327 760h-36q-111 0 -111 -120q0 -38 3 -118q4 -71 4 -103q0 -45 -22 -79t-61 -50q83 -34 83 -129q0 -32 -4 -103q-3 -80 -3 -117q0 -121 111 -121h36v-51h-38q-167 0 -167 174q0 43 3 122q4 71 4 99q0 88 -105 105v42q105 17 105 105q0 28 -4 99q-3 79 -3 123
q0 173 167 173h38v-51z" />
    <glyph glyph-name="bar" unicode="|" horiz-adv-x="245" 
d="M150 -179h-55v1026h55v-1026z" />
    <glyph glyph-name="braceright" unicode="}" horiz-adv-x="343" 
d="M214 416q0 -88 105 -105v-42q-105 -17 -105 -105q0 -20 3 -99q4 -71 4 -122q0 -174 -167 -174h-38v51h35q112 0 112 121q0 46 -4 117q-3 79 -3 103q0 95 83 129q-83 34 -83 129q0 24 3 103q4 71 4 118q0 120 -112 120h-35v51h38q167 0 167 -173q0 -52 -4 -123
q-3 -79 -3 -99z" />
    <glyph glyph-name="asciitilde" unicode="~" horiz-adv-x="636" 
d="M423 275q-43 0 -105 34t-93 34q-35 0 -60 -14.5t-53 -49.5l-40 29q57 89 155 89q44 0 108 -34t91 -34q32 0 53.5 13t46.5 46l40 -31q-54 -82 -143 -82z" />
    <glyph glyph-name="exclamdown" unicode="&#xa1;" horiz-adv-x="234" 
d="M128 526q20 0 34 -13.5t14 -34.5q0 -20 -14 -33.5t-34 -13.5q-21 0 -35 13.5t-14 33.5t14 34t35 14zM95 -228l3 578h57l4 -578h-64z" />
    <glyph glyph-name="cent" unicode="&#xa2;" horiz-adv-x="607" 
d="M347 492v-447q53 6 98 36t69 73l49 -30q-29 -57 -87 -93t-129 -42v-80h-51v80q-109 7 -179 85q-69 78 -69 193t69 192q70 78 179 88v82h51v-82q74 -5 133 -41.5t86 -95.5l-49 -28q-25 47 -70 76.5t-100 33.5zM296 44v447q-84 -11 -136 -72t-52 -152q0 -92 52 -153
t136 -70z" />
    <glyph glyph-name="sterling" unicode="&#xa3;" horiz-adv-x="551" 
d="M136 57h371v-57h-450v45q41 32 68 90q28 57 28 120q0 42 -16 93h-85v54h67q-31 93 -31 140q0 91 60 149q61 60 152 61q64 1 117 -30t83 -86l-49 -32q-50 92 -148 92q-66 -1 -110 -45q-43 -43 -43 -112q0 -41 32 -137h258v-54h-240q14 -56 14 -99q-2 -113 -78 -192z" />
    <glyph glyph-name="currency" unicode="&#xa4;" horiz-adv-x="636" 
d="M537 367q0 -79 -51 -140l73 -71l-38 -36l-73 72q-58 -45 -133 -45q-72 0 -130 43l-71 -70l-37 36l70 69q-52 62 -52 142q0 72 44 133l-78 78l37 36l77 -76q61 52 140 52t144 -54l79 78l37 -36l-81 -80q43 -58 43 -131zM150 368q0 -70 48 -120q49 -49 117 -49t117 49
q50 50 50 120q0 71 -49 120q-50 50 -118 50q-67 0 -117 -50q-48 -50 -48 -120z" />
    <glyph glyph-name="yen" unicode="&#xa5;" horiz-adv-x="602" 
d="M506 739h64l-213 -385h154v-50h-180v-78h180v-50h-180v-176h-61v176h-182v50h182v78h-182v50h157l-212 385h65l204 -377z" />
    <glyph glyph-name="brokenbar" unicode="&#xa6;" horiz-adv-x="245" 
d="M150 434h-55v413h55v-413zM95 234h55v-413h-55v413z" />
    <glyph glyph-name="section" unicode="&#xa7;" horiz-adv-x="545" 
d="M506 195q0 -85 -72 -129q26 -41 26 -92q0 -81 -58 -133t-147 -52q-130 0 -209 105l43 37q68 -86 165 -86q64 0 105.5 36t41.5 91q0 45 -36 85q-11 14 -42 34q-29 19 -43 25l-50 26q-80 39 -127 78q-56 46 -56 115q0 82 70 126q-30 43 -30 101q0 83 56 136q55 54 147 54
q123 0 197 -104l-43 -35q-61 82 -151 82q-65 0 -105.5 -37t-40.5 -95q0 -64 53 -106q25 -19 52 -35q22 -14 69 -36l12 -6q82 -42 118 -72q55 -46 55 -113zM397 108q49 27 49 82q0 43 -32 72.5t-109 67.5q-113 54 -152 90q-46 -25 -46 -81q0 -42 34 -73.5t117 -72.5l26 -14
q20 -9 31 -16q53 -29 82 -55z" />
    <glyph glyph-name="dieresis" unicode="&#xa8;" horiz-adv-x="494" 
d="M56 695q0 21 16 37t39 16t38.5 -16t15.5 -37q0 -23 -15.5 -39t-38.5 -16t-39 16t-16 39zM240 695q0 21 16 37t39 16t39 -16t16 -37q0 -23 -16 -39t-39 -16t-39 16t-16 39z" />
    <glyph glyph-name="copyright" unicode="&#xa9;" horiz-adv-x="868" 
d="M49 369q0 157 113 270t272 113t272 -113t113 -270q0 -156 -113 -269q-112 -112 -272 -112t-272 112q-113 113 -113 269zM768 369q0 138 -98 236q-98 99 -236 99t-236 -99q-98 -98 -98 -236q0 -137 98 -235t236 -98t236 98t98 235zM436 164q-85 0 -144 59q-58 58 -58 146
t58 146q59 59 144 59q96 0 158 -74l-34 -29q-50 59 -122 59q-67 0 -112 -45q-44 -46 -44 -116q0 -69 45 -115q45 -45 111 -45q74 0 124 53l31 -30q-60 -68 -157 -68z" />
    <glyph glyph-name="ordfeminine" unicode="&#xaa;" horiz-adv-x="410" 
d="M195 736q66 0 104.5 -38t38.5 -106v-201h-43v46q-39 -55 -118 -55q-57 0 -91 30.5t-34 78.5t38 76.5t103 28.5q54 0 102 -13v9q0 102 -101 102q-63 0 -103 -31l-21 35q49 38 125 38zM178 425q52 0 84 31.5t33 87.5q-46 13 -99 13q-47 0 -73 -18t-26 -48t22.5 -48
t58.5 -18z" />
    <glyph glyph-name="guillemotleft" unicode="&#xab;" horiz-adv-x="492" 
d="M252 88h-60l-145 203l145 203h60l-144 -203zM431 88h-61l-144 203l144 203h61l-144 -203z" />
    <glyph glyph-name="logicalnot" unicode="&#xac;" horiz-adv-x="593" 
d="M464 303h-385v56h439v-187h-54v131z" />
    <glyph glyph-name="uni00AD" unicode="&#xad;" horiz-adv-x="520" 
d="M451 301h-382v55h382v-55z" />
    <glyph glyph-name="registered" unicode="&#xae;" horiz-adv-x="570" 
d="M117 691q70 70 168 70q97 0 168 -71q70 -70 70 -168t-70 -168q-71 -69 -168 -69q-98 0 -168 70t-70 169q0 98 70 167zM144 382q59 -59 141 -59t141 59t59 141t-59 141t-141 59t-141 -59t-59 -141t59 -141zM376 569q0 -55 -52 -71l55 -93h-41l-49 88h-48v-88h-35v241h91
q35 0 57 -21.5t22 -55.5zM289 616h-48v-93h45q56 0 56 46q0 47 -53 47z" />
    <glyph glyph-name="overscore" unicode="&#xaf;" horiz-adv-x="474" 
d="M348 674l-302 -1v55h302v-54z" />
    <glyph glyph-name="degree" unicode="&#xb0;" horiz-adv-x="359" 
d="M275 585q-40 -38 -95 -38t-96 38q-40 39 -40 94t40 94q40 40 96 40t95 -40q40 -39 40 -94t-40 -94zM270 679q0 39 -26 65.5t-64 26.5t-65 -26.5t-27 -65.5q0 -37 27 -63.5t65 -26.5t64 26t26 64z" />
    <glyph glyph-name="plusminus" unicode="&#xb1;" horiz-adv-x="588" 
d="M322 660v-191h191v-57h-191v-190l-56 -1v191h-191v57h192v191h55zM513 100h-438v55h438v-55z" />
    <glyph glyph-name="uni00B2" unicode="&#xb2;" horiz-adv-x="335" 
d="M213 662l-99 -109h176v-46h-245l-1 41l120 129q39 43 55 69t16 51q0 30 -21 49.5t-53 19.5q-49 0 -96 -46l-28 36q59 56 126 56q53 0 87.5 -32t34.5 -83q0 -54 -72 -135z" />
    <glyph glyph-name="uni00B3" unicode="&#xb3;" horiz-adv-x="313" 
d="M145 501q-64 0 -125 40l23 40q52 -34 101 -34q41 0 64.5 19.5t23.5 51.5q0 33 -23 51.5t-67 18.5h-47v45h43q39 0 62.5 19t23.5 49t-22 47.5t-56 17.5q-49 0 -92 -37l-25 35q48 48 121 48q54 0 89.5 -29.5t35.5 -74.5q0 -33 -19 -58t-52 -35v-2q37 -8 58 -34.5t21 -62.5
q0 -50 -38.5 -82.5t-99.5 -32.5z" />
    <glyph glyph-name="acute" unicode="&#xb4;" horiz-adv-x="455" 
d="M105 620h-51l59 160h77z" />
    <glyph glyph-name="paragraph" unicode="&#xb6;" horiz-adv-x="584" 
d="M225 734h310v-55h-76v-882h-57v882h-91v-882h-58v565h-27q-84 0 -140 53q-55 54 -55 135q0 79 55 131q56 53 139 53z" />
    <glyph glyph-name="middot" unicode="&#xb7;" horiz-adv-x="237" 
d="M126 -16q-21 0 -35 14t-14 34t14 33.5t35 13.5q20 0 34 -13.5t14 -33.5q0 -21 -14 -34.5t-34 -13.5z" />
    <glyph glyph-name="cedilla" unicode="&#xb8;" horiz-adv-x="310" 
d="M184 -55q43 0 70 -23t27 -63q0 -46 -34.5 -76.5t-92.5 -30.5q-50 0 -102 24l17 42q43 -20 82 -20q35 0 57 18t22 43q0 21 -15.5 34t-45.5 13h-60l-8 17l37 97l50 -1l-31 -76q24 2 27 2z" />
    <glyph glyph-name="uni00B9" unicode="&#xb9;" horiz-adv-x="258" 
d="M24 797l130 104h38v-394h-51v324l-89 -72z" />
    <glyph glyph-name="ordmasculine" unicode="&#xba;" horiz-adv-x="444" 
d="M47 557q0 75 50 127q51 52 125 52q75 0 124 -52q51 -51 51 -127q0 -75 -51 -126q-50 -50 -124 -50q-73 0 -125 50q-50 52 -50 126zM353 557q0 58 -38 98q-37 40 -93 40q-57 0 -94 -40q-37 -38 -37 -98q0 -59 37 -97q38 -38 94 -38q55 0 93 38q38 40 38 97z" />
    <glyph glyph-name="guillemotright" unicode="&#xbb;" horiz-adv-x="492" 
d="M266 291l-144 -203h-61l144 203l-144 203h61zM445 291l-145 -203h-60l144 203l-144 203h60z" />
    <glyph glyph-name="onequarter" unicode="&#xbc;" horiz-adv-x="840" 
d="M206 346h-51v325l-89 -72l-28 38l130 104h38v-395zM118 0l578 739h57l-577 -739h-58zM749 143h45v-42h-45v-101h-46v101h-188l-11 30l213 265h32v-253zM703 312l-136 -169h136v169z" />
    <glyph glyph-name="onehalf" unicode="&#xbd;" horiz-adv-x="818" 
d="M207 346h-51v325l-89 -72l-28 38l130 104h38v-395zM84 0l578 739h57l-576 -739h-59zM692 155l-99 -109h176v-46h-245l-1 41l120 129q39 43 55 69t16 51q0 30 -21 49.5t-53 19.5q-49 0 -96 -46l-28 36q59 56 126 56q53 0 87.5 -32t34.5 -83q0 -54 -72 -135z" />
    <glyph glyph-name="threequarters" unicode="&#xbe;" horiz-adv-x="812" 
d="M146 387q41 0 64.5 19.5t23.5 51.5q0 33 -23 51.5t-67 18.5h-47v45h43q39 0 62.5 19t23.5 49t-22 47.5t-56 17.5q-49 0 -92 -37l-25 35q48 48 121 48q54 0 89.5 -29.5t35.5 -74.5q0 -33 -19 -58t-52 -35v-2q37 -8 58 -34.5t21 -62.5q0 -50 -38.5 -82.5t-99.5 -32.5
q-64 0 -125 40l23 40q52 -34 101 -34zM131 0l578 739h57l-576 -739h-59zM675 396h32v-253h45v-42h-45v-101h-46v101h-188l-11 30zM661 312l-136 -169h136v169z" />
    <glyph glyph-name="questiondown" unicode="&#xbf;" horiz-adv-x="488" 
d="M272 527q21 0 35.5 -14t14.5 -34t-14.5 -33.5t-35.5 -13.5q-19 0 -33 13.5t-14 33.5q0 21 14 34.5t33 13.5zM245 354h56v-75q0 -74 -71 -138q-4 -3 -33.5 -30t-38 -37l-26.5 -32.5t-24.5 -43t-6.5 -43.5q0 -59 44 -98q43 -40 111 -40q94 0 166 84l39 -39q-38 -47 -93 -74
t-114 -27q-88 0 -151 54q-62 53 -62 140q0 84 72 151l35 31.5t37.5 35t28.5 31t24 37.5t7 36v77z" />
    <glyph glyph-name="Agrave" unicode="&#xc0;" horiz-adv-x="652" 
d="M292 955l59 -160h-51l-85 160h77zM636 0h-67l-88 224h-311l-88 -224h-67l295 739h33zM461 281l-135 349l-136 -349h271z" />
    <glyph glyph-name="Aacute" unicode="&#xc1;" horiz-adv-x="652" 
d="M364 956h77l-85 -160h-51zM636 0h-67l-88 224h-311l-88 -224h-67l295 739h33zM461 281l-135 349l-136 -349h271z" />
    <glyph glyph-name="Acircumflex" unicode="&#xc2;" horiz-adv-x="652" 
d="M418 795l-92 104l-92 -104h-64l138 155h37l138 -155h-65zM636 0h-67l-88 224h-311l-88 -224h-67l295 739h33zM461 281l-135 349l-136 -349h271z" />
    <glyph glyph-name="Atilde" unicode="&#xc3;" horiz-adv-x="652" 
d="M255 867q-44 0 -67 -53l-39 18q11 39 40.5 63.5t67.5 24.5q34 0 74 -28t62 -28q21 0 38 15.5t26 37.5l39 -17q-11 -40 -39 -64t-66 -24q-35 0 -75 27q-40 28 -61 28zM636 0h-67l-88 224h-311l-88 -224h-67l295 739h33zM461 281l-135 349l-136 -349h271z" />
    <glyph glyph-name="Adieresis" unicode="&#xc4;" horiz-adv-x="652" 
d="M186 862q0 20 15 35.5t37 15.5t37 -15t15 -36q0 -23 -15 -38t-37 -15t-37 15.5t-15 37.5zM362 862q0 21 15 36t37 15t37.5 -15t15.5 -36q0 -22 -15.5 -37.5t-37.5 -15.5t-37 15t-15 38zM636 0h-67l-88 224h-311l-88 -224h-67l295 739h33zM461 281l-135 349l-136 -349h271
z" />
    <glyph glyph-name="Aring" unicode="&#xc5;" horiz-adv-x="652" 
d="M328 786q-46 0 -78.5 31.5t-32.5 76.5q0 46 32.5 78t78.5 32q47 0 79 -32q33 -32 33 -78q0 -45 -32.5 -76.5t-79.5 -31.5zM377 944q-20 20 -49 20t-49 -20t-20 -49t20 -49t49 -20t49 20q21 20 21 49t-21 49zM636 0h-67l-88 224h-311l-88 -224h-67l295 739h33zM461 281
l-135 349l-136 -349h271z" />
    <glyph glyph-name="AE" unicode="&#xc6;" horiz-adv-x="990" 
d="M552 343v-285h385v-58h-446v243h-278l-155 -243h-71l479 739h470v-58h-384v-280h354v-58h-354zM491 679l-241 -378h241v378z" />
    <glyph glyph-name="Ccedilla" unicode="&#xc7;" horiz-adv-x="785" 
d="M431 47q83 0 156.5 36.5t121.5 100.5l44 -36q-53 -73 -136.5 -115.5t-180.5 -43.5l-19 -47q24 2 27 2q43 0 70 -23t27 -63q0 -46 -34.5 -76.5t-92.5 -30.5q-50 0 -102 24l17 42q43 -20 82 -20q35 0 57 18t22 43q0 21 -15.5 34t-45.5 13h-60l-8 17l26 69q-145 15 -240 118
q-96 103 -96 258q0 168 111 276q112 109 270 109q102 0 188 -46q87 -45 133 -118l-47 -35q-42 64 -115.5 102t-158.5 38q-136 0 -228 -92q-91 -91 -91 -233q0 -140 90 -231q91 -90 228 -90z" />
    <glyph glyph-name="Egrave" unicode="&#xc8;" horiz-adv-x="601" 
d="M291 955l59 -160h-51l-85 160h77zM548 0h-447v739h445v-58h-384v-278h358v-57h-358v-288h386v-58z" />
    <glyph glyph-name="Eacute" unicode="&#xc9;" horiz-adv-x="601" 
d="M342 796h-51l59 160h77zM548 0h-447v739h445v-58h-384v-278h358v-57h-358v-288h386v-58z" />
    <glyph glyph-name="Ecircumflex" unicode="&#xca;" horiz-adv-x="601" 
d="M225 795h-64l138 155h37l138 -155h-65l-92 104zM548 0h-447v739h445v-58h-384v-278h358v-57h-358v-288h386v-58z" />
    <glyph glyph-name="Edieresis" unicode="&#xcb;" horiz-adv-x="601" 
d="M188 862q0 20 15 35.5t37 15.5t37 -15t15 -36q0 -23 -15 -38t-37 -15t-37 15.5t-15 37.5zM364 862q0 21 15 36t37 15t37.5 -15t15.5 -36q0 -22 -15.5 -37.5t-37.5 -15.5t-37 15t-15 38zM548 0h-447v739h445v-58h-384v-278h358v-57h-358v-288h386v-58z" />
    <glyph glyph-name="Igrave" unicode="&#xcc;" horiz-adv-x="270" 
d="M105 956l59 -160h-51l-85 160h77zM109 0v739h61v-739h-61z" />
    <glyph glyph-name="Iacute" unicode="&#xcd;" horiz-adv-x="258" 
d="M158 796h-51l59 160h77zM104 0v739h61v-739h-61z" />
    <glyph glyph-name="Icircumflex" unicode="&#xce;" horiz-adv-x="263" 
d="M47 796h-64l138 155h37l138 -155h-65l-92 104zM109 0v739h61v-739h-61z" />
    <glyph glyph-name="Idieresis" unicode="&#xcf;" horiz-adv-x="263" 
d="M50 808q-22 0 -37.5 15t-15.5 38q0 21 15.5 36.5t37.5 15.5q23 0 38 -15.5t15 -36.5q0 -23 -15 -38t-38 -15zM176 861q0 21 16 36.5t38 15.5t38 -15.5t16 -36.5q0 -22 -15.5 -37.5t-38.5 -15.5t-38.5 15.5t-15.5 37.5zM109 0v739h61v-739h-61z" />
    <glyph glyph-name="Eth" unicode="&#xd0;" horiz-adv-x="774" 
d="M126 739h254q157 0 248 -100q92 -101 92 -271t-93 -269t-255 -99h-246v343h-121v55h121v341zM187 58h185q134 0 209 84q76 85 76 227q0 141 -75 227q-73 85 -204 85h-191v-283h222v-55h-222v-285z" />
    <glyph glyph-name="Ntilde" unicode="&#xd1;" horiz-adv-x="770" 
d="M255 808l-39 18q11 39 40.5 63.5t67.5 24.5q33 0 73 -28t63 -28q21 0 38 15.5t26 37.5l39 -17q-11 -40 -39 -64t-66 -24q-34 0 -75 27q-40 28 -61 28q-44 0 -67 -53zM608 132v607h61v-739h-32l-475 601v-601h-61v739h27z" />
    <glyph glyph-name="Ograve" unicode="&#xd2;" horiz-adv-x="860" 
d="M410 955l59 -160h-51l-85 160h77zM428 -12q-158 0 -268 111q-110 112 -110 269q0 158 111 271t269 113q157 0 268 -112q112 -112 112 -270t-112 -270q-111 -112 -270 -112zM430 47q134 0 225 93q92 95 92 229q0 135 -92 230q-91 94 -225 94q-133 0 -226 -95
q-92 -95 -92 -229t92 -229q91 -93 226 -93z" />
    <glyph glyph-name="Oacute" unicode="&#xd3;" horiz-adv-x="860" 
d="M455 796h-51l59 160h77zM428 -12q-158 0 -268 111q-110 112 -110 269q0 158 111 271t269 113q157 0 268 -112q112 -112 112 -270t-112 -270q-111 -112 -270 -112zM430 47q134 0 225 93q92 95 92 229q0 135 -92 230q-91 94 -225 94q-133 0 -226 -95q-92 -95 -92 -229
t92 -229q91 -93 226 -93z" />
    <glyph glyph-name="Ocircumflex" unicode="&#xd4;" horiz-adv-x="860" 
d="M337 795h-64l138 155h37l138 -155h-65l-92 104zM428 -12q-158 0 -268 111q-110 112 -110 269q0 158 111 271t269 113q157 0 268 -112q112 -112 112 -270t-112 -270q-111 -112 -270 -112zM430 47q134 0 225 93q92 95 92 229q0 135 -92 230q-91 94 -225 94q-133 0 -226 -95
q-92 -95 -92 -229t92 -229q91 -93 226 -93z" />
    <glyph glyph-name="Otilde" unicode="&#xd5;" horiz-adv-x="860" 
d="M300 814l-39 18q11 39 40.5 63.5t67.5 24.5q34 0 74 -28t62 -28q21 0 38 15.5t26 37.5l39 -17q-11 -40 -39 -64t-66 -24q-35 0 -75 27q-40 28 -61 28q-44 0 -67 -53zM428 -12q-158 0 -268 111q-110 112 -110 269q0 158 111 271t269 113q157 0 268 -112q112 -112 112 -270
t-112 -270q-111 -112 -270 -112zM430 47q134 0 225 93q92 95 92 229q0 135 -92 230q-91 94 -225 94q-133 0 -226 -95q-92 -95 -92 -229t92 -229q91 -93 226 -93z" />
    <glyph glyph-name="Odieresis" unicode="&#xd6;" horiz-adv-x="860" 
d="M293 862q0 20 15.5 35.5t36.5 15.5q22 0 37 -15t15 -36q0 -23 -15 -38t-37 -15t-37 15.5t-15 37.5zM521 809q-22 0 -37 15t-15 38q0 21 15 36t37 15t37.5 -15t15.5 -36q0 -22 -15 -37.5t-38 -15.5zM428 -12q-158 0 -268 111q-110 112 -110 269q0 158 111 271t269 113
q157 0 268 -112q112 -112 112 -270t-112 -270q-111 -112 -270 -112zM430 47q134 0 225 93q92 95 92 229q0 135 -92 230q-91 94 -225 94q-133 0 -226 -95q-92 -95 -92 -229t92 -229q91 -93 226 -93z" />
    <glyph glyph-name="multiply" unicode="&#xd7;" horiz-adv-x="495" 
d="M284 339l149 -148l-36 -38l-149 149l-149 -149l-36 38l148 148l-147 147l35 37l148 -147l148 148l37 -36z" />
    <glyph glyph-name="Oslash" unicode="&#xd8;" horiz-adv-x="860" 
d="M727 745l-56 -80q66 -55 102.5 -131.5t36.5 -163.5q0 -158 -112 -270q-111 -112 -270 -112q-104 0 -196 54l-54 -76l-44 29l55 78q-66 54 -102.5 131t-36.5 164q0 158 111 271t269 113q105 0 199 -56l55 78zM112 369q0 -73 29.5 -137.5t82.5 -109.5l370 525
q-74 46 -164 46q-133 0 -226 -95q-92 -95 -92 -229zM430 47q134 0 225 93q92 95 92 229q0 150 -111 247l-369 -524q73 -45 163 -45z" />
    <glyph glyph-name="Ugrave" unicode="&#xd9;" horiz-adv-x="685" 
d="M317 955l59 -160h-51l-85 160h77zM93 240v499h61v-489q0 -96 49.5 -149t139.5 -53q89 0 138.5 53.5t49.5 148.5v489h61v-499q0 -118 -68 -186q-67 -67 -181 -67t-182 67q-68 68 -68 186z" />
    <glyph glyph-name="Uacute" unicode="&#xda;" horiz-adv-x="685" 
d="M362 796h-51l59 160h77zM93 240v499h61v-489q0 -96 49.5 -149t139.5 -53q89 0 138.5 53.5t49.5 148.5v489h61v-499q0 -118 -68 -186q-67 -67 -181 -67t-182 67q-68 68 -68 186z" />
    <glyph glyph-name="Ucircumflex" unicode="&#xdb;" horiz-adv-x="685" 
d="M249 795h-64l138 155h37l138 -155h-65l-92 104zM93 240v499h61v-489q0 -96 49.5 -149t139.5 -53q89 0 138.5 53.5t49.5 148.5v489h61v-499q0 -118 -68 -186q-67 -67 -181 -67t-182 67q-68 68 -68 186z" />
    <glyph glyph-name="Udieresis" unicode="&#xdc;" horiz-adv-x="685" 
d="M202 862q0 20 15 35.5t37 15.5t37 -15t15 -36q0 -23 -15 -38t-37 -15t-37 15.5t-15 37.5zM378 862q0 21 15 36t37 15t37.5 -15t15.5 -36q0 -22 -15.5 -37.5t-37.5 -15.5t-37 15t-15 38zM93 240v499h61v-489q0 -96 49.5 -149t139.5 -53q89 0 138.5 53.5t49.5 148.5v489h61
v-499q0 -118 -68 -186q-67 -67 -181 -67t-182 67q-68 68 -68 186z" />
    <glyph glyph-name="Yacute" unicode="&#xdd;" horiz-adv-x="602" 
d="M323 796h-51l59 160h77zM514 739h67l-250 -446v-293h-61v293l-248 446h67l212 -389z" />
    <glyph glyph-name="Thorn" unicode="&#xde;" horiz-adv-x="610" 
d="M162 609h168q115 0 175 -67q61 -67 61 -159q0 -93 -64 -160q-63 -66 -181 -66h-159v-157h-61v739h61v-130zM162 214h159q86 0 134 48q49 49 49 122q0 72 -47 119q-46 48 -125 48h-170v-337z" />
    <glyph glyph-name="germandbls" unicode="&#xdf;" horiz-adv-x="619" 
d="M427 393q68 -21 108 -73.5t40 -122.5q0 -93 -69 -155q-67 -61 -171 -61q-81 0 -134 28l19 54q44 -25 114 -25q80 0 129 46q51 46 51 117q0 73 -57 117q-57 45 -148 46v49q64 0 119 44q54 43 54 111q0 66 -44.5 108t-114.5 42q-82 0 -131.5 -62t-49.5 -168v-665h-61v677
q0 132 69 202q71 71 176 71q96 0 157 -59q60 -58 60 -143q0 -58 -31 -105.5t-85 -72.5z" />
    <glyph glyph-name="agrave" unicode="&#xe0;" horiz-adv-x="662" 
d="M297 781l59 -160h-51l-85 160h77zM522 432v103h58v-535h-58v104q-34 -55 -89.5 -86t-121.5 -31q-113 0 -190 81q-76 82 -76 202q0 118 75 198q77 80 191 80q67 0 122 -30.5t89 -85.5zM314 42q93 0 153 66t60 162q0 94 -60 158q-60 65 -153 65q-92 0 -151 -65
q-58 -64 -58 -160q0 -97 58 -161q59 -65 151 -65z" />
    <glyph glyph-name="aacute" unicode="&#xe1;" horiz-adv-x="662" 
d="M356 781h77l-85 -160h-51zM522 432v103h58v-535h-58v104q-34 -55 -89.5 -86t-121.5 -31q-113 0 -190 81q-76 82 -76 202q0 118 75 198q77 80 191 80q67 0 122 -30.5t89 -85.5zM314 42q93 0 153 66t60 162q0 94 -60 158q-60 65 -153 65q-92 0 -151 -65q-58 -64 -58 -160
q0 -97 58 -161q59 -65 151 -65z" />
    <glyph glyph-name="acircumflex" unicode="&#xe2;" horiz-adv-x="662" 
d="M416 620l-92 104l-92 -104h-64l138 155h37l138 -155h-65zM522 432v103h58v-535h-58v104q-34 -55 -89.5 -86t-121.5 -31q-113 0 -190 81q-76 82 -76 202q0 118 75 198q77 80 191 80q67 0 122 -30.5t89 -85.5zM314 42q93 0 153 66t60 162q0 94 -60 158q-60 65 -153 65
q-92 0 -151 -65q-58 -64 -58 -160q0 -97 58 -161q59 -65 151 -65z" />
    <glyph glyph-name="atilde" unicode="&#xe3;" horiz-adv-x="662" 
d="M259 683q-40 0 -63 -50l-37 17q11 37 38.5 60t63.5 23q31 0 69 -27q40 -26 59 -26q20 0 37 14.5t24 35.5l36 -16q-10 -37 -37 -60t-62 -23q-32 0 -70 26t-58 26zM522 432v103h58v-535h-58v104q-34 -55 -89.5 -86t-121.5 -31q-113 0 -190 81q-76 82 -76 202q0 118 75 198
q77 80 191 80q67 0 122 -30.5t89 -85.5zM314 42q93 0 153 66t60 162q0 94 -60 158q-60 65 -153 65q-92 0 -151 -65q-58 -64 -58 -160q0 -97 58 -161q59 -65 151 -65z" />
    <glyph glyph-name="adieresis" unicode="&#xe4;" horiz-adv-x="662" 
d="M178 680q0 21 16 37t39 16t38.5 -16t15.5 -37q0 -23 -15.5 -39t-38.5 -16t-39 16t-16 39zM362 680q0 21 16 37t39 16t39 -16t16 -37q0 -23 -16 -39t-39 -16t-39 16t-16 39zM522 432v103h58v-535h-58v104q-34 -55 -89.5 -86t-121.5 -31q-113 0 -190 81q-76 82 -76 202
q0 118 75 198q77 80 191 80q67 0 122 -30.5t89 -85.5zM314 42q93 0 153 66t60 162q0 94 -60 158q-60 65 -153 65q-92 0 -151 -65q-58 -64 -58 -160q0 -97 58 -161q59 -65 151 -65z" />
    <glyph glyph-name="aring" unicode="&#xe5;" horiz-adv-x="662" 
d="M323 604q-46 0 -78.5 31.5t-32.5 76.5q0 46 32.5 78t78.5 32q47 0 79 -32q33 -32 33 -78q0 -45 -32.5 -76.5t-79.5 -31.5zM372 762q-20 20 -49 20t-49 -20t-20 -49t20 -49t49 -20t49 20q21 20 21 49t-21 49zM522 432v103h58v-535h-58v104q-34 -55 -89.5 -86t-121.5 -31
q-113 0 -190 81q-76 82 -76 202q0 118 75 198q77 80 191 80q67 0 122 -30.5t89 -85.5zM314 42q93 0 153 66t60 162q0 94 -60 158q-60 65 -153 65q-92 0 -151 -65q-58 -64 -58 -160q0 -97 58 -161q59 -65 151 -65z" />
    <glyph glyph-name="ae" unicode="&#xe6;" horiz-adv-x="988" 
d="M945 295q0 -11 -3 -47h-435q5 -92 60 -148t146 -56q50 0 101.5 17.5t86.5 46.5l28 -47q-38 -32 -97 -52.5t-121 -20.5q-174 0 -240 151q-32 -73 -96.5 -112.5t-145.5 -39.5q-88 0 -141.5 44t-53.5 118q0 89 78 123q66 29 156 29h174q-8 99 -53 145t-130 46
q-105 0 -173 -54l-29 45q37 29 93 47t109 18q76 0 134 -34t84 -101q33 64 92 99.5t136 35.5q104 0 172 -68t68 -185zM704 493q-81 0 -134.5 -52.5t-61.5 -139.5h376q-1 88 -50.5 140t-129.5 52zM231 43q87 0 145 55q59 55 67 150h-175q-174 0 -174 -100q0 -48 38 -76.5
t99 -28.5z" />
    <glyph glyph-name="ccedilla" unicode="&#xe7;" horiz-adv-x="595" 
d="M319 43q60 0 113.5 31t79.5 80l49 -30q-31 -60 -94.5 -97t-138.5 -39l-19 -45q24 2 27 2q43 0 70 -23t27 -63q0 -46 -34.5 -76.5t-92.5 -30.5q-50 0 -102 24l17 42q43 -20 82 -20q35 0 57 18t22 43q0 21 -15.5 34t-45.5 13h-60l-8 17l26 68q-106 14 -169 89
q-64 76 -64 187q0 123 78 202q79 79 201 79q79 0 143.5 -37t95.5 -101l-49 -28q-27 51 -78 81t-112 30q-96 0 -157 -64q-62 -64 -62 -162t60 -161t153 -63z" />
    <glyph glyph-name="egrave" unicode="&#xe8;" 
d="M281 780l59 -160h-51l-85 160h77zM561 291q0 -11 -3 -47h-450q7 -91 64 -145.5t153 -54.5q52 0 106 17.5t90 46.5l28 -46q-41 -32 -101.5 -53t-123.5 -21q-138 0 -208 82.5t-70 198.5q0 121 73 200t193 79q108 0 178 -70q71 -69 71 -187zM312 493q-84 0 -139.5 -53
t-64.5 -141h391q-1 88 -52.5 141t-134.5 53z" />
    <glyph glyph-name="eacute" unicode="&#xe9;" 
d="M340 781h77l-85 -160h-51zM561 291q0 -11 -3 -47h-450q7 -91 64 -145.5t153 -54.5q52 0 106 17.5t90 46.5l28 -46q-41 -32 -101.5 -53t-123.5 -21q-138 0 -208 82.5t-70 198.5q0 121 73 200t193 79q108 0 178 -70q71 -69 71 -187zM312 493q-84 0 -139.5 -53t-64.5 -141
h391q-1 88 -52.5 141t-134.5 53z" />
    <glyph glyph-name="ecircumflex" unicode="&#xea;" 
d="M401 621l-92 104l-92 -104h-64l138 155h37l138 -155h-65zM561 291q0 -11 -3 -47h-450q7 -91 64 -145.5t153 -54.5q52 0 106 17.5t90 46.5l28 -46q-41 -32 -101.5 -53t-123.5 -21q-138 0 -208 82.5t-70 198.5q0 121 73 200t193 79q108 0 178 -70q71 -69 71 -187zM312 493
q-84 0 -139.5 -53t-64.5 -141h391q-1 88 -52.5 141t-134.5 53z" />
    <glyph glyph-name="edieresis" unicode="&#xeb;" 
d="M173 678q0 21 16 37t39 16t38.5 -16t15.5 -37q0 -23 -15.5 -39t-38.5 -16t-39 16t-16 39zM357 678q0 21 16 37t39 16t39 -16t16 -37q0 -23 -16 -39t-39 -16t-39 16t-16 39zM561 291q0 -11 -3 -47h-450q7 -91 64 -145.5t153 -54.5q52 0 106 17.5t90 46.5l28 -46
q-41 -32 -101.5 -53t-123.5 -21q-138 0 -208 82.5t-70 198.5q0 121 73 200t193 79q108 0 178 -70q71 -69 71 -187zM312 493q-84 0 -139.5 -53t-64.5 -141h391q-1 88 -52.5 141t-134.5 53z" />
    <glyph glyph-name="igrave" unicode="&#xec;" horiz-adv-x="223" 
d="M77 780l59 -160h-51l-85 160h77zM137 535v-535h-60v535h60z" />
    <glyph glyph-name="iacute" unicode="&#xed;" horiz-adv-x="226" 
d="M139 621h-51l59 160h77zM141 535v-535h-60v535h60z" />
    <glyph glyph-name="icircumflex" unicode="&#xee;" horiz-adv-x="223" 
d="M15 619h-64l138 155h37l138 -155h-65l-92 104zM137 535v-535h-60v535h60z" />
    <glyph glyph-name="idieresis" unicode="&#xef;" horiz-adv-x="223" 
d="M-39 680q0 21 16 37t39 16t38.5 -16t15.5 -37q0 -23 -15.5 -39t-38.5 -16t-39 16t-16 39zM145 680q0 21 16 37t39 16t39 -16t16 -37q0 -23 -16 -39t-39 -16t-39 16t-16 39zM137 535v-535h-60v535h60z" />
    <glyph glyph-name="eth" unicode="&#xf0;" horiz-adv-x="657" 
d="M575 769l-106 -71q134 -167 134 -351q0 -159 -80 -260q-79 -100 -212 -100q-114 0 -190 76q-75 77 -75 189t75 189q75 76 188 76q79 0 142 -40.5t93 -108.5q-5 130 -83 244q-17 26 -40 54l-114 -77l-30 41l110 74q-45 47 -112 99l40 42q73 -58 121 -109l111 74zM521 254
q0 89 -60 149t-149 60q-91 0 -149 -61q-58 -59 -58 -150q0 -89 58 -150q59 -60 148 -60q90 0 150 61t60 151z" />
    <glyph glyph-name="ntilde" unicode="&#xf1;" horiz-adv-x="612" 
d="M181 631l-37 17q11 37 38.5 60t63.5 23q32 0 69 -27q40 -26 59 -26q20 0 37 14.5t24 35.5l36 -16q-10 -37 -37 -60t-62 -23q-32 0 -70 26t-58 26q-40 0 -63 -50zM141 0h-60v535h58v-94q49 108 186 108q89 0 151 -59q61 -58 61 -167v-323h-60v312q0 84 -42.5 132.5
t-116.5 48.5q-71 0 -124 -49q-53 -48 -53 -144v-300z" />
    <glyph glyph-name="ograve" unicode="&#xf2;" horiz-adv-x="646" 
d="M296 780l59 -160h-51l-85 160h77zM45 268q0 119 79 199q80 81 199 81t199 -81q79 -80 79 -199q0 -120 -79 -200q-80 -81 -199 -81t-199 81q-79 80 -79 200zM323 42q94 0 156 65q62 67 62 161q0 95 -62 160t-156 65q-93 0 -156 -66q-62 -65 -62 -159t62 -161
q63 -65 156 -65z" />
    <glyph glyph-name="oacute" unicode="&#xf3;" horiz-adv-x="646" 
d="M342 621h-51l59 160h77zM45 268q0 119 79 199q80 81 199 81t199 -81q79 -80 79 -199q0 -120 -79 -200q-80 -81 -199 -81t-199 81q-79 80 -79 200zM323 42q94 0 156 65q62 67 62 161q0 95 -62 160t-156 65q-93 0 -156 -66q-62 -65 -62 -159t62 -161q63 -65 156 -65z" />
    <glyph glyph-name="ocircumflex" unicode="&#xf4;" horiz-adv-x="646" 
d="M231 622h-64l138 155h37l138 -155h-65l-92 104zM45 268q0 119 79 199q80 81 199 81t199 -81q79 -80 79 -199q0 -120 -79 -200q-80 -81 -199 -81t-199 81q-79 80 -79 200zM323 42q94 0 156 65q62 67 62 161q0 95 -62 160t-156 65q-93 0 -156 -66q-62 -65 -62 -159t62 -161
q63 -65 156 -65z" />
    <glyph glyph-name="otilde" unicode="&#xf5;" horiz-adv-x="646" 
d="M195 630l-37 17q11 37 38.5 60t63.5 23q32 0 69 -27q40 -26 59 -26q20 0 37 14.5t24 35.5l36 -16q-10 -37 -37 -60t-62 -23q-32 0 -70 26t-58 26q-40 0 -63 -50zM45 268q0 119 79 199q80 81 199 81t199 -81q79 -80 79 -199q0 -120 -79 -200q-80 -81 -199 -81t-199 81
q-79 80 -79 200zM323 42q94 0 156 65q62 67 62 161q0 95 -62 160t-156 65q-93 0 -156 -66q-62 -65 -62 -159t62 -161q63 -65 156 -65z" />
    <glyph glyph-name="odieresis" unicode="&#xf6;" horiz-adv-x="646" 
d="M177 680q0 21 16 37t39 16t38.5 -16t15.5 -37q0 -23 -15.5 -39t-38.5 -16t-39 16t-16 39zM361 680q0 21 16 37t39 16t39 -16t16 -37q0 -23 -16 -39t-39 -16t-39 16t-16 39zM45 268q0 119 79 199q80 81 199 81t199 -81q79 -80 79 -199q0 -120 -79 -200q-80 -81 -199 -81
t-199 81q-79 80 -79 200zM323 42q94 0 156 65q62 67 62 161q0 95 -62 160t-156 65q-93 0 -156 -66q-62 -65 -62 -159t62 -161q63 -65 156 -65z" />
    <glyph glyph-name="divide" unicode="&#xf7;" horiz-adv-x="521" 
d="M270 425q-23 0 -39 15.5t-16 38.5q0 22 16 37t39 15q22 0 38 -15t16 -37q0 -23 -16 -38.5t-38 -15.5zM456 299h-391v55h391v-55zM270 123q-23 0 -39 15.5t-16 38.5q0 22 16 37t39 15q22 0 38 -15t16 -37q0 -23 -16 -38.5t-38 -15.5z" />
    <glyph glyph-name="oslash" unicode="&#xf8;" horiz-adv-x="646" 
d="M554 559l-51 -74q98 -83 98 -217q0 -120 -79 -200q-80 -81 -199 -81q-75 0 -140 36l-54 -79l-38 27l54 78q-100 83 -100 219q0 119 79 199q80 81 199 81q77 0 140 -36l50 73zM105 268q0 -104 73 -171l253 368q-49 28 -108 28q-93 0 -156 -66q-62 -65 -62 -159zM323 42
q94 0 156 65q62 67 62 161q0 103 -71 169l-254 -367q47 -28 107 -28z" />
    <glyph glyph-name="ugrave" unicode="&#xf9;" horiz-adv-x="585" 
d="M270 781l59 -160h-51l-85 160h77zM292 -13q-99 0 -159 60q-59 62 -59 162v326h60v-325q0 -77 42.5 -122t115.5 -45q75 0 117 45t42 123v324h60v-326q0 -102 -58.5 -162t-160.5 -60z" />
    <glyph glyph-name="uacute" unicode="&#xfa;" horiz-adv-x="585" 
d="M314 621h-51l59 160h77zM292 -13q-99 0 -159 60q-59 62 -59 162v326h60v-325q0 -77 42.5 -122t115.5 -45q75 0 117 45t42 123v324h60v-326q0 -102 -58.5 -162t-160.5 -60z" />
    <glyph glyph-name="ucircumflex" unicode="&#xfb;" horiz-adv-x="585" 
d="M201 619h-64l138 155h37l138 -155h-65l-92 104zM292 -13q-99 0 -159 60q-59 62 -59 162v326h60v-325q0 -77 42.5 -122t115.5 -45q75 0 117 45t42 123v324h60v-326q0 -102 -58.5 -162t-160.5 -60z" />
    <glyph glyph-name="udieresis" unicode="&#xfc;" horiz-adv-x="585" 
d="M146 680q0 21 16 37t39 16t38.5 -16t15.5 -37q0 -23 -15.5 -39t-38.5 -16t-39 16t-16 39zM330 680q0 21 16 37t39 16t39 -16t16 -37q0 -23 -16 -39t-39 -16t-39 16t-16 39zM292 -13q-99 0 -159 60q-59 62 -59 162v326h60v-325q0 -77 42.5 -122t115.5 -45q75 0 117 45
t42 123v324h60v-326q0 -102 -58.5 -162t-160.5 -60z" />
    <glyph glyph-name="yacute" unicode="&#xfd;" horiz-adv-x="531" 
d="M294 780h77l-85 -160h-51zM274 78l175 457h66l-226 -575q-40 -102 -81 -144.5t-102 -42.5q-43 0 -77 19l9 53q35 -16 66 -16q41 0 71 33.5t57 103.5l13 34l-228 535h66z" />
    <glyph glyph-name="thorn" unicode="&#xfe;" horiz-adv-x="665" 
d="M353 549q115 0 191 -82q76 -80 76 -199t-76 -199q-77 -81 -191 -81q-67 0 -122.5 30.5t-89.5 85.5v-324h-60v975h60v-327q36 57 91 89t121 32zM351 43q91 0 150 65t59 160t-59 160t-150 65q-93 0 -153 -66t-60 -161q0 -94 60 -158q60 -65 153 -65z" />
    <glyph glyph-name="ydieresis" unicode="&#xff;" horiz-adv-x="531" 
d="M123 679q0 21 16 37t39 16t38.5 -16t15.5 -37q0 -23 -15.5 -39t-38.5 -16t-39 16t-16 39zM307 679q0 21 16 37t39 16t39 -16t16 -37q0 -23 -16 -39t-39 -16t-39 16t-16 39zM274 78l175 457h66l-226 -575q-40 -102 -81 -144.5t-102 -42.5q-43 0 -77 19l9 53q35 -16 66 -16
q41 0 71 33.5t57 103.5l13 34l-228 535h66z" />
    <glyph glyph-name="Amacron" unicode="&#x100;" horiz-adv-x="652" 
d="M160 875h332v-54l-332 -1v55zM636 0h-67l-88 224h-311l-88 -224h-67l295 739h33zM461 281l-135 349l-136 -349h271z" />
    <glyph glyph-name="amacron" unicode="&#x101;" horiz-adv-x="662" 
d="M173 712h302v-54l-302 -1v55zM522 432v103h58v-535h-58v104q-34 -55 -89.5 -86t-121.5 -31q-113 0 -190 81q-76 82 -76 202q0 118 75 198q77 80 191 80q67 0 122 -30.5t89 -85.5zM314 42q93 0 153 66t60 162q0 94 -60 158q-60 65 -153 65q-92 0 -151 -65
q-58 -64 -58 -160q0 -97 58 -161q59 -65 151 -65z" />
    <glyph glyph-name="Abreve" unicode="&#x102;" horiz-adv-x="652" 
d="M165 949h54q1 -56 29.5 -84t78.5 -28q51 0 79.5 28t29.5 84h55q-1 -73 -45.5 -116.5t-118.5 -43.5t-117.5 43.5t-44.5 116.5zM636 0h-67l-88 224h-311l-88 -224h-67l295 739h33zM461 281l-135 349l-136 -349h271z" />
    <glyph glyph-name="abreve" unicode="&#x103;" horiz-adv-x="662" 
d="M157 776h54q1 -56 29.5 -84t78.5 -28q51 0 79.5 28t29.5 84h55q-1 -73 -45.5 -116.5t-118.5 -43.5t-117.5 43.5t-44.5 116.5zM522 432v103h58v-535h-58v104q-34 -55 -89.5 -86t-121.5 -31q-113 0 -190 81q-76 82 -76 202q0 118 75 198q77 80 191 80q67 0 122 -30.5
t89 -85.5zM314 42q93 0 153 66t60 162q0 94 -60 158q-60 65 -153 65q-92 0 -151 -65q-58 -64 -58 -160q0 -97 58 -161q59 -65 151 -65z" />
    <glyph glyph-name="Aogonek" unicode="&#x104;" horiz-adv-x="648" 
d="M626 -188l24 -41q-42 -30 -89 -30q-48 0 -78 29.5t-30 76.5q0 88 116 153l-88 224h-311l-88 -224h-67l295 739h33l293 -739q-60 -27 -95 -66t-35 -78q0 -27 18 -45.5t44 -18.5q29 0 58 20zM461 281l-135 349l-136 -349h271z" />
    <glyph glyph-name="aogonek" unicode="&#x105;" horiz-adv-x="656" 
d="M571 -188l24 -41q-42 -30 -89 -30q-48 0 -78 29.5t-30 76.5q0 93 124 157v100q-34 -55 -89.5 -86t-121.5 -31q-113 0 -190 81q-76 82 -76 202q0 118 75 198q77 80 191 80q67 0 122 -30.5t89 -85.5v103h58v-535h1q-60 -27 -95 -66t-35 -78q0 -27 18 -45.5t44 -18.5
q29 0 58 20zM314 42q93 0 153 66t60 162q0 94 -60 158q-60 65 -153 65q-92 0 -151 -65q-58 -64 -58 -160q0 -97 58 -161q59 -65 151 -65z" />
    <glyph glyph-name="Cacute" unicode="&#x106;" horiz-adv-x="785" 
d="M462 796h-51l59 160h77zM430 -11q-160 0 -269 106q-110 107 -110 272q0 168 111 276q112 109 270 109q102 0 188 -46q87 -45 133 -118l-47 -35q-42 64 -115.5 102t-158.5 38q-136 0 -228 -92q-91 -91 -91 -233q0 -140 90 -231q91 -90 228 -90q83 0 156.5 36.5
t121.5 100.5l44 -36q-54 -74 -139 -116.5t-184 -42.5z" />
    <glyph glyph-name="cacute" unicode="&#x107;" horiz-adv-x="595" 
d="M344 621h-51l59 160h77zM319 -12q-119 0 -196 78q-77 80 -77 201q0 123 78 202q79 79 201 79q79 0 143.5 -37t95.5 -101l-49 -28q-27 51 -78 81t-112 30q-96 0 -157 -64q-62 -64 -62 -162t60 -161t153 -63q60 0 113.5 31t79.5 80l49 -30q-31 -61 -98 -99
q-65 -37 -144 -37z" />
    <glyph glyph-name="Ccircumflex" unicode="&#x108;" horiz-adv-x="785" 
d="M337 795h-64l138 155h37l138 -155h-65l-92 104zM430 -11q-160 0 -269 106q-110 107 -110 272q0 168 111 276q112 109 270 109q102 0 188 -46q87 -45 133 -118l-47 -35q-42 64 -115.5 102t-158.5 38q-136 0 -228 -92q-91 -91 -91 -233q0 -140 90 -231q91 -90 228 -90
q83 0 156.5 36.5t121.5 100.5l44 -36q-54 -74 -139 -116.5t-184 -42.5z" />
    <glyph glyph-name="ccircumflex" unicode="&#x109;" horiz-adv-x="595" 
d="M229 621h-64l138 155h37l138 -155h-65l-92 104zM319 -12q-119 0 -196 78q-77 80 -77 201q0 123 78 202q79 79 201 79q79 0 143.5 -37t95.5 -101l-49 -28q-27 51 -78 81t-112 30q-96 0 -157 -64q-62 -64 -62 -162t60 -161t153 -63q60 0 113.5 31t79.5 80l49 -30
q-31 -61 -98 -99q-65 -37 -144 -37z" />
    <glyph glyph-name="Cdotaccent" unicode="&#x10a;" horiz-adv-x="785" 
d="M430 808q-22 0 -37 14.5t-15 36.5t15 36.5t37 14.5q21 0 36 -14.5t15 -36.5t-15 -36.5t-36 -14.5zM430 -11q-160 0 -269 106q-110 107 -110 272q0 168 111 276q112 109 270 109q102 0 188 -46q87 -45 133 -118l-47 -35q-42 64 -115.5 102t-158.5 38q-136 0 -228 -92
q-91 -91 -91 -233q0 -140 90 -231q91 -90 228 -90q83 0 156.5 36.5t121.5 100.5l44 -36q-54 -74 -139 -116.5t-184 -42.5z" />
    <glyph glyph-name="cdotaccent" unicode="&#x10b;" horiz-adv-x="595" 
d="M321 619q-22 0 -37 14.5t-15 36.5t15 36.5t37 14.5q21 0 36 -14.5t15 -36.5t-15 -36.5t-36 -14.5zM319 -12q-119 0 -196 78q-77 80 -77 201q0 123 78 202q79 79 201 79q79 0 143.5 -37t95.5 -101l-49 -28q-27 51 -78 81t-112 30q-96 0 -157 -64q-62 -64 -62 -162t60 -161
t153 -63q60 0 113.5 31t79.5 80l49 -30q-31 -61 -98 -99q-65 -37 -144 -37z" />
    <glyph glyph-name="Ccaron" unicode="&#x10c;" horiz-adv-x="785" 
d="M415 796l-138 155h64l92 -104l92 104h65l-138 -155h-37zM430 -11q-160 0 -269 106q-110 107 -110 272q0 168 111 276q112 109 270 109q102 0 188 -46q87 -45 133 -118l-47 -35q-42 64 -115.5 102t-158.5 38q-136 0 -228 -92q-91 -91 -91 -233q0 -140 90 -231
q91 -90 228 -90q83 0 156.5 36.5t121.5 100.5l44 -36q-54 -74 -139 -116.5t-184 -42.5z" />
    <glyph glyph-name="ccaron" unicode="&#x10d;" horiz-adv-x="595" 
d="M302 622l-138 155h64l92 -104l92 104h65l-138 -155h-37zM319 -12q-119 0 -196 78q-77 80 -77 201q0 123 78 202q79 79 201 79q79 0 143.5 -37t95.5 -101l-49 -28q-27 51 -78 81t-112 30q-96 0 -157 -64q-62 -64 -62 -162t60 -161t153 -63q60 0 113.5 31t79.5 80l49 -30
q-31 -61 -98 -99q-65 -37 -144 -37z" />
    <glyph glyph-name="Dcaron" unicode="&#x10e;" horiz-adv-x="749" 
d="M316 796l-138 155h64l92 -104l92 104h65l-138 -155h-37zM347 0h-246v739h254q157 0 248 -100q92 -101 92 -271t-93 -269t-255 -99zM162 681v-623h185q134 0 209 84q76 85 76 227q0 141 -75 227q-73 85 -204 85h-191z" />
    <glyph glyph-name="dcaron" unicode="&#x10f;" horiz-adv-x="695" 
d="M642 623l56 157h70l-76 -157h-50zM523 430v325h60v-755h-60v104q-34 -56 -89 -87t-123 -31q-113 0 -190 81q-76 82 -76 200q0 119 76 199q77 81 190 81q68 0 123 -31t89 -86zM314 42q93 0 153 66t60 161q0 93 -60 158t-153 65q-92 0 -151 -65q-58 -64 -58 -160t58 -160
q59 -65 151 -65z" />
    <glyph glyph-name="Dcroat" unicode="&#x110;" horiz-adv-x="774" 
d="M126 739h254q157 0 248 -100q92 -101 92 -271t-93 -269t-255 -99h-246v343h-121v55h121v341zM187 58h185q134 0 209 84q76 85 76 227q0 141 -75 227q-73 85 -204 85h-191v-283h222v-55h-222v-285z" />
    <glyph glyph-name="dslash" unicode="&#x111;" horiz-adv-x="665" 
d="M583 655h76v-49h-76v-606h-60v104q-34 -56 -89 -87t-123 -31q-113 0 -190 81q-76 82 -76 200q0 119 76 199q77 81 190 81q68 0 123 -31t89 -86v176h-182v49h182v100h60v-100zM314 42q93 0 153 66t60 161q0 93 -60 158t-153 65q-92 0 -151 -65q-58 -64 -58 -160t58 -160
q59 -65 151 -65z" />
    <glyph glyph-name="Emacron" unicode="&#x112;" horiz-adv-x="601" 
d="M495 821l-332 -1v55h332v-54zM548 0h-447v739h445v-58h-384v-278h358v-57h-358v-288h386v-58z" />
    <glyph glyph-name="emacron" unicode="&#x113;" 
d="M157 711h302v-54l-302 -1v55zM561 291q0 -11 -3 -47h-450q7 -91 64 -145.5t153 -54.5q52 0 106 17.5t90 46.5l28 -46q-41 -32 -101.5 -53t-123.5 -21q-138 0 -208 82.5t-70 198.5q0 121 73 200t193 79q108 0 178 -70q71 -69 71 -187zM312 493q-84 0 -139.5 -53
t-64.5 -141h391q-1 88 -52.5 141t-134.5 53z" />
    <glyph glyph-name="Ebreve" unicode="&#x114;" horiz-adv-x="601" 
d="M167 952h54q1 -56 29.5 -84t78.5 -28q51 0 79.5 28t29.5 84h55q-1 -73 -45.5 -116.5t-118.5 -43.5t-117.5 43.5t-44.5 116.5zM548 0h-447v739h445v-58h-384v-278h358v-57h-358v-288h386v-58z" />
    <glyph glyph-name="ebreve" unicode="&#x115;" 
d="M153 778h54q1 -56 29.5 -84t78.5 -28q51 0 79.5 28t29.5 84h55q-1 -73 -45.5 -116.5t-118.5 -43.5t-117.5 43.5t-44.5 116.5zM561 291q0 -11 -3 -47h-450q7 -91 64 -145.5t153 -54.5q52 0 106 17.5t90 46.5l28 -46q-41 -32 -101.5 -53t-123.5 -21q-138 0 -208 82.5
t-70 198.5q0 121 73 200t193 79q108 0 178 -70q71 -69 71 -187zM312 493q-84 0 -139.5 -53t-64.5 -141h391q-1 88 -52.5 141t-134.5 53z" />
    <glyph glyph-name="Edotaccent" unicode="&#x116;" horiz-adv-x="601" 
d="M326 808q-22 0 -37 14.5t-15 36.5t15 36.5t37 14.5q21 0 36 -14.5t15 -36.5t-15 -36.5t-36 -14.5zM548 0h-447v739h445v-58h-384v-278h358v-57h-358v-288h386v-58z" />
    <glyph glyph-name="edotaccent" unicode="&#x117;" 
d="M316 619q-22 0 -37 14.5t-15 36.5t15 36.5t37 14.5q21 0 36 -14.5t15 -36.5t-15 -36.5t-36 -14.5zM561 291q0 -11 -3 -47h-450q7 -91 64 -145.5t153 -54.5q52 0 106 17.5t90 46.5l28 -46q-41 -32 -101.5 -53t-123.5 -21q-138 0 -208 82.5t-70 198.5q0 121 73 200t193 79
q108 0 178 -70q71 -69 71 -187zM312 493q-84 0 -139.5 -53t-64.5 -141h391q-1 88 -52.5 141t-134.5 53z" />
    <glyph glyph-name="Eogonek" unicode="&#x118;" horiz-adv-x="594" 
d="M539 -188l24 -41q-42 -30 -89 -30q-48 0 -78 29.5t-30 76.5q0 88 116 153h-381v739h445v-58h-384v-278h358v-57h-358v-288h386v-58h1q-60 -27 -95 -66t-35 -78q0 -27 18 -45.5t44 -18.5q29 0 58 20z" />
    <glyph glyph-name="eogonek" unicode="&#x119;" 
d="M561 291q0 -11 -3 -47h-450q7 -91 64 -145.5t153 -54.5q52 0 106 17.5t90 46.5l28 -46q-48 -39 -114 -58q-60 -27 -94.5 -65.5t-34.5 -77.5q0 -27 18 -45.5t44 -18.5q29 0 58 20l24 -41q-42 -30 -89 -30q-48 0 -78 29.5t-30 76.5q0 78 88 136h-17q-138 0 -208 82.5
t-70 198.5q0 121 73 200t193 79q108 0 178 -70q71 -69 71 -187zM312 493q-84 0 -139.5 -53t-64.5 -141h391q-1 88 -52.5 141t-134.5 53z" />
    <glyph glyph-name="Ecaron" unicode="&#x11a;" horiz-adv-x="601" 
d="M304 796l-138 155h64l92 -104l92 104h65l-138 -155h-37zM548 0h-447v739h445v-58h-384v-278h358v-57h-358v-288h386v-58z" />
    <glyph glyph-name="ecaron" unicode="&#x11b;" 
d="M470 777l-138 -155h-37l-138 155h64l92 -104l92 104h65zM561 291q0 -11 -3 -47h-450q7 -91 64 -145.5t153 -54.5q52 0 106 17.5t90 46.5l28 -46q-41 -32 -101.5 -53t-123.5 -21q-138 0 -208 82.5t-70 198.5q0 121 73 200t193 79q108 0 178 -70q71 -69 71 -187zM312 493
q-84 0 -139.5 -53t-64.5 -141h391q-1 88 -52.5 141t-134.5 53z" />
    <glyph glyph-name="Gcircumflex" unicode="&#x11c;" horiz-adv-x="819" 
d="M339 797h-64l138 155h37l138 -155h-65l-92 104zM428 -11q-164 0 -270 108q-107 109 -107 272q0 166 112 274q112 109 271 109q91 0 175 -38t133 -99l-44 -40q-45 55 -115.5 86.5t-148.5 31.5q-136 0 -229 -93q-92 -92 -92 -231t90 -231q90 -91 226 -91q156 0 275 122v173
h-295v57h354v-253q-136 -157 -335 -157z" />
    <glyph glyph-name="gcircumflex" unicode="&#x11d;" horiz-adv-x="663" 
d="M409 621l-92 104l-92 -104h-64l138 155h37l138 -155h-65zM522 439v96h60v-488q0 -127 -75 -200q-74 -74 -202 -74q-127 0 -230 76l31 48q91 -69 200 -69q100 0 158 57.5t58 155.5v69q-34 -53 -89 -82.5t-121 -29.5q-115 0 -191 79t-76 196q0 115 77 195t191 80
q66 0 120.5 -28.5t88.5 -80.5zM314 53q92 0 152 64q61 64 61 158q0 93 -61 155q-60 63 -152 63t-150 -63q-59 -64 -59 -157t59 -157q58 -63 150 -63z" />
    <glyph glyph-name="Gbreve" unicode="&#x11e;" horiz-adv-x="819" 
d="M269 951h54q1 -56 29.5 -84t78.5 -28q51 0 79.5 28t29.5 84h55q-1 -73 -45.5 -116.5t-118.5 -43.5t-117.5 43.5t-44.5 116.5zM428 -11q-164 0 -270 108q-107 109 -107 272q0 166 112 274q112 109 271 109q91 0 175 -38t133 -99l-44 -40q-45 55 -115.5 86.5t-148.5 31.5
q-136 0 -229 -93q-92 -92 -92 -231t90 -231q90 -91 226 -91q156 0 275 122v173h-295v57h354v-253q-136 -157 -335 -157z" />
    <glyph glyph-name="gbreve" unicode="&#x11f;" horiz-adv-x="663" 
d="M146 776h54q1 -56 29.5 -84t78.5 -28q51 0 79.5 28t29.5 84h55q-1 -73 -45.5 -116.5t-118.5 -43.5t-117.5 43.5t-44.5 116.5zM522 439v96h60v-488q0 -127 -75 -200q-74 -74 -202 -74q-127 0 -230 76l31 48q91 -69 200 -69q100 0 158 57.5t58 155.5v69q-34 -53 -89 -82.5
t-121 -29.5q-115 0 -191 79t-76 196q0 115 77 195t191 80q66 0 120.5 -28.5t88.5 -80.5zM314 53q92 0 152 64q61 64 61 158q0 93 -61 155q-60 63 -152 63t-150 -63q-59 -64 -59 -157t59 -157q58 -63 150 -63z" />
    <glyph glyph-name="Gdotaccent" unicode="&#x120;" horiz-adv-x="819" 
d="M435 808q-22 0 -37 14.5t-15 36.5t15 36.5t37 14.5q21 0 36 -14.5t15 -36.5t-15 -36.5t-36 -14.5zM428 -11q-164 0 -270 108q-107 109 -107 272q0 166 112 274q112 109 271 109q91 0 175 -38t133 -99l-44 -40q-45 55 -115.5 86.5t-148.5 31.5q-136 0 -229 -93
q-92 -92 -92 -231t90 -231q90 -91 226 -91q156 0 275 122v173h-295v57h354v-253q-136 -157 -335 -157z" />
    <glyph glyph-name="gdotaccent" unicode="&#x121;" horiz-adv-x="663" 
d="M316 621q-22 0 -37 14.5t-15 36.5t15 36.5t37 14.5q21 0 36 -14.5t15 -36.5t-15 -36.5t-36 -14.5zM522 439v96h60v-488q0 -127 -75 -200q-74 -74 -202 -74q-127 0 -230 76l31 48q91 -69 200 -69q100 0 158 57.5t58 155.5v69q-34 -53 -89 -82.5t-121 -29.5q-115 0 -191 79
t-76 196q0 115 77 195t191 80q66 0 120.5 -28.5t88.5 -80.5zM314 53q92 0 152 64q61 64 61 158q0 93 -61 155q-60 63 -152 63t-150 -63q-59 -64 -59 -157t59 -157q58 -63 150 -63z" />
    <glyph glyph-name="Gcommaaccent" unicode="&#x122;" horiz-adv-x="819" 
d="M409 342v57h354v-253q-136 -157 -335 -157q-164 0 -270 108q-107 109 -107 272q0 166 112 274q112 109 271 109q91 0 175 -38t133 -99l-44 -40q-45 55 -115.5 86.5t-148.5 31.5q-136 0 -229 -93q-92 -92 -92 -231t90 -231q90 -91 226 -91q156 0 275 122v173h-295z
M432 -41q23 0 38.5 -17t15.5 -42q0 -77 -106 -144l-19 28q65 46 80 85q-7 -4 -18 -4q-17 0 -30 13t-13 31q0 21 15 35.5t37 14.5z" />
    <glyph glyph-name="gcommaaccent" unicode="&#x123;" horiz-adv-x="663" 
d="M309 600q-23 0 -38.5 17t-15.5 42q0 77 106 144l19 -28q-65 -46 -80 -85q7 4 18 4q17 0 30 -13t13 -31q0 -21 -15 -35.5t-37 -14.5zM522 439v96h60v-488q0 -127 -75 -200q-74 -74 -202 -74q-127 0 -230 76l31 48q91 -69 200 -69q100 0 158 57.5t58 155.5v69
q-34 -53 -89 -82.5t-121 -29.5q-115 0 -191 79t-76 196q0 115 77 195t191 80q66 0 120.5 -28.5t88.5 -80.5zM314 53q92 0 152 64q61 64 61 158q0 93 -61 155q-60 63 -152 63t-150 -63q-59 -64 -59 -157t59 -157q58 -63 150 -63z" />
    <glyph glyph-name="Hcircumflex" unicode="&#x124;" horiz-adv-x="737" 
d="M277 795h-64l138 155h37l138 -155h-65l-92 104zM163 0h-62v739h62v-342h412v342h61v-739h-61v339h-412v-339z" />
    <glyph glyph-name="hcircumflex" unicode="&#x125;" horiz-adv-x="623" 
d="M31 796h-64l138 155h37l138 -155h-65l-92 104zM153 0h-60v755h58v-310q24 50 72.5 77t112.5 27q90 0 151 -59q61 -58 61 -167v-323h-60v313q0 84 -42.5 132t-116.5 48q-71 0 -123 -48q-53 -48 -53 -144v-301z" />
    <glyph glyph-name="Hbar" unicode="&#x126;" horiz-adv-x="754" 
d="M648 590h85v-55h-85v-535h-61v339h-412v-339h-62v535h-86v55h86v149h62v-149h412v149h61v-149zM175 397h412v138h-412v-138z" />
    <glyph glyph-name="hbar" unicode="&#x127;" horiz-adv-x="623" 
d="M336 549q90 0 151 -59q61 -58 61 -167v-323h-60v313q0 84 -42.5 132t-116.5 48q-71 0 -123 -48q-53 -48 -53 -144v-301h-60v606h-81v49h81v100h58v-100h179v-49h-179v-161q24 50 72.5 77t112.5 27z" />
    <glyph glyph-name="Itilde" unicode="&#x128;" horiz-adv-x="263" 
d="M8 822l-39 18q11 39 40.5 63.5t67.5 24.5q33 0 73 -28t63 -28q21 0 38 15.5t26 37.5l39 -17q-11 -40 -39 -64t-66 -24q-35 0 -75 27q-40 28 -61 28q-44 0 -67 -53zM109 0v739h61v-739h-61z" />
    <glyph glyph-name="itilde" unicode="&#x129;" horiz-adv-x="223" 
d="M-17 632l-37 17q11 37 38.5 60t63.5 23q32 0 69 -27q40 -26 59 -26q20 0 37 14.5t24 35.5l36 -16q-10 -37 -37 -60t-62 -23q-32 0 -70 26t-58 26q-40 0 -63 -50zM137 535v-535h-60v535h60z" />
    <glyph glyph-name="Imacron" unicode="&#x12a;" horiz-adv-x="263" 
d="M307 829l-332 -1v55h332v-54zM109 0v739h61v-739h-61z" />
    <glyph glyph-name="imacron" unicode="&#x12b;" horiz-adv-x="223" 
d="M260 658l-302 -1v55h302v-54zM137 535v-535h-60v535h60z" />
    <glyph glyph-name="Ibreve" unicode="&#x12c;" horiz-adv-x="263" 
d="M-23 950h54q1 -56 29.5 -84t78.5 -28q51 0 79.5 28t29.5 84h55q-1 -73 -45.5 -116.5t-118.5 -43.5t-117.5 43.5t-44.5 116.5zM109 0v739h61v-739h-61z" />
    <glyph glyph-name="ibreve" unicode="&#x12d;" horiz-adv-x="223" 
d="M-54 776h54q1 -56 29.5 -84t78.5 -28q51 0 79.5 28t29.5 84h55q-1 -73 -45.5 -116.5t-118.5 -43.5t-117.5 43.5t-44.5 116.5zM137 535v-535h-60v535h60z" />
    <glyph glyph-name="Iogonek" unicode="&#x12e;" horiz-adv-x="263" 
d="M160 -188l24 -41q-42 -30 -89 -30q-48 0 -78 29.5t-30 76.5q0 93 122 156v736h61v-739q-60 -27 -95 -66t-35 -78q0 -27 18 -45.5t44 -18.5q29 0 58 20z" />
    <glyph glyph-name="iogonek" unicode="&#x12f;" horiz-adv-x="223" 
d="M110 619q-22 0 -37 14.5t-15 36.5t15 36.5t37 14.5q21 0 36 -14.5t15 -36.5t-15 -36.5t-36 -14.5zM71 -208q29 0 58 20l24 -41q-42 -30 -89 -30q-48 0 -78 29.5t-30 76.5q0 93 122 156v532h60v-535h1q-60 -27 -95 -66t-35 -78q0 -27 18 -45.5t44 -18.5z" />
    <glyph glyph-name="Idot" unicode="&#x130;" horiz-adv-x="263" 
d="M143 807q-22 0 -37 14.5t-15 36.5t15 36.5t37 14.5q21 0 36 -14.5t15 -36.5t-15 -36.5t-36 -14.5zM111 0v739h61v-739h-61z" />
    <glyph glyph-name="dotlessi" unicode="&#x131;" horiz-adv-x="223" 
d="M141 535v-535h-60v535h60z" />
    <glyph glyph-name="IJ" unicode="&#x132;" horiz-adv-x="790" 
d="M101 0v739h61v-739h-61zM476 -12q-127 0 -208 98l41 43q64 -83 167 -83q74 0 120 49t46 132v512h62v-508q0 -118 -64 -181q-65 -62 -164 -62z" />
    <glyph glyph-name="ij" unicode="&#x133;" horiz-adv-x="492" 
d="M109 619q-22 0 -37 14.5t-15 36.5t15 36.5t37 14.5q21 0 36 -14.5t15 -36.5t-15 -36.5t-36 -14.5zM366 619q-22 0 -37 14.5t-15 36.5t15 36.5t37 14.5q21 0 36 -14.5t15 -36.5t-15 -36.5t-36 -14.5zM137 535v-535h-60v535h60zM237 -228q-57 0 -95 23l15 51q44 -19 76 -19
q50 0 76 31t26 89v588h60v-584q0 -86 -42 -132.5t-116 -46.5z" />
    <glyph glyph-name="Jcircumflex" unicode="&#x134;" horiz-adv-x="543" 
d="M334 795h-64l138 155h37l138 -155h-65l-92 104zM229 -12q-127 0 -208 98l41 43q64 -83 167 -83q74 0 120 49t46 132v512h62v-508q0 -118 -64 -181q-65 -62 -164 -62z" />
    <glyph glyph-name="jcircumflex" unicode="&#x135;" horiz-adv-x="247" 
d="M42 619h-64l138 155h37l138 -155h-65l-92 104zM7 -228q-57 0 -95 23l15 51q44 -19 76 -19q50 0 76 31t26 89v588h60v-584q0 -86 -42 -132.5t-116 -46.5z" />
    <glyph glyph-name="Kcommaaccent" unicode="&#x136;" horiz-adv-x="625" 
d="M605 739l-296 -349l324 -390h-78l-287 346l-106 -124v-222h-61v739h61v-432l369 432h74zM351 -25q23 0 38.5 -17t15.5 -42q0 -77 -106 -144l-19 28q65 46 80 85q-7 -4 -18 -4q-17 0 -30 13t-13 31q0 21 15 35.5t37 14.5z" />
    <glyph glyph-name="kcommaaccent" unicode="&#x137;" horiz-adv-x="508" 
d="M489 535l-243 -218l266 -317h-78l-230 279l-63 -56v-223h-60v755h60v-459l267 239h81zM276 -28q23 0 38.5 -17t15.5 -42q0 -77 -106 -144l-19 28q65 46 80 85q-7 -4 -18 -4q-17 0 -30 13t-13 31q0 21 15 35.5t37 14.5z" />
    <glyph glyph-name="kgreenlandic" unicode="&#x138;" horiz-adv-x="507" 
d="M511 0h-77l-224 266l-69 -65v-201h-60v535h60v-262l267 262h81l-238 -229z" />
    <glyph glyph-name="Lacute" unicode="&#x139;" horiz-adv-x="594" 
d="M162 796h-51l59 160h77zM580 0h-474v739h61v-680h413v-59z" />
    <glyph glyph-name="lacute" unicode="&#x13a;" horiz-adv-x="219" 
d="M142 797h-51l59 160h77zM145 755v-755h-60v755h60z" />
    <glyph glyph-name="Lcommaaccent" unicode="&#x13b;" horiz-adv-x="589" 
d="M162 739v-680h413v-59h-474v739h61zM339 -34q23 0 38.5 -17t15.5 -42q0 -77 -106 -144l-19 28q65 46 80 85q-7 -4 -18 -4q-17 0 -30 13t-13 31q0 21 15 35.5t37 14.5z" />
    <glyph glyph-name="lcommaaccent" unicode="&#x13c;" horiz-adv-x="223" 
d="M88 755h60v-755h-60v755zM119 -42q23 0 38.5 -17t15.5 -42q0 -77 -106 -144l-19 28q65 46 80 85q-7 -4 -18 -4q-17 0 -30 13t-13 31q0 21 15 35.5t37 14.5z" />
    <glyph glyph-name="Lcaron" unicode="&#x13d;" horiz-adv-x="593" 
d="M468 618h-50l56 157h70zM575 0h-474v739h61v-680h413v-59z" />
    <glyph glyph-name="lcaron" unicode="&#x13e;" horiz-adv-x="245" 
d="M247 625h-50l56 157h70zM141 755v-755h-60v755h60z" />
    <glyph glyph-name="Ldot" unicode="&#x13f;" horiz-adv-x="591" 
d="M575 0h-474v739h61v-680h413v-59zM429 341q-21 0 -35 14t-14 34t14 33.5t35 13.5q20 0 34 -13.5t14 -33.5q0 -21 -14 -34.5t-34 -13.5z" />
    <glyph glyph-name="ldot" unicode="&#x140;" horiz-adv-x="300" 
d="M141 755v-755h-60v755h60zM260 309q-21 0 -35 14t-14 34t14 33.5t35 13.5q20 0 34 -13.5t14 -33.5q0 -21 -14 -34.5t-34 -13.5z" />
    <glyph glyph-name="Lslash" unicode="&#x141;" horiz-adv-x="602" 
d="M175 345v-286h413v-59h-474v303l-87 -60v63l87 61v372h61v-330l128 89v-64z" />
    <glyph glyph-name="lslash" unicode="&#x142;" horiz-adv-x="284" 
d="M177 433l75 59v-67l-75 -59v-366h-60v319l-70 -55v66l70 55v370h60v-322z" />
    <glyph glyph-name="Nacute" unicode="&#x143;" horiz-adv-x="770" 
d="M408 796h-51l59 160h77zM608 132v607h61v-739h-32l-475 601v-601h-61v739h27z" />
    <glyph glyph-name="nacute" unicode="&#x144;" horiz-adv-x="612" 
d="M328 621h-51l59 160h77zM141 0h-60v535h58v-94q49 108 186 108q89 0 151 -59q61 -58 61 -167v-323h-60v312q0 84 -42.5 132.5t-116.5 48.5q-71 0 -124 -49q-53 -48 -53 -144v-300z" />
    <glyph glyph-name="Ncommaaccent" unicode="&#x145;" horiz-adv-x="770" 
d="M608 132v607h61v-739h-32l-475 601v-601h-61v739h27zM394 -32q23 0 38.5 -17t15.5 -42q0 -77 -106 -144l-19 28q65 46 80 85q-7 -4 -18 -4q-17 0 -30 13t-13 31q0 21 15 35.5t37 14.5z" />
    <glyph glyph-name="ncommaaccent" unicode="&#x146;" horiz-adv-x="612" 
d="M325 549q89 0 151 -59q61 -58 61 -167v-323h-60v312q0 84 -42.5 132.5t-116.5 48.5q-71 0 -124 -49q-53 -48 -53 -144v-300h-60v535h58v-94q49 108 186 108zM316 -33q23 0 38.5 -17t15.5 -42q0 -77 -106 -144l-19 28q65 46 80 85q-7 -4 -18 -4q-17 0 -30 13t-13 31
q0 21 15 35.5t37 14.5z" />
    <glyph glyph-name="Ncaron" unicode="&#x147;" horiz-adv-x="770" 
d="M376 796l-138 155h64l92 -104l92 104h65l-138 -155h-37zM608 132v607h61v-739h-32l-475 601v-601h-61v739h27z" />
    <glyph glyph-name="ncaron" unicode="&#x148;" horiz-adv-x="612" 
d="M293 621l-138 155h64l92 -104l92 104h65l-138 -155h-37zM141 0h-60v535h58v-94q49 108 186 108q89 0 151 -59q61 -58 61 -167v-323h-60v312q0 84 -42.5 132.5t-116.5 48.5q-71 0 -124 -49q-53 -48 -53 -144v-300z" />
    <glyph glyph-name="napostrophe" unicode="&#x149;" horiz-adv-x="628" 
d="M26 625h-50l56 157h70zM158 0h-60v535h58v-94q49 108 186 108q89 0 151 -59q61 -58 61 -167v-323h-60v312q0 84 -42.5 132.5t-116.5 48.5q-71 0 -124 -49q-53 -48 -53 -144v-300z" />
    <glyph glyph-name="Eng" unicode="&#x14a;" horiz-adv-x="770" 
d="M608 126v613h61v-757q0 -109 -62 -171t-156 -62q-77 0 -151 44l26 51q59 -37 126 -37q70 0 113 47t43 127v50l-446 571v-602h-61v739h27z" />
    <glyph glyph-name="eng" unicode="&#x14b;" horiz-adv-x="599" 
d="M319 -225l4 55q142 -15 142 137v356q0 78 -42 124t-111 46q-67 0 -119 -46t-52 -141v-306h-60v535h58v-85q24 46 71.5 72.5t106.5 26.5q89 0 148 -58q60 -57 60 -162v-349q0 -228 -206 -205z" />
    <glyph glyph-name="Omacron" unicode="&#x14c;" horiz-adv-x="860" 
d="M594 821l-332 -1v55h332v-54zM428 -12q-158 0 -268 111q-110 112 -110 269q0 158 111 271t269 113q157 0 268 -112q112 -112 112 -270t-112 -270q-111 -112 -270 -112zM430 47q134 0 225 93q92 95 92 229q0 135 -92 230q-91 94 -225 94q-133 0 -226 -95q-92 -95 -92 -229
t92 -229q91 -93 226 -93z" />
    <glyph glyph-name="omacron" unicode="&#x14d;" horiz-adv-x="646" 
d="M474 657l-302 -1v55h302v-54zM45 268q0 119 79 199q80 81 199 81t199 -81q79 -80 79 -199q0 -120 -79 -200q-80 -81 -199 -81t-199 81q-79 80 -79 200zM323 42q94 0 156 65q62 67 62 161q0 95 -62 160t-156 65q-93 0 -156 -66q-62 -65 -62 -159t62 -161q63 -65 156 -65z
" />
    <glyph glyph-name="Obreve" unicode="&#x14e;" horiz-adv-x="860" 
d="M268 949h54q1 -56 29.5 -84t78.5 -28q51 0 79.5 28t29.5 84h55q-1 -73 -45.5 -116.5t-118.5 -43.5t-117.5 43.5t-44.5 116.5zM428 -12q-158 0 -268 111q-110 112 -110 269q0 158 111 271t269 113q157 0 268 -112q112 -112 112 -270t-112 -270q-111 -112 -270 -112z
M430 47q134 0 225 93q92 95 92 229q0 135 -92 230q-91 94 -225 94q-133 0 -226 -95q-92 -95 -92 -229t92 -229q91 -93 226 -93z" />
    <glyph glyph-name="obreve" unicode="&#x14f;" horiz-adv-x="646" 
d="M163 776h54q1 -56 29.5 -84t78.5 -28q51 0 79.5 28t29.5 84h55q-1 -73 -45.5 -116.5t-118.5 -43.5t-117.5 43.5t-44.5 116.5zM45 268q0 119 79 199q80 81 199 81t199 -81q79 -80 79 -199q0 -120 -79 -200q-80 -81 -199 -81t-199 81q-79 80 -79 200zM323 42q94 0 156 65
q62 67 62 161q0 95 -62 160t-156 65q-93 0 -156 -66q-62 -65 -62 -159t62 -161q63 -65 156 -65z" />
    <glyph glyph-name="Ohungarumlaut" unicode="&#x150;" horiz-adv-x="860" 
d="M372 795h-45l45 160h76zM526 795h-46l58 160h76zM428 -12q-158 0 -268 111q-110 112 -110 269q0 158 111 271t269 113q157 0 268 -112q112 -112 112 -270t-112 -270q-111 -112 -270 -112zM430 47q134 0 225 93q92 95 92 229q0 135 -92 230q-91 94 -225 94
q-133 0 -226 -95q-92 -95 -92 -229t92 -229q91 -93 226 -93z" />
    <glyph glyph-name="ohungarumlaut" unicode="&#x151;" horiz-adv-x="646" 
d="M269 620h-45l45 160h76zM423 620h-46l58 160h76zM45 268q0 119 79 199q80 81 199 81t199 -81q79 -80 79 -199q0 -120 -79 -200q-80 -81 -199 -81t-199 81q-79 80 -79 200zM323 42q94 0 156 65q62 67 62 161q0 95 -62 160t-156 65q-93 0 -156 -66q-62 -65 -62 -159
t62 -161q63 -65 156 -65z" />
    <glyph glyph-name="OE" unicode="&#x152;" horiz-adv-x="970" 
d="M531 346v-288h386v-58h-443q-46 -2 -48 -2q-189 0 -280 100t-91 270t89 271q90 102 273 102q5 0 47 -2h451v-58h-384v-278h358v-57h-358zM419 56q9 0 51 2v623q-42 2 -51 2q-81 0 -141.5 -25t-94 -70t-49.5 -99t-16 -119q0 -66 15.5 -120t49.5 -99t94 -70t142 -25z" />
    <glyph glyph-name="oe" unicode="&#x153;" horiz-adv-x="1068" 
d="M1024 291q0 -11 -3 -47h-435q7 -92 62 -146t148 -54q51 0 102.5 17.5t87.5 46.5l27 -46q-40 -32 -98.5 -53t-119.5 -21q-175 0 -242 147q-33 -69 -95.5 -108t-142.5 -39q-117 0 -193 81q-77 82 -77 200q0 116 77 198q76 82 193 82q78 0 141.5 -39.5t96.5 -107.5
q31 69 91 107.5t140 38.5q105 0 172 -70q68 -70 68 -187zM784 493q-81 0 -135 -53t-63 -141h378q-1 88 -50.5 141t-129.5 53zM524 269q0 93 -60 158t-149 65t-149 -65t-60 -158q0 -95 60 -160t149 -65t149 65t60 160z" />
    <glyph glyph-name="Racute" unicode="&#x154;" horiz-adv-x="619" 
d="M322 956h77l-85 -160h-51zM573 0h-74l-189 312h-148v-312h-61v739h223q113 0 173 -64q61 -62 61 -150q0 -75 -48 -133q-46 -57 -135 -74zM325 681h-163v-311h148q88 0 136.5 43t48.5 114q0 69 -46 111.5t-124 42.5z" />
    <glyph glyph-name="racute" unicode="&#x155;" horiz-adv-x="371" 
d="M229 621h-51l59 160h77zM141 0h-60v535h57v-86q43 100 155 100q31 0 66 -9l-7 -57q-28 9 -57 9q-72 0 -113 -51.5t-41 -135.5v-305z" />
    <glyph glyph-name="Rcommaaccent" unicode="&#x156;" horiz-adv-x="619" 
d="M375 318l198 -318h-74l-189 312h-148v-312h-61v739h223q113 0 173 -64q61 -62 61 -150q0 -75 -48 -133q-46 -57 -135 -74zM325 681h-163v-311h148q88 0 136.5 43t48.5 114q0 69 -46 111.5t-124 42.5zM322 -26q23 0 38.5 -17t15.5 -42q0 -77 -106 -144l-19 28q65 46 80 85
q-7 -4 -18 -4q-17 0 -30 13t-13 31q0 21 15 35.5t37 14.5z" />
    <glyph glyph-name="rcommaaccent" unicode="&#x157;" horiz-adv-x="378" 
d="M299 549q31 0 66 -9l-7 -57q-28 9 -57 9q-72 0 -113 -51.5t-41 -135.5v-305h-60v535h57v-86q43 100 155 100zM119 -39q23 0 38.5 -17t15.5 -42q0 -77 -106 -144l-19 28q65 46 80 85q-7 -4 -18 -4q-17 0 -30 13t-13 31q0 21 15 35.5t37 14.5z" />
    <glyph glyph-name="Rcaron" unicode="&#x158;" horiz-adv-x="619" 
d="M459 951l-138 -155h-37l-138 155h64l92 -104l92 104h65zM573 0h-74l-189 312h-148v-312h-61v739h223q113 0 173 -64q61 -62 61 -150q0 -75 -48 -133q-46 -57 -135 -74zM325 681h-163v-311h148q88 0 136.5 43t48.5 114q0 69 -46 111.5t-124 42.5z" />
    <glyph glyph-name="rcaron" unicode="&#x159;" horiz-adv-x="375" 
d="M194 621l-138 155h64l92 -104l92 104h65l-138 -155h-37zM147 0h-60v535h57v-86q43 100 155 100q31 0 66 -9l-7 -57q-28 9 -57 9q-72 0 -113 -51.5t-41 -135.5v-305z" />
    <glyph glyph-name="Sacute" unicode="&#x15a;" horiz-adv-x="551" 
d="M297 795h-51l59 160h77zM275 -12q-80 0 -145 40t-98 114l49 33q28 -61 77.5 -95t114.5 -34q75 0 122 41t47 102q0 42 -24 71.5t-73 54.5q-32 16 -76 35q-56 25 -73 34q-126 63 -126 176q0 83 58 137q58 55 154 55q132 0 209 -110l-46 -37q-63 90 -162 90
q-66 0 -107.5 -36.5t-41.5 -95.5q0 -76 89 -123q25 -13 81 -38q62 -27 84 -39q119 -65 119 -172q0 -90 -67 -147q-67 -56 -165 -56z" />
    <glyph glyph-name="sacute" unicode="&#x15b;" horiz-adv-x="442" 
d="M244 621h-51l59 160h77zM220 -12q-61 0 -111 29.5t-78 87.5l48 30q47 -93 141 -93q53 0 87.5 29.5t34.5 71.5q0 52 -68 87q-20 10 -64 27q-51 21 -64 29q-85 43 -85 125q0 62 45 102t119 40q110 0 161 -84l-42 -34q-38 65 -120 65q-49 0 -77 -24t-28 -63q0 -53 58 -81
l60 -26q56 -23 71 -31q94 -45 94 -128q0 -66 -51 -113q-50 -46 -131 -46z" />
    <glyph glyph-name="Scircumflex" unicode="&#x15c;" horiz-adv-x="551" 
d="M196 794h-64l138 155h37l138 -155h-65l-92 104zM275 -12q-80 0 -145 40t-98 114l49 33q28 -61 77.5 -95t114.5 -34q75 0 122 41t47 102q0 42 -24 71.5t-73 54.5q-32 16 -76 35q-56 25 -73 34q-126 63 -126 176q0 83 58 137q58 55 154 55q132 0 209 -110l-46 -37
q-63 90 -162 90q-66 0 -107.5 -36.5t-41.5 -95.5q0 -76 89 -123q25 -13 81 -38q62 -27 84 -39q119 -65 119 -172q0 -90 -67 -147q-67 -56 -165 -56z" />
    <glyph glyph-name="scircumflex" unicode="&#x15d;" horiz-adv-x="442" 
d="M131 621h-64l138 155h37l138 -155h-65l-92 104zM220 -12q-61 0 -111 29.5t-78 87.5l48 30q47 -93 141 -93q53 0 87.5 29.5t34.5 71.5q0 52 -68 87q-20 10 -64 27q-51 21 -64 29q-85 43 -85 125q0 62 45 102t119 40q110 0 161 -84l-42 -34q-38 65 -120 65q-49 0 -77 -24
t-28 -63q0 -53 58 -81l60 -26q56 -23 71 -31q94 -45 94 -128q0 -66 -51 -113q-50 -46 -131 -46z" />
    <glyph glyph-name="Scedilla" unicode="&#x15e;" horiz-adv-x="551" 
d="M507 191q0 -87 -63 -143q-63 -55 -158 -60l-23 -57q24 2 27 2q43 0 70 -23t27 -63q0 -46 -34.5 -76.5t-92.5 -30.5q-50 0 -102 24l17 42q43 -20 82 -20q35 0 57 18t22 43q0 21 -15.5 34t-45.5 13h-60l-8 17l30 79q-68 9 -122 48t-83 104l49 33q28 -61 77.5 -95t114.5 -34
q75 0 122 41t47 102q0 42 -24 71.5t-73 54.5q-32 16 -76 35q-56 25 -73 34q-126 63 -126 176q0 83 58 137q58 55 154 55q132 0 209 -110l-46 -37q-63 90 -162 90q-66 0 -107.5 -36.5t-41.5 -95.5q0 -76 89 -123q25 -13 81 -38q62 -27 84 -39q119 -65 119 -172z" />
    <glyph glyph-name="scedilla" unicode="&#x15f;" horiz-adv-x="442" 
d="M402 147q0 -64 -50 -111q-50 -46 -126 -48l-19 -46q24 2 27 2q43 0 70 -23t27 -63q0 -46 -34.5 -76.5t-92.5 -30.5q-50 0 -102 24l17 42q43 -20 82 -20q35 0 57 18t22 43q0 21 -15.5 34t-45.5 13h-60l-8 17l27 70q-101 20 -147 113l48 30q47 -93 141 -93q53 0 87.5 29.5
t34.5 71.5q0 52 -68 87q-20 10 -64 27q-51 21 -64 29q-85 43 -85 125q0 62 45 102t119 40q110 0 161 -84l-42 -34q-38 65 -120 65q-49 0 -77 -24t-28 -63q0 -53 58 -81l60 -26q56 -23 71 -31q94 -45 94 -128z" />
    <glyph glyph-name="Scaron" unicode="&#x160;" horiz-adv-x="551" 
d="M276 795l-138 155h64l92 -104l92 104h65l-138 -155h-37zM275 -12q-80 0 -145 40t-98 114l49 33q28 -61 77.5 -95t114.5 -34q75 0 122 41t47 102q0 42 -24 71.5t-73 54.5q-32 16 -76 35q-56 25 -73 34q-126 63 -126 176q0 83 58 137q58 55 154 55q132 0 209 -110l-46 -37
q-63 90 -162 90q-66 0 -107.5 -36.5t-41.5 -95.5q0 -76 89 -123q25 -13 81 -38q62 -27 84 -39q119 -65 119 -172q0 -90 -67 -147q-67 -56 -165 -56z" />
    <glyph glyph-name="scaron" unicode="&#x161;" horiz-adv-x="442" 
d="M205 621l-138 155h64l92 -104l92 104h65l-138 -155h-37zM220 -12q-61 0 -111 29.5t-78 87.5l48 30q47 -93 141 -93q53 0 87.5 29.5t34.5 71.5q0 52 -68 87q-20 10 -64 27q-51 21 -64 29q-85 43 -85 125q0 62 45 102t119 40q110 0 161 -84l-42 -34q-38 65 -120 65
q-49 0 -77 -24t-28 -63q0 -53 58 -81l60 -26q56 -23 71 -31q94 -45 94 -128q0 -66 -51 -113q-50 -46 -131 -46z" />
    <glyph glyph-name="Tcaron" unicode="&#x164;" horiz-adv-x="539" 
d="M252 796l-138 155h64l92 -104l92 104h65l-138 -155h-37zM239 0v680h-224v59h509v-59h-224v-680h-61z" />
    <glyph glyph-name="tcaron" unicode="&#x165;" horiz-adv-x="418" 
d="M387 781h70l-76 -157h-50zM274 43q62 0 112 37l25 -46q-58 -46 -142 -46q-79 0 -120 49t-41 138v307h-95v53h96v189h59v-189h220v-53h-220v-309q0 -130 106 -130z" />
    <glyph glyph-name="Tbar" unicode="&#x166;" horiz-adv-x="574" 
d="M542 739v-59h-224v-255h172v-55h-172v-370h-61v370h-171v55h171v255h-224v59h509z" />
    <glyph glyph-name="tbar" unicode="&#x167;" horiz-adv-x="422" 
d="M392 80l25 -46q-58 -46 -142 -46q-79 0 -120 49t-41 138v121h-94v54h94v132h-95v53h96v189h59v-189h220v-53h-220v-132h218v-54h-218v-123q0 -130 106 -130q62 0 112 37z" />
    <glyph glyph-name="Utilde" unicode="&#x168;" horiz-adv-x="685" 
d="M212 810l-39 18q11 39 40.5 63.5t67.5 24.5q34 0 74 -28t62 -28q21 0 38 15.5t26 37.5l39 -17q-11 -40 -39 -64t-66 -24q-35 0 -75 27q-40 28 -61 28q-44 0 -67 -53zM93 240v499h61v-489q0 -96 49.5 -149t139.5 -53q89 0 138.5 53.5t49.5 148.5v489h61v-499
q0 -118 -68 -186q-67 -67 -181 -67t-182 67q-68 68 -68 186z" />
    <glyph glyph-name="utilde" unicode="&#x169;" horiz-adv-x="585" 
d="M166 630l-37 17q11 37 38.5 60t63.5 23q31 0 69 -27q40 -26 59 -26q20 0 37 14.5t24 35.5l36 -16q-10 -37 -37 -60t-62 -23q-32 0 -70 26t-58 26q-40 0 -63 -50zM292 -13q-99 0 -159 60q-59 62 -59 162v326h60v-325q0 -77 42.5 -122t115.5 -45q75 0 117 45t42 123v324h60
v-326q0 -102 -58.5 -162t-160.5 -60z" />
    <glyph glyph-name="Umacron" unicode="&#x16a;" horiz-adv-x="685" 
d="M502 821l-332 -1v55h332v-54zM93 240v499h61v-489q0 -96 49.5 -149t139.5 -53q89 0 138.5 53.5t49.5 148.5v489h61v-499q0 -118 -68 -186q-67 -67 -181 -67t-182 67q-68 68 -68 186z" />
    <glyph glyph-name="umacron" unicode="&#x16b;" horiz-adv-x="585" 
d="M444 651l-302 -1v55h302v-54zM292 -13q-99 0 -159 60q-59 62 -59 162v326h60v-325q0 -77 42.5 -122t115.5 -45q75 0 117 45t42 123v324h60v-326q0 -102 -58.5 -162t-160.5 -60z" />
    <glyph glyph-name="Ubreve" unicode="&#x16c;" horiz-adv-x="685" 
d="M179 949h54q1 -56 29.5 -84t78.5 -28q51 0 79.5 28t29.5 84h55q-1 -73 -45.5 -116.5t-118.5 -43.5t-117.5 43.5t-44.5 116.5zM93 240v499h61v-489q0 -96 49.5 -149t139.5 -53q89 0 138.5 53.5t49.5 148.5v489h61v-499q0 -118 -68 -186q-67 -67 -181 -67t-182 67
q-68 68 -68 186z" />
    <glyph glyph-name="ubreve" unicode="&#x16d;" horiz-adv-x="585" 
d="M130 775h54q1 -56 29.5 -84t78.5 -28q51 0 79.5 28t29.5 84h55q-1 -73 -45.5 -116.5t-118.5 -43.5t-117.5 43.5t-44.5 116.5zM292 -13q-99 0 -159 60q-59 62 -59 162v326h60v-325q0 -77 42.5 -122t115.5 -45q75 0 117 45t42 123v324h60v-326q0 -102 -58.5 -162
t-160.5 -60z" />
    <glyph glyph-name="Uring" unicode="&#x16e;" horiz-adv-x="685" 
d="M343 786q-46 0 -78.5 31.5t-32.5 76.5q0 46 32.5 78t78.5 32q47 0 79 -32q33 -32 33 -78q0 -45 -32.5 -76.5t-79.5 -31.5zM294 846q20 -20 49 -20t49 20q21 20 21 49t-21 49q-20 20 -49 20t-49 -20t-20 -49t20 -49zM93 240v499h61v-489q0 -96 49.5 -149t139.5 -53
q89 0 138.5 53.5t49.5 148.5v489h61v-499q0 -118 -68 -186q-67 -67 -181 -67t-182 67q-68 68 -68 186z" />
    <glyph glyph-name="uring" unicode="&#x16f;" horiz-adv-x="585" 
d="M292 591q-46 0 -78.5 31.5t-32.5 76.5q0 46 32.5 78t78.5 32q47 0 79 -32q33 -31 33 -78q0 -45 -32.5 -76.5t-79.5 -31.5zM243 651q20 -20 49 -20t49 20q21 20 21 49t-21 49q-20 20 -49 20t-49 -20t-20 -49t20 -49zM292 -13q-99 0 -159 60q-59 62 -59 162v326h60v-325
q0 -77 42.5 -122t115.5 -45q75 0 117 45t42 123v324h60v-326q0 -102 -58.5 -162t-160.5 -60z" />
    <glyph glyph-name="Uhungarumlaut" unicode="&#x170;" horiz-adv-x="685" 
d="M276 795h-45l45 160h76zM430 795h-46l58 160h76zM93 240v499h61v-489q0 -96 49.5 -149t139.5 -53q89 0 138.5 53.5t49.5 148.5v489h61v-499q0 -118 -68 -186q-67 -67 -181 -67t-182 67q-68 68 -68 186z" />
    <glyph glyph-name="uhungarumlaut" unicode="&#x171;" horiz-adv-x="585" 
d="M226 620h-45l45 160h76zM380 620h-46l58 160h76zM292 -13q-99 0 -159 60q-59 62 -59 162v326h60v-325q0 -77 42.5 -122t115.5 -45q75 0 117 45t42 123v324h60v-326q0 -102 -58.5 -162t-160.5 -60z" />
    <glyph glyph-name="Uogonek" unicode="&#x172;" horiz-adv-x="685" 
d="M531 250v489h61v-499q0 -89 -39.5 -150.5t-111.5 -86.5q-57 -27 -90 -65.5t-33 -75.5q0 -27 18 -45.5t44 -18.5q29 0 58 20l24 -41q-42 -30 -89 -30q-48 0 -78 29.5t-30 76.5q0 76 85 134h-7q-114 0 -182 67q-68 68 -68 186v499h61v-489q0 -96 49.5 -149t139.5 -53
q89 0 138.5 53.5t49.5 148.5z" />
    <glyph glyph-name="uogonek" unicode="&#x173;" horiz-adv-x="585" 
d="M451 211v324h60v-326q0 -78 -34 -131.5t-97 -76.5q-60 -27 -95 -66t-35 -78q0 -27 18 -45.5t44 -18.5q29 0 58 20l24 -41q-42 -30 -89 -30q-48 0 -78 29.5t-30 76.5q0 79 92 139q-99 2 -157 61q-58 61 -58 161v326h60v-325q0 -77 42.5 -122t115.5 -45q75 0 117 45t42 123
z" />
    <glyph glyph-name="Wcircumflex" unicode="&#x174;" horiz-adv-x="1010" 
d="M413 795h-64l138 155h37l138 -155h-65l-92 104zM293 0h-30l-247 739h62l201 -618l212 618h27l215 -617l199 617h61l-245 -739h-30l-213 622z" />
    <glyph glyph-name="wcircumflex" unicode="&#x175;" horiz-adv-x="814" 
d="M315 621h-64l138 155h37l138 -155h-65l-92 104zM246 1h-42l-188 534h62l149 -440l160 440l40 -1l162 -439l146 440h63l-187 -534h-42l-162 449z" />
    <glyph glyph-name="Ycircumflex" unicode="&#x176;" horiz-adv-x="602" 
d="M209 795h-64l138 155h37l138 -155h-65l-92 104zM514 739h67l-250 -446v-293h-61v293l-248 446h67l212 -389z" />
    <glyph glyph-name="ycircumflex" unicode="&#x177;" horiz-adv-x="531" 
d="M362 619l-92 104l-92 -104h-64l138 155h37l138 -155h-65zM274 78l175 457h66l-226 -575q-40 -102 -81 -144.5t-102 -42.5q-43 0 -77 19l9 53q35 -16 66 -16q41 0 71 33.5t57 103.5l13 34l-228 535h66z" />
    <glyph glyph-name="Ydieresis" unicode="&#x178;" horiz-adv-x="602" 
d="M162 862q0 20 15 35.5t37 15.5t37 -15t15 -36q0 -23 -15 -38t-37 -15t-37 15.5t-15 37.5zM338 862q0 21 15 36t37 15t37.5 -15t15.5 -36q0 -22 -15.5 -37.5t-37.5 -15.5t-37 15t-15 38zM514 739h67l-250 -446v-293h-61v293l-248 446h67l212 -389z" />
    <glyph glyph-name="Zacute" unicode="&#x179;" horiz-adv-x="577" 
d="M320 796h-51l59 160h77zM546 0h-520v37l430 644h-411v58h490v-46l-421 -635h432v-58z" />
    <glyph glyph-name="zacute" unicode="&#x17a;" horiz-adv-x="477" 
d="M255 621h-51l59 160h77zM432 491l-326 -438h341v-53h-419v41l330 440h-312v53h386v-43z" />
    <glyph glyph-name="Zdotaccent" unicode="&#x17b;" horiz-adv-x="577" 
d="M296 808q-22 0 -37 14.5t-15 36.5t15 36.5t37 14.5q21 0 36 -14.5t15 -36.5t-15 -36.5t-36 -14.5zM546 0h-520v37l430 644h-411v58h490v-46l-421 -635h432v-58z" />
    <glyph glyph-name="zdotaccent" unicode="&#x17c;" horiz-adv-x="477" 
d="M247 618q-22 0 -37 14.5t-15 36.5t15 36.5t37 14.5q21 0 36 -14.5t15 -36.5t-15 -36.5t-36 -14.5zM432 491l-326 -438h341v-53h-419v41l330 440h-312v53h386v-43z" />
    <glyph glyph-name="Zcaron" unicode="&#x17d;" horiz-adv-x="577" 
d="M281 796l-138 155h64l92 -104l92 104h65l-138 -155h-37zM546 0h-520v37l430 644h-411v58h490v-46l-421 -635h432v-58z" />
    <glyph glyph-name="zcaron" unicode="&#x17e;" horiz-adv-x="477" 
d="M221 621l-138 155h64l92 -104l92 104h65l-138 -155h-37zM432 491l-326 -438h341v-53h-419v41l330 440h-312v53h386v-43z" />
    <glyph glyph-name="Scommaaccent" unicode="&#x218;" horiz-adv-x="551" 
d="M388 363q119 -65 119 -172q0 -90 -67 -147q-67 -56 -165 -56q-80 0 -145 40t-98 114l49 33q28 -61 77.5 -95t114.5 -34q75 0 122 41t47 102q0 42 -24 71.5t-73 54.5q-32 16 -76 35q-56 25 -73 34q-126 63 -126 176q0 83 58 137q58 55 154 55q132 0 209 -110l-46 -37
q-63 90 -162 90q-66 0 -107.5 -36.5t-41.5 -95.5q0 -76 89 -123q25 -13 81 -38q62 -27 84 -39zM277 -50q23 0 38.5 -17t15.5 -42q0 -77 -106 -144l-19 28q65 46 80 85q-7 -4 -18 -4q-17 0 -30 13t-13 31q0 21 15 35.5t37 14.5z" />
    <glyph glyph-name="scommaaccent" unicode="&#x219;" horiz-adv-x="442" 
d="M308 275q94 -45 94 -128q0 -66 -51 -113q-50 -46 -131 -46q-61 0 -111 29.5t-78 87.5l48 30q47 -93 141 -93q53 0 87.5 29.5t34.5 71.5q0 52 -68 87q-20 10 -64 27q-51 21 -64 29q-85 43 -85 125q0 62 45 102t119 40q110 0 161 -84l-42 -34q-38 65 -120 65q-49 0 -77 -24
t-28 -63q0 -53 58 -81l60 -26q56 -23 71 -31zM221 -50q23 0 38.5 -17t15.5 -42q0 -77 -106 -144l-19 28q65 46 80 85q-7 -4 -18 -4q-17 0 -30 13t-13 31q0 21 15 35.5t37 14.5z" />
    <glyph glyph-name="uni021A" unicode="&#x21a;" horiz-adv-x="539" 
d="M15 680v59h509v-59h-224v-680h-61v680h-224zM270 -33q23 0 38.5 -17t15.5 -42q0 -77 -106 -144l-19 28q65 46 80 85q-7 -4 -18 -4q-17 0 -30 13t-13 31q0 21 15 35.5t37 14.5z" />
    <glyph glyph-name="uni021B" unicode="&#x21b;" horiz-adv-x="414" 
d="M386 80l25 -46q-58 -46 -142 -46q-79 0 -120 49t-41 138v307h-95v53h96v189h59v-189h220v-53h-220v-309q0 -130 106 -130q62 0 112 37zM261 -60q23 0 38.5 -17t15.5 -42q0 -77 -106 -144l-19 28q65 46 80 85q-7 -4 -18 -4q-17 0 -30 13t-13 31q0 21 15 35.5t37 14.5z" />
    <glyph glyph-name="uni0237" unicode="&#x237;" horiz-adv-x="247" 
d="M7 -228q-57 0 -95 23l15 51q44 -19 76 -19q50 0 76 31t26 89v588h60v-584q0 -86 -42 -132.5t-116 -46.5z" />
    <glyph glyph-name="circumflex" unicode="&#x2c6;" horiz-adv-x="575" 
d="M115 626h-64l138 155h37l138 -155h-65l-92 104z" />
    <glyph glyph-name="caron" unicode="&#x2c7;" horiz-adv-x="549" 
d="M189 624l-138 155h64l92 -104l92 104h65l-138 -155h-37z" />
    <glyph glyph-name="breve" unicode="&#x2d8;" horiz-adv-x="443" 
d="M52 780h54q1 -56 29.5 -84t78.5 -28q51 0 79.5 28t29.5 84h55q-1 -73 -45.5 -116.5t-118.5 -43.5t-117.5 43.5t-44.5 116.5z" />
    <glyph glyph-name="dotaccent" unicode="&#x2d9;" horiz-adv-x="300" 
d="M104 621q-22 0 -37 14.5t-15 36.5t15 36.5t37 14.5q21 0 36 -14.5t15 -36.5t-15 -36.5t-36 -14.5z" />
    <glyph glyph-name="ring" unicode="&#x2da;" horiz-adv-x="378" 
d="M163 605q-46 0 -78.5 31.5t-32.5 76.5q0 46 32.5 78t78.5 32q47 0 79 -32q33 -31 33 -78q0 -45 -32.5 -76.5t-79.5 -31.5zM114 665q20 -20 49 -20t49 20q21 20 21 49t-21 49q-20 20 -49 20t-49 -20t-20 -49t20 -49z" />
    <glyph glyph-name="ogonek" unicode="&#x2db;" horiz-adv-x="387" 
d="M225 -188l24 -41q-42 -30 -89 -30q-48 0 -78 29.5t-30 76.5q0 102 148 169l35 -16q-60 -27 -95 -66t-35 -78q0 -27 18 -45.5t44 -18.5q29 0 58 20z" />
    <glyph glyph-name="tilde" unicode="&#x2dc;" horiz-adv-x="539" 
d="M91 657l-37 17q11 37 38.5 60t63.5 23q32 0 69 -27q40 -26 59 -26q20 0 37 14.5t24 35.5l36 -16q-10 -37 -37 -60t-62 -23q-32 0 -70 26t-58 26q-40 0 -63 -50z" />
    <glyph glyph-name="hungarumlaut" unicode="&#x2dd;" horiz-adv-x="513" 
d="M95 620h-45l45 160h76zM249 620h-46l58 160h76z" />
    <glyph glyph-name="uni0394" unicode="&#x394;" horiz-adv-x="712" 
d="M692 0h-673v43l316 696h43l314 -696v-43zM356 655l-266 -598h532z" />
    <glyph glyph-name="uni03A9" unicode="&#x3a9;" horiz-adv-x="843" 
d="M359 0h-295v54h184q-92 53 -141 140q-49 88 -49 189q0 156 106 262q107 107 258 107q152 0 257 -107q106 -106 106 -262q0 -103 -49.5 -190.5t-139.5 -138.5h183v-54h-295v46q115 51 176.5 139.5t61.5 195.5q0 131 -86 222q-86 90 -214 90q-130 0 -215 -90
q-86 -91 -86 -222q0 -107 61.5 -195.5t176.5 -139.5v-46z" />
    <glyph glyph-name="uni03BC" unicode="&#x3bc;" horiz-adv-x="605" 
d="M463 244v291h60v-535h-56v96q-23 -52 -70 -80.5t-106 -28.5q-100 0 -150 83v-288h-60v753h60v-314q0 -77 42 -128q44 -50 113 -50q64 0 116 47q51 48 51 154z" />
    <glyph glyph-name="pi" unicode="&#x3c0;" horiz-adv-x="598" 
d="M177 0h-60v482h-92v53h548v-53h-92v-482h-60v482h-244v-482z" />
    <glyph glyph-name="uni0401" unicode="&#x401;" horiz-adv-x="601" 
d="M186 862q0 20 15 35.5t37 15.5t37 -15t15 -36q0 -23 -15 -38t-37 -15t-37 15.5t-15 37.5zM362 862q0 21 15 36t37 15t37.5 -15t15.5 -36q0 -22 -15.5 -37.5t-37.5 -15.5t-37 15t-15 38zM548 0h-447v739h445v-58h-384v-278h358v-57h-358v-288h386v-58z" />
    <glyph glyph-name="uni0410" unicode="&#x410;" horiz-adv-x="652" 
d="M636 0h-67l-88 224h-311l-88 -224h-67l295 739h33zM461 281l-135 349l-136 -349h271z" />
    <glyph glyph-name="uni0411" unicode="&#x411;" horiz-adv-x="634" 
d="M162 444h190q138 0 196 -80q50 -67 50 -146q0 -41 -14.5 -79t-43 -69.5t-77 -50.5t-111.5 -19h-251v739h424v-58h-363v-237zM162 58h180q89 0 141 46t52 120q0 73 -50 117.5t-136 44.5h-187v-328z" />
    <glyph glyph-name="uni0412" unicode="&#x412;" horiz-adv-x="661" 
d="M467 400q67 -18 105.5 -70.5t38.5 -119.5q0 -86 -61 -148q-62 -62 -173 -62h-276v739h266q99 0 151 -55q54 -54 54 -129q0 -54 -28.5 -96.5t-76.5 -58.5zM361 681h-199v-257h210q60 0 99 38t39 93q0 56 -39.5 91t-109.5 35zM162 58h210q78 0 127 44q49 45 49 111t-49 109
q-50 44 -128 44h-209v-308z" />
    <glyph glyph-name="uni0413" unicode="&#x413;" horiz-adv-x="532" 
d="M162 0h-61v739h416v-58h-355v-681z" />
    <glyph glyph-name="uni0414" unicode="&#x414;" horiz-adv-x="727" 
d="M380 739l252 -682h68v-207h-63v150h-548v-150h-63v207h68l254 682h32zM363 630l-203 -573h406z" />
    <glyph glyph-name="uni0415" unicode="&#x415;" horiz-adv-x="601" 
d="M548 0h-447v739h445v-58h-384v-278h358v-57h-358v-288h386v-58z" />
    <glyph glyph-name="uni0416" unicode="&#x416;" horiz-adv-x="928" 
d="M908 60l10 -58q-30 -13 -64 -13q-73 0 -123 62q-26 31 -82 135l-14 25q-29 55 -40 72q-33 54 -72 54h-28v-339h-61v339h-29q-31 0 -52 -26q-18 -23 -60 -100q-66 -122 -92 -156q-57 -65 -126 -66q-35 0 -65 13l10 58q24 -10 51 -10q47 0 74 35q27 32 117 193q41 68 69 86
q-40 25 -64 68l-14 27l-13 32l-12 30q-44 109 -65 137q-26 32 -70 32q-20 0 -47 -10l-16 55q33 15 65 15q75 0 117 -59q23 -31 73 -153q5 -12 5 -13q14 -31 18 -45l18 -33q16 -27 35 -37t56 -14h17v341h61v-341h17q54 0 80 36q15 21 23 38l24 55q49 125 71 158q41 63 109 67
h14q33 0 65 -15l-15 -55q-27 10 -47 10q-48 0 -71 -32q-24 -34 -65 -137q0 -1 -1.5 -4.5l-4 -9t-4.5 -11.5l-23 -52t-28 -48q-18 -25 -38 -35q26 -18 65 -83l21 -37q79 -137 101 -161q28 -30 70 -30q27 0 50 10z" />
    <glyph glyph-name="uni0417" unicode="&#x417;" horiz-adv-x="586" 
d="M264 -12q-126 0 -240 75l30 51q106 -68 210 -68q89 0 147 44q58 43 58 115q0 64 -46 105t-128 41h-145v57h111q89 0 139 44q50 45 50 106q0 60 -50 98t-123 38q-107 0 -198 -72l-33 46q45 39 107.5 61.5t126.5 22.5q104 0 168 -55t64 -139q0 -59 -32.5 -103.5
t-96.5 -65.5v-3q70 -12 109 -63t39 -121q0 -95 -74 -155q-74 -59 -193 -59z" />
    <glyph glyph-name="uni0418" unicode="&#x418;" horiz-adv-x="770" 
d="M135 0h-34v739h61v-615l472 615h35v-739h-61v618z" />
    <glyph glyph-name="uni0419" unicode="&#x419;" horiz-adv-x="770" 
d="M389 782q-104 0 -179 91l34 37q66 -77 145 -77t145 77l35 -37q-78 -91 -180 -91zM135 0h-34v739h61v-615l472 615h35v-739h-61v618z" />
    <glyph glyph-name="uni041A" unicode="&#x41a;" horiz-adv-x="625" 
d="M633 0h-78l-287 346l-106 -124v-222h-61v739h61v-432l369 432h74l-296 -349z" />
    <glyph glyph-name="uni041B" unicode="&#x41b;" horiz-adv-x="617" 
d="M85 0h-67l275 739h33l273 -739h-68l-221 623z" />
    <glyph glyph-name="uni041C" unicode="&#x41c;" horiz-adv-x="904" 
d="M162 0h-61v739h27l325 -478l322 478h28v-739h-61v588l-282 -418h-15l-283 417v-587z" />
    <glyph glyph-name="uni041D" unicode="&#x41d;" horiz-adv-x="737" 
d="M163 0h-62v739h62v-342h412v342h61v-739h-61v339h-412v-339z" />
    <glyph glyph-name="uni041E" unicode="&#x41e;" horiz-adv-x="860" 
d="M428 -12q-158 0 -268 111q-110 112 -110 269q0 158 111 271t269 113q157 0 268 -112q112 -112 112 -270t-112 -270q-111 -112 -270 -112zM430 47q134 0 225 93q92 95 92 229q0 135 -92 230q-91 94 -225 94q-133 0 -226 -95q-92 -95 -92 -229t92 -229q91 -93 226 -93z" />
    <glyph glyph-name="uni041F" unicode="&#x41f;" horiz-adv-x="737" 
d="M163 0h-62v739h535v-739h-61v681h-412v-681z" />
    <glyph glyph-name="uni0420" unicode="&#x420;" horiz-adv-x="598" 
d="M101 739h228q115 0 175 -67q61 -67 61 -159q0 -93 -64 -160q-63 -66 -181 -66h-158v-287h-61v739zM162 344h159q83 0 132.5 48t49.5 122t-46.5 120.5t-124.5 46.5h-170v-337z" />
    <glyph glyph-name="uni0421" unicode="&#x421;" horiz-adv-x="785" 
d="M430 -11q-160 0 -269 106q-110 107 -110 272q0 168 111 276q112 109 270 109q102 0 188 -46q87 -45 133 -118l-47 -35q-42 64 -115.5 102t-158.5 38q-136 0 -228 -92q-91 -91 -91 -233q0 -140 90 -231q91 -90 228 -90q83 0 156.5 36.5t121.5 100.5l44 -36
q-54 -74 -139 -116.5t-184 -42.5z" />
    <glyph glyph-name="uni0422" unicode="&#x422;" horiz-adv-x="539" 
d="M239 0v680h-224v59h509v-59h-224v-680h-61z" />
    <glyph glyph-name="uni0423" unicode="&#x423;" horiz-adv-x="577" 
d="M117 -12q-34 0 -64 13l6 58q27 -13 55 -13q54 0 92 51q31 41 63 107l8 17l-258 517h69l221 -448l194 448h69l-250 -559q-35 -77 -76 -128q-52 -63 -129 -63z" />
    <glyph glyph-name="uni0424" unicode="&#x424;" horiz-adv-x="908" 
d="M484 7v-87h-61v87q-162 7 -269 110q-105 102 -105 253q0 152 105 253q107 103 269 110v86h61v-86q163 -7 269 -110q106 -100 106 -253q0 -152 -106 -254t-269 -109zM484 675v-611q137 7 225 92q87 85 87 214t-87 213q-86 84 -225 92zM423 64v611q-137 -7 -225 -93
q-87 -84 -87 -212t87 -213q88 -85 225 -93z" />
    <glyph glyph-name="uni0425" unicode="&#x425;" horiz-adv-x="591" 
d="M86 0h-74l248 376l-237 363h72l201 -313l202 313h74l-240 -363l245 -376h-72l-209 323z" />
    <glyph glyph-name="uni0426" unicode="&#x426;" horiz-adv-x="701" 
d="M658 -150h-63v150h-494v739h63v-681h359v681h63v-681h72v-208z" />
    <glyph glyph-name="uni0427" unicode="&#x427;" horiz-adv-x="661" 
d="M498 341v398h62v-739h-62v278q-96 -43 -202 -43q-116 0 -178.5 61t-62.5 172v271h61v-257q0 -94 44 -140t137 -46q107 0 201 45z" />
    <glyph glyph-name="uni0428" unicode="&#x428;" horiz-adv-x="1074" 
d="M973 0h-872v739h63v-681h341v681h63v-681h342v681h63v-739z" />
    <glyph glyph-name="uni0429" unicode="&#x429;" horiz-adv-x="1087" 
d="M1044 -150h-63v150h-880v739h63v-681h341v681h63v-681h342v681h63v-681h71v-208z" />
    <glyph glyph-name="uni042A" unicode="&#x42a;" horiz-adv-x="725" 
d="M434 482q114 0 184 -66q72 -65 72 -179q0 -97 -63 -168q-63 -69 -187 -69h-247v681h-177v58h238v-297q80 40 180 40zM254 58h176q98 0 147 52q50 53 50 132q0 85 -53 133t-144 48q-102 0 -176 -42v-323z" />
    <glyph glyph-name="uni042B" unicode="&#x42b;" horiz-adv-x="878" 
d="M170 454h190q137 0 196 -81q50 -69 50 -149q0 -90 -62 -158q-61 -66 -184 -66h-251v739h61v-285zM716 0v739h61v-739h-61zM170 58h180q90 0 141.5 47t51.5 124q0 76 -50 122t-136 46h-187v-339z" />
    <glyph glyph-name="uni042C" unicode="&#x42c;" horiz-adv-x="633" 
d="M342 482q114 0 184 -66q72 -64 72 -179q0 -97 -63 -168q-63 -69 -187 -69h-247v739h61v-297q80 40 180 40zM162 58h176q98 0 147 52q50 53 50 132q0 85 -53 133t-144 48q-102 0 -176 -42v-323z" />
    <glyph glyph-name="uni042D" unicode="&#x42d;" horiz-adv-x="790" 
d="M358 752q159 0 269 -109q112 -108 112 -276q0 -165 -110 -272q-109 -106 -269 -106q-99 0 -184 42.5t-139 116.5l44 36q48 -64 121.5 -100.5t156.5 -36.5q129 0 218 81q89 83 99 211h-443v57h443q-11 131 -100 213q-90 84 -218 84q-85 0 -158.5 -38t-115.5 -102l-47 35
q46 73 133 118q86 46 188 46z" />
    <glyph glyph-name="uni042E" unicode="&#x42e;" horiz-adv-x="1083" 
d="M653 752q157 0 268 -112q112 -112 112 -270t-112 -270q-111 -112 -270 -112q-151 0 -257 100q-107 101 -120 247h-112v-335h-61v739h61v-346h112q9 152 118 255q110 104 261 104zM653 47q133 0 225 93q92 95 92 229q0 135 -92 230q-91 94 -225 94q-133 0 -226 -95
q-92 -95 -92 -229t92 -229q91 -93 226 -93z" />
    <glyph glyph-name="uni042F" unicode="&#x42f;" horiz-adv-x="628" 
d="M310 739h217v-739h-61v304q-59 -13 -154 -13h-15l-180 -291h-74l189 299q-84 18 -127 75.5t-43 140.5q0 95 63 159q63 65 185 65zM318 349q91 0 148 11v321h-152q-90 0 -139.5 -43.5t-49.5 -121.5q0 -167 193 -167z" />
    <glyph glyph-name="uni0430" unicode="&#x430;" horiz-adv-x="662" 
d="M522 432v103h58v-535h-58v104q-34 -55 -89.5 -86t-121.5 -31q-113 0 -190 81q-76 82 -76 202q0 118 75 198q77 80 191 80q67 0 122 -30.5t89 -85.5zM314 42q93 0 153 66t60 162q0 94 -60 158q-60 65 -153 65q-92 0 -151 -65q-58 -64 -58 -160q0 -97 58 -161
q59 -65 151 -65z" />
    <glyph glyph-name="uni0431" unicode="&#x431;" horiz-adv-x="657" 
d="M350 524q104 0 182 -72q79 -72 79 -195q0 -116 -76 -193q-75 -77 -194 -77q-74 0 -130 30.5t-89 83t-49 115.5t-16 134q0 169 57 247q56 79 185 106l43 8l49 10l41 14q47 16 104 65l24 -55q-30 -30 -72 -50q-37 -18 -65 -26q-24 -6 -84 -18q-63 -13 -97 -27t-64 -43
q-54 -52 -64 -206q21 53 63 87q74 62 173 62zM342 42q89 0 148 62q60 62 60 153q0 92 -58 151q-58 61 -145 61q-89 0 -153 -59q-62 -59 -62 -148q0 -92 60 -156t150 -64z" />
    <glyph glyph-name="uni0432" unicode="&#x432;" 
d="M404 408q64 -12 109 -64t45 -133q0 -96 -65 -161q-65 -63 -176 -63q-120 0 -183 76.5t-63 213.5v207q0 128 65 208q66 80 184 80q94 0 150 -55q57 -54 57 -142q0 -56 -33.5 -102.5t-89.5 -64.5zM321 717q-87 0 -138.5 -62.5t-51.5 -182.5v-45h171q73 0 119 43
q47 44 47 107t-40.5 101.5t-106.5 38.5zM319 42q82 0 130.5 47.5t48.5 124.5q0 74 -48 116t-132 42h-187v-94q0 -118 50.5 -177t137.5 -59z" />
    <glyph glyph-name="uni0433" unicode="&#x433;" horiz-adv-x="486" 
d="M236 -13q-90 0 -144 37t-54 108q0 99 116 141q16 6 47.5 16l50 16t43 17t38.5 22t24 27.5t10 35.5q0 40 -33.5 63t-94.5 23q-79 0 -163 -32l-15 51q87 36 180 36q80 0 136 -35t56 -103q0 -48 -32 -81.5t-84 -50.5l-47 -15t-51 -16.5t-42.5 -17.5t-39 -24t-23 -30
t-10.5 -40q0 -45 35 -69t99 -24q101 0 193 49l20 -51q-104 -53 -215 -53z" />
    <glyph glyph-name="uni0434" unicode="&#x434;" horiz-adv-x="663" 
d="M522 439v96h60v-480q0 -137 -76.5 -210t-215.5 -73q-94 0 -197 38l14 52q99 -35 182 -35q112 0 172.5 56.5t60.5 164.5v62q-34 -53 -89 -82.5t-121 -29.5q-115 0 -191 79t-76 196q0 115 77 195t191 80q66 0 120.5 -28.5t88.5 -80.5zM314 53q92 0 152 64q61 64 61 158
q0 93 -61 155q-60 63 -152 63t-150 -63q-59 -64 -59 -157t59 -157q58 -63 150 -63z" />
    <glyph glyph-name="uni0435" unicode="&#x435;" 
d="M561 291q0 -11 -3 -47h-450q7 -91 64 -145.5t153 -54.5q52 0 106 17.5t90 46.5l28 -46q-41 -32 -101.5 -53t-123.5 -21q-138 0 -208 82.5t-70 198.5q0 121 73 200t193 79q108 0 178 -70q71 -69 71 -187zM312 493q-84 0 -139.5 -53t-64.5 -141h391q-1 88 -52.5 141
t-134.5 53z" />
    <glyph glyph-name="uni0436" unicode="&#x436;" horiz-adv-x="821" 
d="M800 50l8 -48q-30 -11 -58 -11q-45 0 -87 25q-16 13 -32 35q-20 28 -27 40l-30 54q-29 53 -50.5 73.5t-50.5 20.5h-34v-241h-57v241h-34q-29 0 -50.5 -20.5t-50.5 -73.5q-33 -58 -38 -66q-13 -21 -34 -45q-38 -43 -104 -43q-28 0 -58 11l8 48q21 -7 46 -7q36 0 56 20
q19 19 68 100q24 39 26 43q23 41 55 57q-23 11 -40 29q-22 26 -44 83q-25 72 -44 95q-18 23 -60 23q-16 0 -43 -6l-12 47q24 10 58 10q67 0 95 -33q30 -35 61 -120q21 -55 43 -77t70 -22h26v243h57v-243h26q46 0 68.5 21t44.5 78q32 87 60 120t96 33q33 0 57 -10l-11 -47
q-27 6 -43 6q-42 0 -60 -23q-19 -23 -44 -95q-8 -22 -19 -46q-9 -19 -27 -38t-38 -28q32 -16 55 -57q70 -117 84 -134q27 -27 66 -29q25 0 46 7z" />
    <glyph glyph-name="uni0437" unicode="&#x437;" horiz-adv-x="540" 
d="M249 -227q-120 0 -227 79l28 46q94 -70 196 -70q86 0 139 45q53 44 53 117q0 67 -45 110t-124 43h-141v55h97q91 0 144 47q52 46 52 110q0 61 -47 99q-47 39 -119 39q-102 0 -185 -74l-34 42q99 87 224 87q97 0 158 -55q63 -55 63 -138q0 -60 -35.5 -107t-99.5 -68v-3
q70 -12 111 -65.5t41 -125.5q0 -93 -69 -153t-180 -60z" />
    <glyph glyph-name="uni0438" unicode="&#x438;" horiz-adv-x="618" 
d="M477 535h60v-535h-57v97q-23 -49 -77.5 -79.5t-120.5 -30.5q-94 0 -150.5 56t-56.5 164v328h60v-326q0 -80 39 -123t112 -43q78 0 134 49q57 50 57 150v293z" />
    <glyph glyph-name="uni0439" unicode="&#x439;" horiz-adv-x="618" 
d="M311 577q-101 0 -171 88l32 35q63 -74 139 -74t139 74l34 -35q-75 -88 -173 -88zM477 535h60v-535h-57v97q-23 -49 -77.5 -79.5t-120.5 -30.5q-94 0 -150.5 56t-56.5 164v328h60v-326q0 -80 39 -123t112 -43q78 0 134 49q57 50 57 150v293z" />
    <glyph glyph-name="uni043A" unicode="&#x43a;" horiz-adv-x="508" 
d="M512 0h-78l-230 279l-63 -56v-223h-60v755h60v-459l267 239h81l-243 -218z" />
    <glyph glyph-name="uni043B" unicode="&#x43b;" horiz-adv-x="546" 
d="M80 0h-65l242 535h34l240 -535h-66l-191 437z" />
    <glyph glyph-name="uni043C" unicode="&#x43c;" horiz-adv-x="756" 
d="M141 0h-60v535h33l265 -344l263 344h33v-535h-60v409l-228 -299h-16l-230 298v-408z" />
    <glyph glyph-name="uni043D" unicode="&#x43d;" horiz-adv-x="595" 
d="M454 303v232h60v-535h-60v250h-313v-250h-60v535h60v-232h313z" />
    <glyph glyph-name="uni043E" unicode="&#x43e;" horiz-adv-x="646" 
d="M45 268q0 119 79 199q80 81 199 81t199 -81q79 -80 79 -199q0 -120 -79 -200q-80 -81 -199 -81t-199 81q-79 80 -79 200zM323 42q94 0 156 65q62 67 62 161q0 95 -62 160t-156 65q-93 0 -156 -66q-62 -65 -62 -159t62 -161q63 -65 156 -65z" />
    <glyph glyph-name="uni043F" unicode="&#x43f;" horiz-adv-x="612" 
d="M141 0h-60v535h58v-94q49 108 186 108q89 0 151 -59q61 -58 61 -167v-323h-60v312q0 84 -42.5 132.5t-116.5 48.5q-71 0 -124 -49q-53 -48 -53 -144v-300z" />
    <glyph glyph-name="uni0440" unicode="&#x440;" horiz-adv-x="666" 
d="M355 549q114 0 190 -82q76 -80 76 -199t-76 -199q-77 -81 -190 -81q-69 0 -124.5 31t-89.5 88v-327h-60v755h60v-109q34 58 90 90.5t124 32.5zM352 43q91 0 150 65t59 160t-59 160t-150 65q-93 0 -153 -66t-60 -161q0 -94 60 -158q60 -65 153 -65z" />
    <glyph glyph-name="uni0441" unicode="&#x441;" horiz-adv-x="595" 
d="M319 -12q-119 0 -196 78q-77 80 -77 201q0 123 78 202q79 79 201 79q79 0 143.5 -37t95.5 -101l-49 -28q-27 51 -78 81t-112 30q-96 0 -157 -64q-62 -64 -62 -162t60 -161t153 -63q60 0 113.5 31t79.5 80l49 -30q-31 -61 -98 -99q-65 -37 -144 -37z" />
    <glyph glyph-name="uni0442" unicode="&#x442;" horiz-adv-x="954" 
d="M675 549q90 0 147 -57q58 -57 58 -159v-333h-60v328q0 77 -40 121t-107 44q-63 0 -113 -44q-49 -43 -49 -129v-320h-60v321q0 79 -39.5 125.5t-106.5 46.5q-65 0 -115 -47q-49 -46 -49 -145v-301h-60v535h59v-90q22 49 67 76.5t102 27.5q59 0 106 -30.5t68 -85.5
q24 55 76 85.5t116 30.5z" />
    <glyph glyph-name="uni0443" unicode="&#x443;" horiz-adv-x="531" 
d="M272 78l175 457h66l-226 -575q-40 -102 -81 -144.5t-102 -42.5q-43 0 -77 19l9 53q35 -16 66 -16q41 0 71 33.5t57 103.5l13 34l-228 535h66z" />
    <glyph glyph-name="uni0444" unicode="&#x444;" horiz-adv-x="791" 
d="M746 267q0 -124 -88 -199q-88 -74 -235 -79v-212h-56v212q-148 3 -235 78q-87 77 -87 201q0 125 88 201t234 79v207h56v-207q147 -5 234 -80q89 -77 89 -201zM103 269q0 -104 71 -164.5t193 -63.5v454q-123 -3 -193.5 -63.5t-70.5 -162.5zM423 495v-454q122 2 193.5 63
t71.5 165q0 103 -71 163t-194 63z" />
    <glyph glyph-name="uni0445" unicode="&#x445;" horiz-adv-x="475" 
d="M273 273l184 -273h-70l-150 225l-151 -225h-72l189 276l-174 259h71l139 -212l143 212h71z" />
    <glyph glyph-name="uni0446" unicode="&#x446;" horiz-adv-x="656" 
d="M537 535v-416q0 -49 25.5 -64.5t88.5 -15.5v-219h-57v171q-50 0 -81.5 28t-31.5 79q-22 -48 -78 -80q-55 -31 -121 -31q-94 0 -150.5 56t-56.5 164v328h60v-326q0 -80 39 -123t112 -43q78 0 134 49q57 50 57 150v293h60z" />
    <glyph glyph-name="uni0447" unicode="&#x447;" horiz-adv-x="547" 
d="M405 255v280h60v-535h-60v199q-81 -28 -161 -28q-200 0 -200 201v163h60v-157q0 -79 35 -115.5t109 -36.5q81 0 157 29z" />
    <glyph glyph-name="uni0448" unicode="&#x448;" horiz-adv-x="954" 
d="M813 242v293h60v-535h-57v97q-21 -49 -71 -79.5t-109 -30.5q-62 0 -108 30.5t-64 88.5q-23 -56 -75.5 -87.5t-117.5 -31.5q-85 0 -141 54q-55 55 -55 170v324h60v-318q0 -174 141 -174q69 0 118 49q50 50 50 150v293h60v-326q0 -79 37 -122.5t104 -43.5q68 0 118 50
t50 149z" />
    <glyph glyph-name="uni0449" unicode="&#x449;" horiz-adv-x="989" 
d="M873 535v-416q0 -49 25 -64.5t88 -15.5v-219h-57v171q-49 0 -80 26.5t-32 76.5q-20 -48 -70.5 -77.5t-112.5 -29.5t-107 30t-63 89q-23 -56 -75.5 -87.5t-117.5 -31.5q-85 0 -141 54q-55 55 -55 170v324h60v-318q0 -174 141 -174q69 0 118 49q50 50 50 150v293h60v-326
q0 -79 37 -122.5t103 -43.5q68 0 118 50q51 49 51 149v293h60z" />
    <glyph glyph-name="uni044A" unicode="&#x44a;" horiz-adv-x="630" 
d="M377 418q96 0 156 -62q61 -61 61 -156q0 -91 -59 -153q-59 -60 -161 -60q-103 0 -159 60q-62 77 -58 186v246h-143v56h203v-172q67 55 160 55zM374 42q73 0 116.5 44.5t43.5 116.5t-43.5 116t-117.5 44q-97 0 -156 -65v-75q0 -33 7.5 -62.5t24 -57.5t48.5 -44.5t77 -16.5
z" />
    <glyph glyph-name="uni044B" unicode="&#x44b;" horiz-adv-x="733" 
d="M141 337h169q104 0 151 -51.5t47 -117.5q0 -69 -50 -119q-49 -49 -148 -49h-229v535h60v-198zM591 0v535h60v-535h-60zM141 53h161q71 0 108.5 32t37.5 86q0 50 -37 81t-102 31h-168v-230z" />
    <glyph glyph-name="uni044C" unicode="&#x44c;" horiz-adv-x="546" 
d="M293 418q95 0 157 -62q61 -61 61 -156q0 -91 -59 -153q-58 -60 -162 -60q-105 0 -158 60q-62 77 -58 186v302h60v-171q69 54 159 54zM291 42q72 0 115.5 45t43.5 116q0 72 -44 116t-116 44q-96 0 -156 -64v-76q0 -26 4 -49.5t15 -48t28 -42.5t45.5 -29.5t64.5 -11.5z" />
    <glyph glyph-name="uni044D" unicode="&#x44d;" horiz-adv-x="599" 
d="M277 548q119 0 197 -79q79 -79 79 -202q0 -121 -77 -201q-76 -78 -194 -78q-80 0 -145.5 36.5t-98.5 99.5l49 30q27 -49 80.5 -80t114.5 -31q85 0 143 55q60 57 67 143h-283v55h282q-9 88 -69 142q-59 55 -146 55q-62 0 -113 -30t-78 -81l-50 28q31 64 96.5 101t145.5 37
z" />
    <glyph glyph-name="uni044E" unicode="&#x44e;" horiz-adv-x="830" 
d="M507 548q119 0 199 -81q79 -80 79 -199q0 -120 -79 -200q-80 -81 -199 -81q-114 0 -191 73q-77 74 -86 183h-89v-243h-60v755h60v-459h89q10 108 87 180q78 72 190 72zM725 268q0 94 -63 159q-61 66 -155 66q-93 0 -156 -66q-62 -65 -62 -159t62 -161q63 -65 156 -65
t155 65q63 66 63 161z" />
    <glyph glyph-name="uni044F" unicode="&#x44f;" horiz-adv-x="542" 
d="M261 535h199v-535h-60v217q-58 -9 -142 -9h-8l-142 -208h-70l150 215q-64 15 -98 56.5t-34 99.5q0 73 53 118.5t152 45.5zM267 260q79 0 133 8v214h-139q-70 0 -108 -28.5t-38 -81.5q0 -112 152 -112z" />
    <glyph glyph-name="uni0451" unicode="&#x451;" 
d="M170 652q0 21 16 37t39 16t38.5 -16t15.5 -37q0 -23 -15.5 -39t-38.5 -16t-39 16t-16 39zM354 652q0 21 16 37t39 16t39 -16t16 -37q0 -23 -16 -39t-39 -16t-39 16t-16 39zM561 291q0 -11 -3 -47h-450q7 -91 64 -145.5t153 -54.5q52 0 106 17.5t90 46.5l28 -46
q-41 -32 -101.5 -53t-123.5 -21q-138 0 -208 82.5t-70 198.5q0 121 73 200t193 79q108 0 178 -70q71 -69 71 -187zM312 493q-84 0 -139.5 -53t-64.5 -141h391q-1 88 -52.5 141t-134.5 53z" />
    <glyph glyph-name="Wgrave" unicode="&#x1e80;" horiz-adv-x="1010" 
d="M474 955l59 -160h-51l-85 160h77zM293 0h-30l-247 739h62l201 -618l212 618h27l215 -617l199 617h61l-245 -739h-30l-213 622z" />
    <glyph glyph-name="wgrave" unicode="&#x1e81;" horiz-adv-x="814" 
d="M377 780l59 -160h-51l-85 160h77zM246 1h-42l-188 534h62l149 -440l160 440l40 -1l162 -439l146 440h63l-187 -534h-42l-162 449z" />
    <glyph glyph-name="Wacute" unicode="&#x1e82;" horiz-adv-x="1010" 
d="M538 796h-51l59 160h77zM293 0h-30l-247 739h62l201 -618l212 618h27l215 -617l199 617h61l-245 -739h-30l-213 622z" />
    <glyph glyph-name="wacute" unicode="&#x1e83;" horiz-adv-x="814" 
d="M434 621h-51l59 160h77zM246 1h-42l-188 534h62l149 -440l160 440l40 -1l162 -439l146 440h63l-187 -534h-42l-162 449z" />
    <glyph glyph-name="Wdieresis" unicode="&#x1e84;" horiz-adv-x="1010" 
d="M365 862q0 20 15.5 35.5t36.5 15.5q22 0 37 -15t15 -36q0 -23 -15 -38t-37 -15t-37 15.5t-15 37.5zM593 809q-22 0 -37 15t-15 38q0 21 15 36t37 15t37.5 -15t15.5 -36q0 -22 -15 -37.5t-38 -15.5zM293 0h-30l-247 739h62l201 -618l212 618h27l215 -617l199 617h61
l-245 -739h-30l-213 622z" />
    <glyph glyph-name="wdieresis" unicode="&#x1e85;" horiz-adv-x="814" 
d="M260 680q0 21 16 37t39 16t38.5 -16t15.5 -37q0 -23 -15.5 -39t-38.5 -16t-39 16t-16 39zM444 680q0 21 16 37t39 16t39 -16t16 -37q0 -23 -16 -39t-39 -16t-39 16t-16 39zM246 1h-42l-188 534h62l149 -440l160 440l40 -1l162 -439l146 440h63l-187 -534h-42l-162 449z
" />
    <glyph glyph-name="Ygrave" unicode="&#x1ef2;" horiz-adv-x="602" 
d="M271 955l59 -160h-51l-85 160h77zM514 739h67l-250 -446v-293h-61v293l-248 446h67l212 -389z" />
    <glyph glyph-name="ygrave" unicode="&#x1ef3;" horiz-adv-x="531" 
d="M247 781l59 -160h-51l-85 160h77zM274 78l175 457h66l-226 -575q-40 -102 -81 -144.5t-102 -42.5q-43 0 -77 19l9 53q35 -16 66 -16q41 0 71 33.5t57 103.5l13 34l-228 535h66z" />
    <glyph glyph-name="uni2009" unicode="&#x2009;" horiz-adv-x="78" 
 />
    <glyph glyph-name="endash" unicode="&#x2013;" horiz-adv-x="698" 
d="M628 249h-557v56h557v-56z" />
    <glyph glyph-name="emdash" unicode="&#x2014;" horiz-adv-x="1017" 
d="M947 249h-876v56h876v-56z" />
    <glyph glyph-name="quoteleft" unicode="&#x2018;" horiz-adv-x="220" 
d="M113 647q17 0 30 -13t13 -31q0 -21 -15 -35t-37 -14q-23 0 -38 16.5t-15 42.5q0 76 105 142l19 -28q-64 -43 -79 -84q7 4 17 4z" />
    <glyph glyph-name="quoteright" unicode="&#x2019;" horiz-adv-x="218" 
d="M124 752q23 0 38 -17t15 -42q0 -76 -105 -142l-19 27q65 46 79 84q-8 -4 -17 -4q-17 0 -30 13t-13 32q0 20 15 34.5t37 14.5z" />
    <glyph glyph-name="quotesinglbase" unicode="&#x201a;" horiz-adv-x="224" 
d="M116 79q23 0 38 -17t15 -42q0 -76 -105 -142l-19 27q65 46 79 84q-8 -4 -17 -4q-17 0 -30 13t-13 32q0 20 15 34.5t37 14.5z" />
    <glyph glyph-name="quotedblleft" unicode="&#x201c;" horiz-adv-x="419" 
d="M166 755l19 -28q-64 -43 -79 -84q7 4 17 4q17 0 30 -13t13 -31q0 -21 -15 -35t-37 -14q-23 0 -38 16.5t-15 42.5q0 76 105 142zM320 647q17 0 30 -13t13 -31q0 -21 -15 -35t-37 -14q-23 0 -38 16.5t-15 42.5q0 76 105 142l19 -28q-64 -43 -79 -84q7 4 17 4z" />
    <glyph glyph-name="quotedblright" unicode="&#x201d;" horiz-adv-x="413" 
d="M115 754q23 0 38 -16.5t15 -42.5q0 -76 -105 -142l-19 28q64 43 79 84q-7 -4 -17 -4q-17 0 -30 13t-13 31q0 21 15 35t37 14zM311 754q23 0 38 -16.5t15 -42.5q0 -76 -105 -142l-19 28q64 43 79 84q-7 -4 -17 -4q-17 0 -30 13t-13 31q0 21 15 35t37 14z" />
    <glyph glyph-name="quotedblbase" unicode="&#x201e;" horiz-adv-x="416" 
d="M105 77q23 0 38 -16.5t15 -42.5q0 -76 -105 -142l-19 28q64 43 79 84q-7 -4 -17 -4q-17 0 -30 13t-13 31q0 21 15 35t37 14zM301 77q23 0 38 -16.5t15 -42.5q0 -76 -105 -142l-19 28q64 43 79 84q-7 -4 -17 -4q-17 0 -30 13t-13 31q0 21 15 35t37 14z" />
    <glyph glyph-name="dagger" unicode="&#x2020;" horiz-adv-x="480" 
d="M268 496h174v-53h-174v-621h-56v621h-175v53h175v353h56v-353z" />
    <glyph glyph-name="daggerdbl" unicode="&#x2021;" horiz-adv-x="480" 
d="M443 530v-53h-175v-283h175v-53h-175v-319h-56v319h-175v53h175v283h-175v53h175v319h56v-319h175z" />
    <glyph glyph-name="bullet" unicode="&#x2022;" horiz-adv-x="369" 
d="M252 285q-28 -27 -68 -27t-68 27q-28 28 -28 68t28 68q28 29 68 29t68 -29q28 -28 28 -68t-28 -68z" />
    <glyph glyph-name="ellipsis" unicode="&#x2026;" horiz-adv-x="629" 
d="M117 -16q-21 0 -35 14t-14 34t14 33.5t35 13.5q20 0 34 -13.5t14 -33.5q0 -21 -14 -34.5t-34 -13.5zM322 -16q-21 0 -35 14t-14 34t14 33.5t35 13.5q20 0 34 -13.5t14 -33.5q0 -21 -14 -34.5t-34 -13.5zM527 -16q-21 0 -35 14t-14 34t14 33.5t35 13.5q20 0 34 -13.5
t14 -33.5q0 -21 -14 -34.5t-34 -13.5z" />
    <glyph glyph-name="perthousand" unicode="&#x2030;" horiz-adv-x="1296" 
d="M220 389q-74 0 -130 53q-54 52 -54 128t54 128q56 54 130 54q76 0 130 -54q54 -52 54 -128t-54 -128q-55 -53 -130 -53zM184 0h-64l562 739h65zM126 476q39 -39 94 -39q56 0 93 39q39 39 39 94t-39 94q-37 39 -93 39q-55 0 -94 -39q-38 -40 -38 -94t38 -94zM782 41
q-55 -53 -130 -53t-130 53q-54 53 -54 128t54 128q54 54 130 54t130 -54q54 -53 54 -128t-54 -128zM1081 -12q-75 0 -131 53q-54 53 -54 128t54 128q56 54 131 54t129 -54q55 -52 55 -128t-55 -128q-55 -53 -129 -53zM520 169q0 -54 38 -94q39 -39 94 -39t93 38q39 39 39 95
t-39 95q-37 39 -93 39q-55 0 -94 -39q-38 -40 -38 -95zM1081 303q-55 0 -94 -39q-38 -40 -38 -95q0 -54 38 -94q39 -39 94 -39t93 39q39 39 39 94t-39 94q-39 40 -93 40z" />
    <glyph glyph-name="guilsinglleft" unicode="&#x2039;" horiz-adv-x="313" 
d="M252 88h-60l-145 203l145 203h60l-144 -203z" />
    <glyph glyph-name="guilsinglright" unicode="&#x203a;" horiz-adv-x="313" 
d="M266 291l-145 -203h-60l144 203l-144 203h60z" />
    <glyph glyph-name="fraction" unicode="&#x2044;" horiz-adv-x="171" 
d="M-172 0h-59l578 739h57z" />
    <glyph glyph-name="uni2070" unicode="&#x2070;" horiz-adv-x="368" 
d="M273 533q-37 -32 -89 -32q-51 0 -87.5 30.5t-51.5 77.5q-22 66 -11 148t61 123q37 32 89 32q51 0 87.5 -30.5t51.5 -77.5q24 -65 12 -147t-62 -124zM108 593q25 -43 76 -43q50 0 75 43q26 44 26 114q0 69 -26 113q-25 43 -75 43q-51 0 -76 -43t-25 -113q0 -71 25 -114z
" />
    <glyph glyph-name="uni2074" unicode="&#x2074;" horiz-adv-x="347" 
d="M261 650h45v-42h-45v-101h-46v101h-188l-11 30l213 265h32v-253zM215 819l-136 -169h136v169z" />
    <glyph glyph-name="uni2075" unicode="&#x2075;" horiz-adv-x="328" 
d="M164 759q57 0 94 -35t37 -91q0 -58 -40 -95t-103 -37q-68 0 -127 47l24 39q53 -41 101 -41q42 0 68 24.5t26 62.5q0 37 -24 60.5t-62 23.5q-48 0 -81 -38l-31 21l22 201h201v-44h-164l-13 -117q32 19 72 19z" />
    <glyph glyph-name="uni2076" unicode="&#x2076;" horiz-adv-x="345" 
d="M177 501q-71 0 -110.5 53t-39.5 139q0 91 43 155t127 64q61 0 105 -33l-21 -36q-37 27 -81 27q-65 0 -96 -55q-32 -54 -30 -123q11 32 42 51.5t70 19.5q56 0 93.5 -36.5t37.5 -92.5q0 -57 -39.5 -95t-100.5 -38zM179 543q38 0 64 26t26 65q0 38 -26 63t-64 25
q-39 0 -65.5 -25.5t-26.5 -63.5q0 -37 26.5 -63.5t65.5 -26.5z" />
    <glyph glyph-name="uni2077" unicode="&#x2077;" horiz-adv-x="294" 
d="M24 857v44h252v-32l-158 -362h-52l155 350h-197z" />
    <glyph glyph-name="uni2078" unicode="&#x2078;" horiz-adv-x="360" 
d="M34 614q0 35 22.5 63t62.5 40v1q-68 29 -68 90q0 45 36 74.5t93 29.5t93.5 -29.5t36.5 -74.5q0 -30 -18.5 -53.5t-51.5 -36.5v-1q40 -12 63.5 -40t23.5 -63q0 -49 -41 -81t-106 -32q-64 0 -105 32t-41 81zM180 738q27 -1 47 11.5t27.5 30.5t3.5 38t-20 33q-22 19 -58 19
t-58.5 -19t-22.5 -47t21.5 -47t59.5 -19zM276 619q0 32 -25.5 54t-70.5 22q-46 0 -71 -21t-25 -55q0 -33 27 -54t69 -21t69 21t27 54z" />
    <glyph glyph-name="uni2079" unicode="&#x2079;" horiz-adv-x="353" 
d="M154 501q-61 0 -104 33l20 36q38 -27 83 -27q63 0 91 52q31 53 29 127h-1q-11 -32 -41.5 -52t-68.5 -20q-56 0 -92.5 36t-36.5 92q0 58 39 96t99 38q70 0 108.5 -53t38.5 -141q0 -91 -41 -155q-41 -62 -123 -62zM169 690q37 -2 63.5 26t26.5 63t-26 64q-25 27 -64 27
q-38 0 -63 -25.5t-25 -65.5q0 -38 25 -63.5t63 -25.5z" />
    <glyph glyph-name="uni2080" unicode="&#x2080;" horiz-adv-x="368" 
d="M273 -129q-37 -32 -89 -32q-51 0 -87.5 30.5t-51.5 78.5q-22 65 -11 147t61 123q37 32 89 32q51 0 87.5 -30.5t51.5 -77.5q24 -65 12 -147t-62 -124zM108 -68q26 -44 76 -44q49 0 75 44t26 113t-26 113q-25 43 -75 43q-51 0 -76 -43t-25 -113t25 -113z" />
    <glyph glyph-name="uni2081" unicode="&#x2081;" horiz-adv-x="258" 
d="M24 135l130 104h38v-394h-51v324l-89 -72z" />
    <glyph glyph-name="uni2082" unicode="&#x2082;" horiz-adv-x="335" 
d="M213 0l-99 -109h176v-46h-245l-1 41l120 129q39 43 55 69t16 51q0 30 -21 49.5t-53 19.5q-49 0 -96 -46l-28 36q59 56 126 56q53 0 87.5 -32t34.5 -83q0 -54 -72 -135z" />
    <glyph glyph-name="uni2083" unicode="&#x2083;" horiz-adv-x="313" 
d="M145 -161q-64 0 -125 40l23 40q52 -34 101 -34q41 0 64.5 19.5t23.5 51.5q0 33 -23 51.5t-67 18.5h-47v45h43q39 0 62.5 19t23.5 49t-22 47.5t-56 17.5q-49 0 -92 -37l-25 35q48 48 121 48q54 0 89.5 -29.5t35.5 -74.5q0 -33 -19 -58t-52 -35v-2q37 -8 58 -34.5t21 -62.5
q0 -50 -38.5 -82.5t-99.5 -32.5z" />
    <glyph glyph-name="uni2084" unicode="&#x2084;" horiz-adv-x="347" 
d="M261 -12h45v-42h-45v-101h-46v101h-188l-11 30l213 265h32v-253zM215 157l-136 -169h136v169z" />
    <glyph glyph-name="uni2085" unicode="&#x2085;" horiz-adv-x="328" 
d="M164 97q57 0 94 -35t37 -91q0 -58 -40 -95t-103 -37q-68 0 -127 47l24 39q53 -41 101 -41q42 0 68 24.5t26 62.5q0 37 -24 60.5t-62 23.5q-48 0 -81 -38l-31 21l22 201h201v-44h-164l-13 -117q32 19 72 19z" />
    <glyph glyph-name="uni2086" unicode="&#x2086;" horiz-adv-x="345" 
d="M177 -161q-71 0 -110.5 53t-39.5 139q0 91 43 155t127 64q61 0 105 -33l-21 -36q-37 27 -81 27q-65 0 -96 -55q-32 -54 -30 -123q11 32 42 51.5t70 19.5q56 0 93.5 -36.5t37.5 -92.5q0 -57 -39.5 -95t-100.5 -38zM179 -119q38 0 64 26t26 65q0 38 -26 63t-64 25
q-39 0 -65.5 -25.5t-26.5 -63.5q0 -37 26.5 -63.5t65.5 -26.5z" />
    <glyph glyph-name="uni2087" unicode="&#x2087;" horiz-adv-x="294" 
d="M24 195v44h252v-32l-158 -362h-52l155 350h-197z" />
    <glyph glyph-name="uni2088" unicode="&#x2088;" horiz-adv-x="360" 
d="M34 -48q0 35 22.5 63t62.5 40v1q-68 29 -68 90q0 45 36 74.5t93 29.5t93.5 -29.5t36.5 -74.5q0 -30 -18.5 -53.5t-51.5 -36.5v-1q40 -12 63.5 -40t23.5 -63q0 -49 -41 -81t-106 -32q-64 0 -105 32t-41 81zM180 76q27 -1 47 11.5t27.5 30.5t3.5 38t-20 33q-22 19 -58 19
t-58.5 -19t-22.5 -47t21.5 -47t59.5 -19zM276 -43q0 32 -25.5 54t-70.5 22q-46 0 -71 -21t-25 -55q0 -33 27 -54t69 -21t69 21t27 54z" />
    <glyph glyph-name="uni2089" unicode="&#x2089;" horiz-adv-x="353" 
d="M154 -161q-61 0 -104 33l20 36q38 -27 83 -27q62 0 91 53q30 53 29 126h-1q-11 -32 -41.5 -52t-68.5 -20q-56 0 -92.5 36t-36.5 92q0 58 39 96t99 38q70 0 108.5 -53t38.5 -141q0 -92 -41 -154q-41 -63 -123 -63zM169 28q37 -2 63.5 26t26.5 63t-26 64q-25 27 -64 27
q-38 0 -63 -25.5t-25 -65.5q0 -38 25 -63.5t63 -25.5z" />
    <glyph glyph-name="Euro" unicode="&#x20ac;" horiz-adv-x="736" 
d="M476 696q-104 0 -183 -64q-78 -62 -107 -166h419l-22 -54h-408q-2 -38 -2 -43q0 -26 3 -50h376l-20 -54h-344q30 -97 108 -159q77 -61 179 -61q95 0 183 49l11 -56q-88 -49 -195 -49q-124 0 -221 76q-96 77 -128 200h-90l19 54h61q-3 24 -3 50q0 5 2 43h-73l21 54h61
q29 128 126 207t225 79q129 0 224 -68l-28 -49q-86 61 -194 61z" />
    <glyph glyph-name="trademark" unicode="&#x2122;" horiz-adv-x="795" 
d="M144 698h-109v41h265v-41h-108v-309h-48v309zM523 515l163 224h23v-350h-44v254l-132 -184h-19l-131 184v-254h-44v350h24z" />
    <glyph glyph-name="estimated" unicode="&#x212e;" horiz-adv-x="965" 
d="M490 -17q-184 0 -312 110q-127 109 -127 273q0 165 127 274q128 111 312 111q183 0 310 -109q129 -109 129 -281v-21q0 -5 -7 -5h-686v-230q0 -3 4 -4q104 -72 250 -72q103 0 189 37t137 105l35 -29q-60 -75 -155.5 -117t-205.5 -42zM236 628v-243h508v244q0 3 -3 4
q-106 73 -251 73q-146 0 -252 -73q-2 -2 -2 -5z" />
    <glyph glyph-name="uni2150" unicode="&#x2150;" horiz-adv-x="842" 
d="M212 346h-51v325l-89 -72l-28 38l130 104h38v-395zM112 0l578 739h57l-577 -739h-58zM549 350v44h252v-32l-158 -362h-52l155 350h-197z" />
    <glyph glyph-name="uni2151" unicode="&#x2151;" horiz-adv-x="844" 
d="M207 346h-51v325l-89 -72l-28 38l130 104h38v-395zM104 0l578 739h57l-577 -739h-58zM650 405q70 0 108.5 -53t38.5 -141q0 -91 -41 -155q-41 -62 -123 -62q-61 0 -104 33l20 36q37 -27 83 -27q63 0 91 52q31 53 29 127h-1q-11 -32 -41.5 -52t-68.5 -20q-56 0 -92.5 36
t-36.5 92q0 58 39 96t99 38zM648 183q37 -2 63.5 26t26.5 63t-26 64q-26 27 -64 27t-63 -25.5t-25 -65.5q0 -38 25 -63.5t63 -25.5z" />
    <glyph glyph-name="uni2153" unicode="&#x2153;" horiz-adv-x="827" 
d="M207 346h-51v325l-89 -72l-28 38l130 104h38v-395zM86 0l578 739h57l-577 -739h-58zM700 209v-2q37 -8 58 -34.5t21 -62.5q0 -50 -38.5 -82.5t-99.5 -32.5q-64 0 -125 40l23 40q52 -34 101 -34q41 0 64.5 19.5t23.5 51.5q0 33 -23 51.5t-67 18.5h-47v45h43q39 0 62.5 19
t23.5 49t-22 47.5t-56 17.5q-49 0 -92 -37l-25 35q48 48 121 48q54 0 89.5 -29.5t35.5 -74.5q0 -33 -19 -58t-52 -35z" />
    <glyph glyph-name="uni2154" unicode="&#x2154;" horiz-adv-x="826" 
d="M117 393h176v-46h-245l-1 41l120 129q39 43 55 69t16 51q0 30 -21 49.5t-53 19.5q-49 0 -96 -46l-28 36q59 56 126 56q53 0 87.5 -32t34.5 -83q0 -54 -72 -135zM119 0l578 739h57l-577 -739h-58zM684 207v-2q37 -8 58 -34.5t21 -62.5q0 -50 -38.5 -82.5t-99.5 -32.5
q-64 0 -125 40l23 40q52 -34 101 -34q41 0 64.5 19.5t23.5 51.5q0 33 -23 51.5t-67 18.5h-47v45h43q39 0 62.5 19t23.5 49t-22 47.5t-56 17.5q-49 0 -92 -37l-25 35q48 48 121 48q54 0 89.5 -29.5t35.5 -74.5q0 -33 -19 -58t-52 -35z" />
    <glyph glyph-name="uni2155" unicode="&#x2155;" horiz-adv-x="836" 
d="M206 346h-51v325l-89 -72l-28 38l130 104h38v-395zM88 0l578 739h57l-577 -739h-58zM668 252q57 0 94 -35t37 -91q0 -58 -40 -95t-103 -37q-68 0 -127 47l24 39q53 -41 101 -41q42 0 68 24.5t26 62.5q0 37 -24 60.5t-62 23.5q-48 0 -81 -38l-31 21l22 201h201v-44h-164
l-13 -117q32 19 72 19z" />
    <glyph glyph-name="uni2156" unicode="&#x2156;" horiz-adv-x="829" 
d="M117 393h176v-46h-245l-1 41l120 129q39 43 55 69t16 51q0 30 -21 49.5t-53 19.5q-49 0 -96 -46l-28 36q59 56 126 56q53 0 87.5 -32t34.5 -83q0 -54 -72 -135zM120 0l578 739h57l-576 -739h-59zM645 252q57 0 94 -35t37 -91q0 -58 -40 -95t-103 -37q-68 0 -127 47l24 39
q53 -41 101 -41q42 0 68 24.5t26 62.5q0 37 -24 60.5t-62 23.5q-48 0 -81 -38l-31 21l22 201h201v-44h-164l-13 -117q32 19 72 19z" />
    <glyph glyph-name="uni2157" unicode="&#x2157;" horiz-adv-x="818" 
d="M148 387q41 0 64.5 19.5t23.5 51.5q0 33 -23 51.5t-67 18.5h-47v45h43q39 0 62.5 19t23.5 49t-22 47.5t-56 17.5q-49 0 -92 -37l-25 35q48 48 121 48q54 0 89.5 -29.5t35.5 -74.5q0 -33 -19 -58t-52 -35v-2q37 -8 58 -34.5t21 -62.5q0 -50 -38.5 -82.5t-99.5 -32.5
q-64 0 -125 40l23 40q52 -34 101 -34zM106 0l578 739h57l-577 -739h-58zM633 252q57 0 94 -35t37 -91q0 -58 -40 -95t-103 -37q-68 0 -127 47l24 39q53 -41 101 -41q42 0 68 24.5t26 62.5q0 37 -24 60.5t-62 23.5q-48 0 -81 -38l-31 21l22 201h201v-44h-164l-13 -117
q32 19 72 19z" />
    <glyph glyph-name="uni2158" unicode="&#x2158;" horiz-adv-x="857" 
d="M267 347h-46v101h-188l-11 30l213 265h32v-253h45v-42h-45v-101zM138 0l578 739h57l-576 -739h-59zM221 659l-136 -169h136v169zM664 252q57 0 94 -35t37 -91q0 -58 -40 -95t-103 -37q-68 0 -127 47l24 39q53 -41 101 -41q42 0 68 24.5t26 62.5q0 37 -24 60.5t-62 23.5
q-48 0 -81 -38l-31 21l22 201h201v-44h-164l-13 -117q32 19 72 19z" />
    <glyph glyph-name="uni2159" unicode="&#x2159;" horiz-adv-x="839" 
d="M206 346h-51v325l-89 -72l-28 38l130 104h38v-395zM91 0l578 739h57l-576 -739h-59zM663 252q57 0 94 -35t37 -91q0 -58 -40 -95t-103 -37q-68 0 -127 47l24 39q53 -41 101 -41q42 0 68 24.5t26 62.5q0 37 -24 60.5t-62 23.5q-48 0 -81 -38l-31 21l22 201h201v-44h-164
l-13 -117q32 19 72 19z" />
    <glyph glyph-name="uni215A" unicode="&#x215a;" horiz-adv-x="848" 
d="M152 386q42 0 68 24.5t26 62.5q0 37 -24 60.5t-62 23.5q-48 0 -81 -38l-31 21l22 201h201v-44h-164l-13 -117q32 19 72 19q57 0 94 -35t37 -91q0 -58 -40 -95t-103 -37q-68 0 -127 47l24 39q53 -41 101 -41zM108 0l578 739h58l-577 -739h-59zM657 256q56 0 93.5 -36.5
t37.5 -92.5q0 -57 -39.5 -95t-100.5 -38q-71 0 -110.5 53t-39.5 139q0 91 43 155t127 64q62 0 105 -33l-21 -36q-38 27 -81 27q-65 0 -96 -55q-31 -54 -30 -123q11 32 42 51.5t70 19.5zM650 36q38 0 64 26t26 65q0 38 -26 63t-64 25q-39 0 -65.5 -25.5t-26.5 -63.5
q0 -37 26.5 -63.5t65.5 -26.5z" />
    <glyph glyph-name="oneeighth" unicode="&#x215b;" horiz-adv-x="860" 
d="M207 346h-51v325l-89 -72l-28 38l130 104h38v-395zM115 0l578 739h57l-577 -739h-58zM723 211v-1q40 -12 63.5 -40t23.5 -63q0 -49 -41 -81t-106 -32q-64 0 -105 32t-41 81q0 35 22.5 63t62.5 40v1q-68 29 -68 90q0 45 36 74.5t93 29.5t93.5 -29.5t36.5 -74.5
q0 -30 -18.5 -53.5t-51.5 -36.5zM582 297q0 -28 21.5 -47t59.5 -19q27 -1 47 11.5t27.5 30.5t3.5 38t-20 33q-22 19 -58 19t-58.5 -19t-22.5 -47zM759 112q0 32 -25.5 54t-70.5 22q-46 0 -71 -21t-25 -55q0 -33 27 -54t69 -21t69 21t27 54z" />
    <glyph glyph-name="threeeighths" unicode="&#x215c;" horiz-adv-x="859" 
d="M147 341q-64 0 -125 40l23 40q52 -34 101 -34q41 0 64.5 19.5t23.5 51.5q0 33 -23 51.5t-67 18.5h-47v45h43q39 0 62.5 19t23.5 49t-22 47.5t-56 17.5q-49 0 -92 -37l-25 35q48 48 121 48q54 0 89.5 -29.5t35.5 -74.5q0 -33 -19 -58t-52 -35v-2q37 -8 58 -34.5t21 -62.5
q0 -50 -38.5 -82.5t-99.5 -32.5zM176 0h-59l578 739h57zM517 107q0 35 22.5 63t62.5 40v1q-68 29 -68 90q0 45 36 74.5t93 29.5t93.5 -29.5t36.5 -74.5q0 -30 -18.5 -53.5t-51.5 -36.5v-1q40 -12 63.5 -40t23.5 -63q0 -49 -41 -81t-106 -32q-64 0 -105 32t-41 81zM663 231
q27 -1 47 11.5t27.5 30.5t3.5 38t-20 33q-22 19 -58 19t-58.5 -19t-22.5 -47t21.5 -47t59.5 -19zM759 112q0 32 -25.5 54t-70.5 22q-46 0 -71 -21t-25 -55q0 -33 27 -54t69 -21t69 21t27 54z" />
    <glyph glyph-name="fiveeighths" unicode="&#x215d;" horiz-adv-x="857" 
d="M151 386q42 0 68 24.5t26 62.5q0 37 -24 60.5t-62 23.5q-48 0 -81 -38l-31 21l22 201h201v-44h-164l-13 -117q32 19 72 19q57 0 94 -35t37 -91q0 -58 -40 -95t-103 -37q-68 0 -127 47l24 39q53 -41 101 -41zM115 0l578 739h57l-577 -739h-58zM721 211v-1q40 -12 63.5 -40
t23.5 -63q0 -49 -41 -81t-106 -32q-64 0 -105 32t-41 81q0 35 22.5 63t62.5 40v1q-68 29 -68 90q0 45 36 74.5t93 29.5t93.5 -29.5t36.5 -74.5q0 -30 -18.5 -53.5t-51.5 -36.5zM580 297q0 -28 21.5 -47t59.5 -19q27 -1 47 11.5t27.5 30.5t3.5 38t-20 33q-22 19 -58 19
t-58.5 -19t-22.5 -47zM757 112q0 32 -25.5 54t-70.5 22q-46 0 -71 -21t-25 -55q0 -33 27 -54t69 -21t69 21t27 54z" />
    <glyph glyph-name="seveneighths" unicode="&#x215e;" horiz-adv-x="802" 
d="M125 347h-52l155 350h-197v44h252v-32zM54 0l578 739h57l-576 -739h-59zM665 211v-1q40 -12 63.5 -40t23.5 -63q0 -49 -41 -81t-106 -32q-64 0 -105 32t-41 81q0 35 22.5 63t62.5 40v1q-68 29 -68 90q0 45 36 74.5t93 29.5t93.5 -29.5t36.5 -74.5q0 -30 -18.5 -53.5
t-51.5 -36.5zM524 297q0 -28 21.5 -47t59.5 -19q27 -1 47 11.5t27.5 30.5t3.5 38t-20 33q-22 19 -58 19t-58.5 -19t-22.5 -47zM701 112q0 32 -25.5 54t-70.5 22q-46 0 -71 -21t-25 -55q0 -33 27 -54t69 -21t69 21t27 54z" />
    <glyph glyph-name="partialdiff" unicode="&#x2202;" horiz-adv-x="624" 
d="M298 -13q-108 0 -180 73q-72 74 -72 183q0 107 71 180q70 73 175 73q76 0 138 -42q63 -43 85 -111q-5 124 -78.5 232.5t-203.5 182.5l38 41q76 -42 148 -118q43 -45 75 -96q77 -117 77 -265q0 -145 -77 -240q-76 -93 -196 -93zM295 41q84 0 140 59q56 61 56 144
q0 82 -57 141q-55 58 -139 58q-82 0 -137 -58q-54 -57 -54 -141q0 -86 54 -144q54 -59 137 -59z" />
    <glyph glyph-name="product" unicode="&#x220f;" horiz-adv-x="707" 
d="M36 719h635v-59h-107v-778h-62v778h-297v-778h-61v778h-108v59z" />
    <glyph glyph-name="summation" unicode="&#x2211;" horiz-adv-x="616" 
d="M581 -179h-537v55l226 403l-226 405v55h537v-60h-465l221 -400l-221 -398h465v-60z" />
    <glyph glyph-name="minus" unicode="&#x2212;" horiz-adv-x="586" 
d="M512 311h-438v56h438v-56z" />
    <glyph glyph-name="radical" unicode="&#x221a;" horiz-adv-x="667" 
d="M340 -118h-49l-184 432h-109v57h152l165 -394l301 831h66z" />
    <glyph glyph-name="infinity" unicode="&#x221e;" horiz-adv-x="906" 
d="M677 551q72 0 125 -53q52 -52 52 -127q0 -77 -54 -130q-55 -53 -126 -53q-57 0 -108.5 34.5t-116.5 107.5l-55 -57q-23 -21 -49 -42q-55 -44 -117 -44q-72 0 -125 53q-51 52 -51 128q0 77 53 130q55 53 130 53q50 0 96 -31q45 -31 119 -115q78 82 126 113q50 33 101 33z
M227 238q43 0 83.5 28.5t105.5 100.5q-74 82 -111 106q-38 27 -70 27q-54 0 -92 -39q-37 -37 -37 -94q0 -54 35 -92q36 -37 86 -37zM673 239q51 0 89 38q38 40 38 95t-36 91q-34 37 -88 37q-40 0 -78 -27q-35 -24 -114 -106q60 -67 103.5 -97.5t85.5 -30.5z" />
    <glyph glyph-name="integral" unicode="&#x222b;" horiz-adv-x="417" 
d="M81 -210q-60 0 -104 32l22 46q35 -24 78 -24q47 0 74 35t27 101v659q0 89 42.5 137t112.5 48q59 0 107 -33l-24 -46q-37 25 -80 25q-46 0 -72.5 -33.5t-26.5 -97.5v-659q0 -89 -43.5 -139.5t-112.5 -50.5z" />
    <glyph glyph-name="approxequal" unicode="&#x2248;" horiz-adv-x="638" 
d="M428 397q-43 0 -105 34t-93 34q-35 0 -60 -14.5t-53 -49.5l-40 29q57 89 155 89q44 0 108 -34t91 -34q32 0 53.5 13t46.5 46l40 -31q-54 -82 -143 -82zM430 219q-43 0 -105 34t-93 34q-35 0 -60 -14.5t-53 -49.5l-40 29q57 89 155 89q44 0 108 -34t91 -34q32 0 53.5 13
t46.5 46l40 -31q-54 -82 -143 -82z" />
    <glyph glyph-name="notequal" unicode="&#x2260;" horiz-adv-x="586" 
d="M512 441v-55h-168l-56 -117h224v-55h-250l-57 -121h-54l58 121h-135v55h161l55 117h-216v55h242l58 121h53l-57 -121h142z" />
    <glyph glyph-name="lessequal" unicode="&#x2264;" horiz-adv-x="593" 
d="M511 255v-63l-443 211v32l443 211v-64l-355 -163zM511 126v-55h-448v55h448z" />
    <glyph glyph-name="greaterequal" unicode="&#x2265;" horiz-adv-x="593" 
d="M525 403l-443 -211v63l355 164l-355 163v64l443 -211v-32zM530 71h-448v55h448v-55z" />
    <glyph glyph-name="lozenge" unicode="&#x25ca;" horiz-adv-x="700" 
d="M371 -42h-42l-297 418l297 416h42l297 -416zM101 377l249 -354l249 354l-249 351z" />
    <glyph glyph-name="NULL" horiz-adv-x="0" 
 />
    <glyph glyph-name="Euro.osf" horiz-adv-x="549" 
d="M419 205h-276q22 -77 81.5 -121.5t143.5 -44.5t160 49v-54q-69 -45 -161 -45q-106 0 -183 59q-75 58 -99 157h-74l18 47h48q-2 32 -2 36q0 25 1 32h-60l18 48h50q25 99 102 161q77 61 181 61q111 0 185 -61l-27 -43q-65 54 -156 54q-81 0 -142 -48q-61 -46 -84 -124h339
l-20 -48h-328q-3 -31 0 -68h304z" />
    <glyph glyph-name="I_J.loclNLD" horiz-adv-x="797" 
d="M101 0v739h61v-739h-61zM476 -12q-127 0 -208 98l41 43q64 -83 167 -83q74 0 120 49t46 132v512h62v-508q0 -118 -64 -181q-65 -62 -164 -62z" />
    <glyph glyph-name="Iacute_J.loclNLD" horiz-adv-x="793" 
d="M161 796h-51l59 160h77zM699 796h-51l59 160h77zM104 0v739h61v-739h-61zM479 -12q-127 0 -208 98l41 43q64 -83 167 -83q74 0 120 49t46 132v512h62v-508q0 -118 -64 -181q-65 -62 -164 -62z" />
    <glyph glyph-name="J.loclNLD" horiz-adv-x="543" 
d="M449 796h-51l59 160h77zM229 -12q-127 0 -208 98l41 43q64 -83 167 -83q74 0 120 49t46 132v512h62v-508q0 -118 -64 -181q-65 -62 -164 -62z" />
    <glyph glyph-name="Jacute" horiz-adv-x="543" 
d="M451 796h-51l59 160h77zM229 -12q-127 0 -208 98l41 43q64 -83 167 -83q74 0 120 49t46 132v512h62v-508q0 -118 -64 -181q-65 -62 -164 -62z" />
    <glyph glyph-name="_1" horiz-adv-x="0" 
 />
    <glyph glyph-name="a.ss02" horiz-adv-x="552" 
d="M257 548q97 0 159 -57q62 -56 62 -167v-324h-58v90q-28 -50 -79 -78t-117 -28q-86 0 -139 48q-51 50 -51 123q0 74 56.5 118t159.5 44q132 0 170 12q-2 80 -45 122t-119 42q-94 0 -165 -53l-31 45q32 27 86.5 45t110.5 18zM227 40q87 0 139 60q53 61 53 154v19
q-39 -10 -144 -10q-90 0 -134.5 -25t-44.5 -84q0 -53 35.5 -83.5t95.5 -30.5z" />
    <glyph glyph-name="aacute.ss02" horiz-adv-x="552" 
d="M288 781h77l-85 -160h-51zM257 548q97 0 159 -57q62 -56 62 -167v-324h-58v90q-28 -50 -79 -78t-117 -28q-86 0 -139 48q-51 50 -51 123q0 74 56.5 118t159.5 44q132 0 170 12q-2 80 -45 122t-119 42q-94 0 -165 -53l-31 45q32 27 86.5 45t110.5 18zM227 40q87 0 139 60
q53 61 53 154v19q-39 -10 -144 -10q-90 0 -134.5 -25t-44.5 -84q0 -53 35.5 -83.5t95.5 -30.5z" />
    <glyph glyph-name="abreve.ss02" horiz-adv-x="552" 
d="M104 776h54q1 -56 29.5 -84t78.5 -28q51 0 79.5 28t29.5 84h55q-1 -73 -45.5 -116.5t-118.5 -43.5t-117.5 43.5t-44.5 116.5zM257 548q97 0 159 -57q62 -56 62 -167v-324h-58v90q-28 -50 -79 -78t-117 -28q-86 0 -139 48q-51 50 -51 123q0 74 56.5 118t159.5 44
q132 0 170 12q-2 80 -45 122t-119 42q-94 0 -165 -53l-31 45q32 27 86.5 45t110.5 18zM227 40q87 0 139 60q53 61 53 154v19q-39 -10 -144 -10q-90 0 -134.5 -25t-44.5 -84q0 -53 35.5 -83.5t95.5 -30.5z" />
    <glyph glyph-name="acircumflex.ss02" horiz-adv-x="552" 
d="M358 620l-92 104l-92 -104h-64l138 155h37l138 -155h-65zM257 548q97 0 159 -57q62 -56 62 -167v-324h-58v90q-28 -50 -79 -78t-117 -28q-86 0 -139 48q-51 50 -51 123q0 74 56.5 118t159.5 44q132 0 170 12q-2 80 -45 122t-119 42q-94 0 -165 -53l-31 45q32 27 86.5 45
t110.5 18zM227 40q87 0 139 60q53 61 53 154v19q-39 -10 -144 -10q-90 0 -134.5 -25t-44.5 -84q0 -53 35.5 -83.5t95.5 -30.5z" />
    <glyph glyph-name="acute.case" horiz-adv-x="310" 
d="M105 796h-51l59 160h77z" />
    <glyph glyph-name="adieresis.ss02" horiz-adv-x="552" 
d="M122 680q0 21 16 37t39 16t38.5 -16t15.5 -37q0 -23 -15.5 -39t-38.5 -16t-39 16t-16 39zM306 680q0 21 16 37t39 16t39 -16t16 -37q0 -23 -16 -39t-39 -16t-39 16t-16 39zM257 548q97 0 159 -57q62 -56 62 -167v-324h-58v90q-28 -50 -79 -78t-117 -28q-86 0 -139 48
q-51 50 -51 123q0 74 56.5 118t159.5 44q132 0 170 12q-2 80 -45 122t-119 42q-94 0 -165 -53l-31 45q32 27 86.5 45t110.5 18zM227 40q87 0 139 60q53 61 53 154v19q-39 -10 -144 -10q-90 0 -134.5 -25t-44.5 -84q0 -53 35.5 -83.5t95.5 -30.5z" />
    <glyph glyph-name="agrave.ss02" horiz-adv-x="552" 
d="M243 781l59 -160h-51l-85 160h77zM257 548q97 0 159 -57q62 -56 62 -167v-324h-58v90q-28 -50 -79 -78t-117 -28q-86 0 -139 48q-51 50 -51 123q0 74 56.5 118t159.5 44q132 0 170 12q-2 80 -45 122t-119 42q-94 0 -165 -53l-31 45q32 27 86.5 45t110.5 18zM227 40
q87 0 139 60q53 61 53 154v19q-39 -10 -144 -10q-90 0 -134.5 -25t-44.5 -84q0 -53 35.5 -83.5t95.5 -30.5z" />
    <glyph glyph-name="amacron.ss02" horiz-adv-x="552" 
d="M113 712h302v-54l-302 -1v55zM257 548q97 0 159 -57q62 -56 62 -167v-324h-58v90q-28 -50 -79 -78t-117 -28q-86 0 -139 48q-51 50 -51 123q0 74 56.5 118t159.5 44q132 0 170 12q-2 80 -45 122t-119 42q-94 0 -165 -53l-31 45q32 27 86.5 45t110.5 18zM227 40
q87 0 139 60q53 61 53 154v19q-39 -10 -144 -10q-90 0 -134.5 -25t-44.5 -84q0 -53 35.5 -83.5t95.5 -30.5z" />
    <glyph glyph-name="aogonek.ss02" horiz-adv-x="553" 
d="M469 -188l24 -41q-42 -30 -89 -30q-48 0 -78 29.5t-30 76.5q0 93 124 157v86q-28 -50 -79 -78t-117 -28q-86 0 -139 48q-51 50 -51 123q0 74 56.5 118t159.5 44q132 0 170 12q-2 80 -45 122t-119 42q-94 0 -165 -53l-31 45q32 27 86.5 45t110.5 18q97 0 159 -57
q62 -56 62 -167v-324h1q-60 -27 -95 -66t-35 -78q0 -27 18 -45.5t44 -18.5q29 0 58 20zM227 40q87 0 139 60q53 61 53 154v19q-39 -10 -144 -10q-90 0 -134.5 -25t-44.5 -84q0 -53 35.5 -83.5t95.5 -30.5z" />
    <glyph glyph-name="aring.ss02" horiz-adv-x="552" 
d="M268 604q-46 0 -78.5 31.5t-32.5 76.5q0 46 32.5 78t78.5 32q47 0 79 -32q33 -32 33 -78q0 -45 -32.5 -76.5t-79.5 -31.5zM317 762q-20 20 -49 20t-49 -20t-20 -49t20 -49t49 -20t49 20q21 20 21 49t-21 49zM257 548q97 0 159 -57q62 -56 62 -167v-324h-58v90
q-28 -50 -79 -78t-117 -28q-86 0 -139 48q-51 50 -51 123q0 74 56.5 118t159.5 44q132 0 170 12q-2 80 -45 122t-119 42q-94 0 -165 -53l-31 45q32 27 86.5 45t110.5 18zM227 40q87 0 139 60q53 61 53 154v19q-39 -10 -144 -10q-90 0 -134.5 -25t-44.5 -84q0 -53 35.5 -83.5
t95.5 -30.5z" />
    <glyph glyph-name="at.case" horiz-adv-x="960" 
d="M619 498v60h53v-279q0 -38 18.5 -59.5t48.5 -21.5q55 0 92 60q38 61 38 146q0 144 -112 249q-111 105 -265 105q-162 0 -274 -117q-113 -116 -113 -282q0 -167 117 -282q116 -115 287 -115q80 0 155 28t130 78l30 -40q-56 -52 -141 -84.5t-178 -32.5q-123 -3 -229.5 58.5
t-168 165.5t-58.5 223q-3 119 57 224.5t163.5 167t221.5 59.5q178 0 305 -121t127 -286q0 -107 -56 -181q-55 -72 -133 -72q-44 0 -74 25t-37 62q-55 -87 -161 -87q-83 0 -140 60q-56 62 -56 150q0 91 58 152q59 62 143 62q47 0 87.5 -20.5t64.5 -54.5zM469 198q63 0 107 47
t44 115q0 70 -43 116q-44 47 -106 47q-63 0 -107 -47t-44 -116q0 -70 42 -116t107 -46z" />
    <glyph glyph-name="atilde.ss02" horiz-adv-x="552" 
d="M209 683q-40 0 -63 -50l-37 17q11 37 38.5 60t63.5 23q31 0 69 -27q40 -26 59 -26q20 0 37 14.5t24 35.5l36 -16q-10 -37 -37 -60t-62 -23q-32 0 -70 26t-58 26zM257 548q97 0 159 -57q62 -56 62 -167v-324h-58v90q-28 -50 -79 -78t-117 -28q-86 0 -139 48
q-51 50 -51 123q0 74 56.5 118t159.5 44q132 0 170 12q-2 80 -45 122t-119 42q-94 0 -165 -53l-31 45q32 27 86.5 45t110.5 18zM227 40q87 0 139 60q53 61 53 154v19q-39 -10 -144 -10q-90 0 -134.5 -25t-44.5 -84q0 -53 35.5 -83.5t95.5 -30.5z" />
    <glyph glyph-name="backslash.case" horiz-adv-x="515" 
d="M81 739l407 -739h-56l-407 739h56z" />
    <glyph glyph-name="braceleft.case" horiz-adv-x="347" 
d="M330 829h-36q-112 0 -112 -120q0 -39 3 -118q4 -71 4 -103q0 -94 -84 -129q84 -35 84 -129q0 -33 -4 -104q-3 -80 -3 -117q0 -120 112 -120h36v-51h-39q-167 0 -167 174q0 42 3 121q4 71 4 100q0 90 -104 105v42q104 17 104 105q0 28 -4 99q-3 80 -3 123q0 173 167 173
h39v-51z" />
    <glyph glyph-name="braceright.case" horiz-adv-x="348" 
d="M216 485q0 -89 105 -105v-42q-105 -16 -105 -105q0 -21 3 -100q4 -71 4 -121q0 -174 -167 -174h-38v51h36q111 0 111 120q0 46 -4 117q-3 79 -3 104q0 96 85 129q-85 34 -85 129q0 24 3 103q4 71 4 118q0 120 -111 120h-36v51h38q167 0 167 -173q0 -52 -4 -123
q-3 -80 -3 -99z" />
    <glyph glyph-name="bracketleft.case" horiz-adv-x="369" 
d="M355 -157h-254v1038h254v-51h-193v-936h193v-51z" />
    <glyph glyph-name="bracketright.case" horiz-adv-x="369" 
d="M268 -157h-254v51h193v936h-193v51h254v-1038z" />
    <glyph glyph-name="breve.case" horiz-adv-x="441" 
d="M52 956h54q1 -56 29.5 -84t78.5 -28q51 0 79.5 28t29.5 84h55q-1 -73 -45.5 -116.5t-118.5 -43.5t-117.5 43.5t-44.5 116.5z" />
    <glyph glyph-name="brevecombcy" horiz-adv-x="0" 
d="M-218 606q-104 0 -179 91l34 37q66 -77 145 -77t145 77l35 -37q-78 -91 -180 -91z" />
    <glyph glyph-name="caron.alt" horiz-adv-x="299" 
d="M89 625h-50l56 157h70z" />
    <glyph glyph-name="caron.case" horiz-adv-x="477" 
d="M218 792l-138 155h64l92 -104l92 104h65l-138 -155h-37z" />
    <glyph glyph-name="cedilla.case" horiz-adv-x="310" 
d="M184 -55q43 0 70 -23t27 -63q0 -46 -34.5 -76.5t-92.5 -30.5q-50 0 -102 24l17 42q43 -20 82 -20q35 0 57 18t22 43q0 21 -15.5 34t-45.5 13h-60l-8 17l37 97l50 -1l-31 -76q24 2 27 2z" />
    <glyph glyph-name="circumflex.case" horiz-adv-x="478" 
d="M115 798h-64l138 155h37l138 -155h-65l-92 104z" />
    <glyph glyph-name="colon.case" horiz-adv-x="245" 
d="M123 459q-21 0 -35 14t-14 34t14 33.5t35 13.5q20 0 34 -13.5t14 -33.5q0 -21 -14 -34.5t-34 -13.5zM123 143q-21 0 -35 14t-14 34t14 33.5t35 13.5q20 0 34 -13.5t14 -33.5q0 -21 -14 -34.5t-34 -13.5z" />
    <glyph glyph-name="comma.ss03" horiz-adv-x="178" 
d="M15 -175l70 279h59l-87 -279h-42z" />
    <glyph glyph-name="commaccent" horiz-adv-x="227" 
d="M126 -71q23 0 38.5 -17t15.5 -42q0 -77 -106 -144l-19 28q65 46 80 85q-7 -4 -18 -4q-17 0 -30 13t-13 31q0 21 15 35.5t37 14.5z" />
    <glyph glyph-name="commaccent.case" horiz-adv-x="163" 
d="M126 -71q23 0 38.5 -17t15.5 -42q0 -77 -106 -144l-19 28q65 46 80 85q-7 -4 -18 -4q-17 0 -30 13t-13 31q0 21 15 35.5t37 14.5z" />
    <glyph glyph-name="dieresis.case" horiz-adv-x="392" 
d="M54 870q0 20 15 35.5t37 15.5t37 -15t15 -36q0 -23 -15 -38t-37 -15t-37 15.5t-15 37.5zM230 870q0 21 15 36t37 15t37.5 -15t15.5 -36q0 -22 -15.5 -37.5t-37.5 -15.5t-37 15t-15 38z" />
    <glyph glyph-name="dollar.osf" horiz-adv-x="475" 
d="M448 152q0 -66 -50 -110q-51 -45 -126 -52v-111h-54v110q-64 5 -115 37t-78 86l46 32q51 -101 170 -101q65 0 105.5 30.5t40.5 77.5q0 55 -84 92q-14 7 -67 27l-68 27q-108 49 -108 141q0 60 44 101.5t118 48.5v104h56v-105q98 -11 156 -85l-42 -36q-55 70 -145 70
q-57 0 -92.5 -26t-35.5 -70q0 -58 77 -93q26 -12 77 -32q49 -19 72 -29q103 -46 103 -134z" />
    <glyph glyph-name="dotaccent.case" horiz-adv-x="302" 
d="M104 817q-22 0 -37 14.5t-15 36.5t15 36.5t37 14.5q21 0 36 -14.5t15 -36.5t-15 -36.5t-36 -14.5z" />
    <glyph glyph-name="eight.dnom" horiz-adv-x="360" 
d="M34 107q0 35 22.5 63t62.5 40v1q-68 29 -68 90q0 45 36 74.5t93 29.5t93.5 -29.5t36.5 -74.5q0 -30 -18.5 -53.5t-51.5 -36.5v-1q40 -12 63.5 -40t23.5 -63q0 -49 -41 -81t-106 -32q-64 0 -105 32t-41 81zM180 231q27 -1 47 11.5t27.5 30.5t3.5 38t-20 33q-22 19 -58 19
t-58.5 -19t-22.5 -47t21.5 -47t59.5 -19zM276 112q0 32 -25.5 54t-70.5 22q-46 0 -71 -21t-25 -55q0 -33 27 -54t69 -21t69 21t27 54z" />
    <glyph glyph-name="eight.lf" horiz-adv-x="609" 
d="M305 -12q-112 0 -182 60t-70 149q0 67 41 120t112 73v2q-59 24 -91.5 69.5t-32.5 100.5q0 81 62 135q62 55 161 55q98 0 159 -55q62 -54 62 -135q0 -55 -32.5 -101t-91.5 -69v-3q71 -20 112.5 -72.5t41.5 -119.5q0 -89 -71 -149t-180 -60zM304 416q78 0 121 43t43 100
q0 58 -46 98q-46 41 -117 41q-72 0 -119 -41q-45 -41 -45 -98t43 -100t120 -43zM496 203q0 65 -49 111q-49 48 -142 48t-143 -48q-50 -47 -50 -112q0 -68 54 -114q56 -45 139 -45q85 0 137 45q54 46 54 115z" />
    <glyph glyph-name="eight.num" horiz-adv-x="360" 
d="M34 454q0 35 22.5 63t62.5 40v1q-68 29 -68 90q0 45 36 74.5t93 29.5t93.5 -29.5t36.5 -74.5q0 -30 -18.5 -53.5t-51.5 -36.5v-1q40 -12 63.5 -40t23.5 -63q0 -49 -41 -81t-106 -32q-64 0 -105 32t-41 81zM180 578q27 -1 47 11.5t27.5 30.5t3.5 38t-20 33q-22 19 -58 19
t-58.5 -19t-22.5 -47t21.5 -47t59.5 -19zM276 459q0 32 -25.5 54t-70.5 22q-46 0 -71 -21t-25 -55q0 -33 27 -54t69 -21t69 21t27 54z" />
    <glyph glyph-name="eight.osf" horiz-adv-x="603" 
d="M50 189q0 63 41.5 114t111.5 69v2q-59 23 -91.5 66.5t-32.5 95.5q0 77 62 130q62 52 161 52q98 0 159 -52q62 -53 62 -129q0 -52 -32.5 -96t-91.5 -67v-3q71 -18 112.5 -68t41.5 -114q0 -85 -71 -144q-70 -57 -180 -57t-181 57q-71 59 -71 144zM301 398q77 0 121 41
q43 40 43 95q0 56 -46 93q-45 39 -117 39t-119 -39q-45 -37 -45 -93q0 -55 43 -95q44 -41 120 -41zM493 194q0 61 -49 106q-48 45 -142 45t-143 -45q-50 -45 -50 -107q0 -65 54 -108q55 -43 139 -43q85 0 137 43q54 43 54 109z" />
    <glyph glyph-name="eight.tf" horiz-adv-x="572" 
d="M286 -12q-111 0 -182 60q-70 60 -70 149q0 67 41 120t112 73v2q-59 24 -91.5 69.5t-32.5 100.5q0 81 62 135q62 55 161 55q98 0 159 -55q62 -54 62 -135q0 -55 -32.5 -101t-91.5 -69v-3q71 -20 112.5 -72.5t41.5 -119.5q0 -89 -71 -149q-70 -60 -180 -60zM285 416
q78 0 121 43t43 100q0 58 -46 98q-46 41 -117 41q-72 0 -119 -41q-45 -41 -45 -98t43 -100t120 -43zM477 203q0 65 -49 111q-50 48 -142 48q-94 0 -143 -48q-50 -47 -50 -112q0 -68 54 -114q55 -45 139 -45t137 45q54 46 54 115z" />
    <glyph glyph-name="eight_fraction_nine" horiz-adv-x="824" 
d="M31 454q0 35 22.5 63t62.5 40v1q-68 29 -68 90q0 45 36 74.5t93 29.5t93.5 -29.5t36.5 -74.5q0 -30 -18.5 -53.5t-51.5 -36.5v-1q40 -12 63.5 -40t23.5 -63q0 -49 -41 -81t-106 -32q-64 0 -105 32t-41 81zM158 0h-59l578 739h58zM177 578q27 -1 47 11.5t27.5 30.5t3.5 38
t-20 33q-22 19 -58 19t-58.5 -19t-22.5 -47t21.5 -47t59.5 -19zM273 459q0 32 -25.5 54t-70.5 22q-46 0 -71 -21t-25 -55q0 -33 27 -54t69 -21t69 21t27 54zM612 -6q-60 0 -104 33l20 36q38 -27 83 -27q63 0 91 52q31 53 29 127h-1q-11 -32 -41.5 -52t-68.5 -20
q-56 0 -92.5 36t-36.5 92q0 58 39 96t99 38q70 0 108.5 -53t38.5 -141q0 -91 -41 -155q-41 -62 -123 -62zM627 183q37 -2 63.5 26t26.5 63t-26 64q-25 27 -64 27q-38 0 -63 -25.5t-25 -65.5q0 -38 25 -63.5t63 -25.5z" />
    <glyph glyph-name="emdash.case" horiz-adv-x="1025" 
d="M951 340h-876v58h876v-58z" />
    <glyph glyph-name="endash.case" horiz-adv-x="706" 
d="M632 340h-557v58h557v-58z" />
    <glyph glyph-name="exclamdown.case" horiz-adv-x="263" 
d="M143 757q20 0 34 -13.5t14 -34.5q0 -20 -14 -33.5t-34 -13.5q-21 0 -35 13.5t-14 33.5t14 34t35 14zM110 3l3 578h57l4 -578h-64z" />
    <glyph glyph-name="five.dnom" horiz-adv-x="328" 
d="M164 252q57 0 94 -35t37 -91q0 -58 -40 -95t-103 -37q-68 0 -127 47l24 39q53 -41 101 -41q42 0 68 24.5t26 62.5q0 37 -24 60.5t-62 23.5q-48 0 -81 -38l-31 21l22 201h201v-44h-164l-13 -117q32 19 72 19z" />
    <glyph glyph-name="five.lf" horiz-adv-x="559" 
d="M281 474q101 0 168 -66t67 -173q0 -110 -72 -179q-71 -68 -180 -68q-121 0 -222 91l33 46q89 -80 187 -80q83 0 138 53q54 52 54 137q0 82 -50 132t-128 50q-94 0 -157 -78l-44 22l38 378h353v-55h-302l-28 -259q58 49 145 49z" />
    <glyph glyph-name="five.num" horiz-adv-x="328" 
d="M164 599q57 0 94 -35t37 -91q0 -58 -40 -95t-103 -37q-68 0 -127 47l24 39q53 -41 101 -41q42 0 68 24.5t26 62.5q0 37 -24 60.5t-62 23.5q-48 0 -81 -38l-31 21l22 201h201v-44h-164l-13 -117q32 19 72 19z" />
    <glyph glyph-name="five.osf" horiz-adv-x="537" 
d="M270 333q100 0 165 -61q67 -60 67 -158q0 -101 -71 -164q-70 -63 -178 -63q-119 0 -220 84l32 43q88 -73 186 -73q84 0 136 49q53 48 53 124q0 72 -50 119q-49 46 -126 46q-93 0 -154 -70l-44 20l37 346h350v-53h-300l-27 -234q57 45 144 45z" />
    <glyph glyph-name="five.tf" horiz-adv-x="572" 
d="M288 474q100 0 168 -66q67 -66 67 -173q0 -110 -72 -179q-71 -68 -180 -68q-121 0 -222 91l33 46q89 -80 187 -80q83 0 138 53q54 52 54 137q0 82 -50 132t-128 50q-94 0 -157 -78l-44 22l38 378h353v-55h-302l-28 -259q58 49 145 49z" />
    <glyph glyph-name="five_fraction_nine" horiz-adv-x="822" 
d="M153 386q42 0 68 24.5t26 62.5q0 37 -24 60.5t-62 23.5q-48 0 -81 -38l-31 21l22 201h201v-44h-164l-13 -117q32 19 72 19q57 0 94 -35t37 -91q0 -58 -40 -95t-103 -37q-68 0 -127 47l24 39q53 -41 101 -41zM97 0l578 739h57l-577 -739h-58zM627 405q70 0 108.5 -53
t38.5 -141q0 -91 -41 -155q-41 -62 -123 -62q-60 0 -104 33l20 36q38 -27 83 -27q63 0 91 52q31 53 29 127h-1q-11 -32 -41.5 -52t-68.5 -20q-56 0 -92.5 36t-36.5 92q0 58 39 96t99 38zM625 183q37 -2 63.5 26t26.5 63t-26 64q-25 27 -64 27q-38 0 -63 -25.5t-25 -65.5
q0 -38 25 -63.5t63 -25.5z" />
    <glyph glyph-name="five_fraction_seven" horiz-adv-x="830" 
d="M157 386q42 0 68 24.5t26 62.5q0 37 -24 60.5t-62 23.5q-48 0 -81 -38l-31 21l22 201h201v-44h-164l-13 -117q32 19 72 19q57 0 94 -35t37 -91q0 -58 -40 -95t-103 -37q-68 0 -127 47l24 39q53 -41 101 -41zM110 0l578 739h57l-576 -739h-59zM536 350v44h252v-32
l-158 -362h-52l155 350h-197z" />
    <glyph glyph-name="four.dnom" horiz-adv-x="347" 
d="M261 143h45v-42h-45v-101h-46v101h-188l-11 30l213 265h32v-253zM215 312l-136 -169h136v169z" />
    <glyph glyph-name="four.lf" horiz-adv-x="566" 
d="M442 253h83v-56h-83v-197h-61v197h-357l-10 38l391 504h37v-486zM381 618l-284 -365h284v365z" />
    <glyph glyph-name="four.num" horiz-adv-x="347" 
d="M261 490h45v-42h-45v-101h-46v101h-188l-11 30l213 265h32v-253zM215 659l-136 -169h136v169z" />
    <glyph glyph-name="four.osf" horiz-adv-x="569" 
d="M446 123h84v-52h-84v-169h-60v169h-353l-10 36l387 471h36v-455zM386 464l-280 -341h280v341z" />
    <glyph glyph-name="four.tf" horiz-adv-x="572" 
d="M455 253h83v-56h-83v-197h-61v197h-357l-10 38l391 504h37v-486zM394 618l-284 -365h284v365z" />
    <glyph glyph-name="four_fraction_nine" horiz-adv-x="878" 
d="M266 347h-46v101h-188l-11 30l213 265h32v-253h45v-42h-45v-101zM143 0l578 739h57l-576 -739h-59zM220 659l-136 -169h136v169zM675 405q70 0 108.5 -53t38.5 -141q0 -91 -41 -155q-41 -62 -123 -62q-60 0 -104 33l20 36q38 -27 83 -27q63 0 91 52q31 53 29 127h-1
q-11 -32 -41.5 -52t-68.5 -20q-56 0 -92.5 36t-36.5 92q0 58 39 96t99 38zM673 183q37 -2 63.5 26t26.5 63t-26 64q-25 27 -64 27q-38 0 -63 -25.5t-25 -65.5q0 -38 25 -63.5t63 -25.5z" />
    <glyph glyph-name="four_fraction_seven" horiz-adv-x="844" 
d="M267 347h-46v101h-188l-11 30l213 265h32v-253h45v-42h-45v-101zM129 0l578 739h58l-577 -739h-59zM221 659l-136 -169h136v169zM547 350v44h252v-32l-158 -362h-52l155 350h-197z" />
    <glyph glyph-name="grave.case" horiz-adv-x="294" 
d="M127 956l59 -160h-51l-85 160h77z" />
    <glyph glyph-name="guillemotleft.case" horiz-adv-x="503" 
d="M258 167h-60l-145 203l145 203h60l-145 -203zM436 167h-60l-144 203l144 203h60l-144 -203z" />
    <glyph glyph-name="guillemotright.case" horiz-adv-x="503" 
d="M272 370l-144 -203h-61l144 203l-144 203h61zM451 370l-145 -203h-60l144 203l-144 203h60z" />
    <glyph glyph-name="guilsinglleft.case" horiz-adv-x="325" 
d="M258 167h-60l-145 203l145 203h60l-145 -203z" />
    <glyph glyph-name="guilsinglright.case" horiz-adv-x="325" 
d="M272 370l-145 -203h-60l144 203l-144 203h60z" />
    <glyph glyph-name="hungarumlaut.case" horiz-adv-x="502" 
d="M95 796h-45l45 160h76zM249 796h-46l58 160h76z" />
    <glyph glyph-name="hyphen.case" horiz-adv-x="531" 
d="M457 340h-382v58h382v-58z" />
    <glyph glyph-name="i.loclTRK" horiz-adv-x="223" 
d="M110 619q-22 0 -37 14.5t-15 36.5t15 36.5t37 14.5q21 0 36 -14.5t15 -36.5t-15 -36.5t-36 -14.5zM137 535v-535h-60v535h60z" />
    <glyph glyph-name="i_j.loclNLD" horiz-adv-x="501" 
d="M109 619q-22 0 -37 14.5t-15 36.5t15 36.5t37 14.5q21 0 36 -14.5t15 -36.5t-15 -36.5t-36 -14.5zM366 619q-22 0 -37 14.5t-15 36.5t15 36.5t37 14.5q21 0 36 -14.5t15 -36.5t-15 -36.5t-36 -14.5zM137 535v-535h-60v535h60zM237 -228q-57 0 -95 23l15 51q44 -19 76 -19
q50 0 76 31t26 89v588h60v-584q0 -86 -42 -132.5t-116 -46.5z" />
    <glyph glyph-name="iacute_j.loclNLD" horiz-adv-x="477" 
d="M139 621h-51l59 160h77zM393 621h-51l59 160h77zM141 535v-535h-60v535h60zM237 -228q-57 0 -95 23l15 51q44 -19 76 -19q50 0 76 31t26 89v588h60v-584q0 -86 -42 -132.5t-116 -46.5z" />
    <glyph glyph-name="j.loclNLD" horiz-adv-x="247" 
d="M136 619q-22 0 -37 14.5t-15 36.5t15 36.5t37 14.5q21 0 36 -14.5t15 -36.5t-15 -36.5t-36 -14.5zM7 -228q-57 0 -95 23l15 51q44 -19 76 -19q50 0 76 31t26 89v588h60v-584q0 -86 -42 -132.5t-116 -46.5z" />
    <glyph glyph-name="jacute" horiz-adv-x="247" 
d="M160 621h-51l59 160h77zM7 -228q-57 0 -95 23l15 51q44 -19 76 -19q50 0 76 31t26 89v588h60v-584q0 -86 -42 -132.5t-116 -46.5z" />
    <glyph glyph-name="macron.case" horiz-adv-x="474" 
d="M383 840l-332 -1v55h332v-54z" />
    <glyph glyph-name="nine.dnom" horiz-adv-x="353" 
d="M154 -6q-61 0 -104 33l20 36q38 -27 83 -27q63 0 91 52q31 53 29 127h-1q-11 -32 -41.5 -52t-68.5 -20q-56 0 -92.5 36t-36.5 92q0 58 39 96t99 38q70 0 108.5 -53t38.5 -141q0 -91 -41 -155q-41 -62 -123 -62zM169 183q37 -2 63.5 26t26.5 63t-26 64q-25 27 -64 27
q-38 0 -63 -25.5t-25 -65.5q0 -38 25 -63.5t63 -25.5z" />
    <glyph glyph-name="nine.lf" horiz-adv-x="600" 
d="M261 -10q-109 0 -180 61l27 47q65 -53 151 -53q64 0 111.5 33.5t72 89.5t34.5 118.5t8 131.5h-3q-17 -65 -76 -109q-58 -43 -132 -43q-96 0 -164 68q-66 68 -66 171q0 105 68 176t174 71q125 0 191 -100q66 -99 66 -259q0 -80 -16.5 -150.5t-49 -128t-88.5 -91
t-128 -33.5zM281 321q74 0 128 54q55 55 55 132q0 75 -53 133q-52 57 -130 57q-74 0 -125 -55q-51 -54 -51 -136q0 -80 50 -133q51 -52 126 -52z" />
    <glyph glyph-name="nine.num" horiz-adv-x="353" 
d="M154 341q-61 0 -104 33l20 36q37 -27 83 -27q63 0 91 52q31 53 29 127h-1q-11 -32 -41.5 -52t-68.5 -20q-56 0 -92.5 36t-36.5 92q0 58 39 96t99 38q70 0 108.5 -53t38.5 -141q0 -91 -41 -155q-41 -62 -123 -62zM169 530q37 -2 63.5 26t26.5 63t-26 64q-25 27 -64 27
q-38 0 -63 -25.5t-25 -65.5q0 -38 25 -63.5t63 -25.5z" />
    <glyph glyph-name="nine.osf" horiz-adv-x="580" 
d="M251 -112q-107 0 -178 56l27 47q67 -50 149 -50q62 0 109.5 30t71.5 82q48 98 43 231h-3q-16 -58 -76 -99q-58 -39 -130 -39q-98 0 -162 63q-65 63 -65 159q0 101 67 165q68 65 172 65q124 0 189 -93q66 -92 66 -242q0 -59 -10 -113t-31.5 -102t-53.5 -83.5t-79.5 -56
t-105.5 -20.5zM271 199q72 0 127 50q54 49 54 121q0 69 -53 122q-52 52 -127 52q-73 0 -125 -50q-50 -50 -50 -125q0 -72 50 -122q50 -48 124 -48z" />
    <glyph glyph-name="nine.tf" horiz-adv-x="572" 
d="M247 -10q-109 0 -180 61l27 47q65 -53 151 -53q64 0 111.5 33.5t72 89.5t34.5 118.5t8 131.5h-3q-17 -65 -76 -109q-58 -43 -132 -43q-96 0 -164 68q-66 68 -66 171q0 105 68 176t174 71q125 0 191 -100q66 -99 66 -259q0 -80 -16.5 -150.5t-49 -128t-88.5 -91
t-128 -33.5zM267 321q74 0 128 54q55 55 55 132q0 75 -53 133q-53 57 -130 57q-74 0 -125 -55q-51 -54 -51 -136q0 -80 50 -133q51 -52 126 -52z" />
    <glyph glyph-name="ogonek.case" horiz-adv-x="323" 
d="M225 -188l24 -41q-42 -30 -89 -30q-48 0 -78 29.5t-30 76.5q0 102 148 169l35 -16q-60 -27 -95 -66t-35 -78q0 -27 18 -45.5t44 -18.5q29 0 58 20z" />
    <glyph glyph-name="one.dnom" horiz-adv-x="258" 
d="M24 290l130 104h38v-395h-51v325l-89 -72z" />
    <glyph glyph-name="one.lf" horiz-adv-x="369" 
d="M9 560l211 179h48v-739h-62v653l-161 -136z" />
    <glyph glyph-name="one.num" horiz-adv-x="258" 
d="M24 637l130 104h38v-394h-51v324l-89 -72z" />
    <glyph glyph-name="one.numalt" horiz-adv-x="328" 
d="M37 637l130 104h38v-395h-51v325l-89 -72z" />
    <glyph glyph-name="one.osf" horiz-adv-x="437" 
d="M281 580v-527h143v-53h-391v53h189v451l-182 -122l-32 47l225 151h48z" />
    <glyph glyph-name="one.tf" horiz-adv-x="572" 
d="M345 739v-683h165v-57h-399v57h172v597l-161 -136l-36 43l211 179h48z" />
    <glyph glyph-name="parenleft.case" horiz-adv-x="373" 
d="M366 -108l-27 -46q-140 77 -216 211t-76 303q0 170 76 303q77 136 216 212l27 -47q-124 -74 -190.5 -195t-66.5 -273t66.5 -273t190.5 -195z" />
    <glyph glyph-name="parenright.case" horiz-adv-x="373" 
d="M33 -154l-26 46q124 74 190 195t66 273q0 153 -66 273.5t-190 194.5l26 47q139 -76 216 -212q77 -134 77 -303q0 -167 -77 -303q-76 -134 -216 -211z" />
    <glyph glyph-name="periodcentered.case" horiz-adv-x="236" 
d="M118 318q-21 0 -35 14t-14 34t14 33.5t35 13.5q20 0 34 -13.5t14 -33.5q0 -21 -14 -34.5t-34 -13.5z" />
    <glyph glyph-name="questiondown.case" horiz-adv-x="496" 
d="M278 757q21 0 35.5 -14t14.5 -34t-14.5 -33.5t-35.5 -13.5q-19 0 -33 13.5t-14 33.5q0 21 14 34.5t33 13.5zM251 584h56v-75q0 -74 -71 -138q-4 -3 -33.5 -30t-38 -37l-26.5 -32.5t-24.5 -43t-6.5 -43.5q0 -58 44 -99q43 -39 111 -39q94 0 166 84l39 -39q-38 -47 -93 -74
t-114 -27q-87 0 -151 53q-62 54 -62 141q0 84 72 151l35 31.5t37.5 35t28.5 31t24 37.5t7 36v77z" />
    <glyph glyph-name="quotedblbase.ss03" horiz-adv-x="404" 
d="M32 -146l70 279h59l-87 -279h-42zM244 -146l70 279h59l-87 -279h-42z" />
    <glyph glyph-name="quotedblleft.ss03" horiz-adv-x="407" 
d="M179 828l-70 -279h-59l87 279h42zM392 828l-70 -279h-59l87 279h42z" />
    <glyph glyph-name="quotedblright.ss03" horiz-adv-x="413" 
d="M53 550l70 279h59l-87 -279h-42zM266 550l70 279h59l-87 -279h-42z" />
    <glyph glyph-name="quoteleft.ss03" horiz-adv-x="220" 
d="M180 828l-70 -279h-59l87 279h42z" />
    <glyph glyph-name="quoteright.ss03" horiz-adv-x="218" 
d="M56 550l70 279h59l-87 -279h-42z" />
    <glyph glyph-name="quotesinglbase.ss03" horiz-adv-x="224" 
d="M28 -146l70 279h59l-87 -279h-42z" />
    <glyph glyph-name="ring.case" horiz-adv-x="320" 
d="M163 782q-46 0 -78.5 31.5t-32.5 76.5q0 46 32.5 78t78.5 32q47 0 79 -32q33 -32 33 -78q0 -45 -32.5 -76.5t-79.5 -31.5zM114 842q20 -20 49 -20t49 20q21 20 21 49t-21 49q-20 20 -49 20t-49 -20t-20 -49t20 -49z" />
    <glyph glyph-name="semicolon.case" horiz-adv-x="270" 
d="M142 459q-36 -2 -46 33q-10 34 13 54q13 12 33 10q21 0 35.5 -13.5t14.5 -34.5t-14.5 -35t-35.5 -14zM141 250q23 0 38 -17t15 -42q0 -76 -105 -142l-19 27q65 46 79 84q-8 -4 -17 -4q-17 0 -30 13.5t-13 31.5q0 20 15 34.5t37 14.5z" />
    <glyph glyph-name="semicolon.case.ss03" horiz-adv-x="270" 
d="M142 459q-36 -2 -46 33q-10 34 13 54q13 12 33 10q21 0 35.5 -13.5t14.5 -34.5t-14.5 -35t-35.5 -14zM38 -117l70 279h59l-87 -279h-42z" />
    <glyph glyph-name="semicolon.ss03" horiz-adv-x="248" 
d="M136 366q-36 -2 -46 33q-10 34 13 54q13 12 33 10q21 0 35.5 -13.5t14.5 -34.5t-14.5 -35t-35.5 -14zM36 -175l70 279h59l-87 -279h-42z" />
    <glyph glyph-name="seven.dnom" horiz-adv-x="294" 
d="M24 350v44h252v-32l-158 -362h-52l155 350h-197z" />
    <glyph glyph-name="seven.lf" horiz-adv-x="487" 
d="M19 684v55h450v-38l-295 -701h-66l294 684h-383z" />
    <glyph glyph-name="seven.num" horiz-adv-x="294" 
d="M24 697v44h252v-32l-158 -362h-52l155 350h-197z" />
    <glyph glyph-name="seven.osf" horiz-adv-x="482" 
d="M14 521v54h450v-37l-288 -635h-67l287 618h-382z" />
    <glyph glyph-name="seven.tf" horiz-adv-x="572" 
d="M62 684v55h469v-38l-332 -701h-67l330 684h-400z" />
    <glyph glyph-name="seven_fraction_nine" horiz-adv-x="791" 
d="M124 347h-52l155 350h-197v44h252v-32zM41 0l578 739h57l-577 -739h-58zM594 405q70 0 108.5 -53t38.5 -141q0 -91 -41 -155q-41 -62 -123 -62q-61 0 -104 33l20 36q37 -27 83 -27q63 0 91 52q31 53 29 127h-1q-11 -32 -41.5 -52t-68.5 -20q-56 0 -92.5 36t-36.5 92
q0 58 39 96t99 38zM592 183q37 -2 63.5 26t26.5 63t-26 64q-26 27 -64 27t-63 -25.5t-25 -65.5q0 -38 25 -63.5t63 -25.5z" />
    <glyph glyph-name="six.dnom" horiz-adv-x="345" 
d="M177 -6q-71 0 -110.5 53t-39.5 139q0 91 43 155t127 64q61 0 105 -33l-21 -36q-37 27 -81 27q-65 0 -96 -55q-32 -54 -30 -123q11 32 42 51.5t70 19.5q56 0 93.5 -36.5t37.5 -92.5q0 -57 -39.5 -95t-100.5 -38zM179 36q38 0 64 26t26 65q0 38 -26 63t-64 25
q-39 0 -65.5 -25.5t-26.5 -63.5q0 -37 26.5 -63.5t65.5 -26.5z" />
    <glyph glyph-name="six.lf" horiz-adv-x="601" 
d="M315 -9q-125 0 -192 100t-67 257q0 78 17.5 149t52 128.5t91.5 92t129 34.5q105 0 178 -61l-28 -46q-64 52 -147 52q-62 0 -111 -34t-76 -92q-52 -112 -46 -245h3q17 64 75 108q58 43 132 43q98 0 164 -68q66 -67 66 -172t-68 -176q-67 -70 -173 -70zM319 47q74 0 125 54
q52 55 52 136q0 79 -51 132q-50 53 -125 53t-130 -55q-54 -54 -54 -131q0 -75 53 -133q53 -56 130 -56z" />
    <glyph glyph-name="six.num" horiz-adv-x="345" 
d="M177 341q-71 0 -110.5 53t-39.5 139q0 91 43 155t127 64q61 0 105 -33l-21 -36q-37 27 -81 27q-65 0 -96 -55q-32 -54 -30 -123q11 32 42 51.5t70 19.5q56 0 93.5 -36.5t37.5 -92.5q0 -57 -39.5 -95t-100.5 -38zM179 383q38 0 64 26t26 65q0 38 -26 63t-64 25
q-39 0 -65.5 -25.5t-26.5 -63.5q0 -37 26.5 -63.5t65.5 -26.5z" />
    <glyph glyph-name="six.osf" horiz-adv-x="597" 
d="M311 -9q-125 0 -192 96q-67 95 -67 245q0 99 29 186q30 84 98 142q67 58 163 58q105 0 178 -58l-29 -45q-65 50 -146 50q-52 0 -93.5 -22t-68 -58t-43.5 -83t-23.5 -94.5t-4.5 -94.5l3 -1q17 63 75 103q59 41 132 41q98 0 164 -66q66 -64 66 -164t-68 -168
q-67 -67 -173 -67zM315 46q74 0 125 51q51 53 51 129t-50 126t-125 50t-130 -52q-54 -51 -54 -125q0 -71 53 -126q53 -53 130 -53z" />
    <glyph glyph-name="six.tf" horiz-adv-x="572" 
d="M300 -9q-125 0 -192 100t-67 257q0 78 17.5 149t52 128.5t91.5 92t129 34.5q105 0 178 -61l-28 -46q-64 52 -147 52q-62 0 -111 -34t-76 -92q-52 -112 -46 -245h3q16 64 75 108q58 43 132 43q98 0 164 -68q66 -67 66 -172t-68 -176q-67 -70 -173 -70zM304 47q74 0 125 54
q52 55 52 136q0 79 -51 132q-50 53 -125 53t-130 -55q-54 -54 -54 -131q0 -75 53 -133q53 -56 130 -56z" />
    <glyph glyph-name="six_fraction_seven" horiz-adv-x="835" 
d="M315 474q0 -57 -39.5 -95t-100.5 -38q-71 0 -110.5 53t-39.5 139q0 91 43 155t127 64q61 0 105 -33l-21 -36q-37 27 -81 27q-65 0 -96 -55q-32 -54 -30 -123q11 32 42 51.5t70 19.5q56 0 93.5 -36.5t37.5 -92.5zM111 0l578 739h57l-576 -739h-59zM85 473
q0 -37 26.5 -63.5t65.5 -26.5q38 0 64 26t26 65q0 38 -26 63t-64 25q-39 0 -65.5 -25.5t-26.5 -63.5zM542 350v44h252v-32l-158 -362h-52l155 350h-197z" />
    <glyph glyph-name="slash.case" horiz-adv-x="515" 
d="M83 0h-56l407 739h56z" />
    <glyph glyph-name="sterling.osf" horiz-adv-x="457" 
d="M113 53h333v-53h-412v40q39 25 63 67t24 87q0 32 -18 76h-73v48h52q-20 48 -20 87q0 81 54 132q53 50 140 52q58 1 105.5 -26t74.5 -77l-44 -27q-45 80 -136 80q-60 0 -97.5 -36.5t-37.5 -96.5q0 -40 22 -88h241v-48h-220q15 -38 15 -73q0 -85 -66 -144z" />
    <glyph glyph-name="three.dnom" horiz-adv-x="313" 
d="M145 -6q-64 0 -125 40l23 40q52 -34 101 -34q41 0 64.5 19t23.5 52t-23 51.5t-67 18.5h-47v45h43q39 0 62.5 19t23.5 49t-22 47.5t-56 17.5q-49 0 -92 -37l-25 35q48 48 121 48q54 0 89.5 -29.5t35.5 -74.5q0 -33 -19 -58t-52 -35v-2q37 -8 58 -34.5t21 -62.5
q0 -50 -38.5 -82.5t-99.5 -32.5z" />
    <glyph glyph-name="three.lf" horiz-adv-x="542" 
d="M245 -12q-118 0 -215 75l31 49q89 -67 184 -67q80 0 128.5 42.5t48.5 111.5t-47 110t-135 41h-79v55h73q85 0 129 44t44 104q0 63 -43.5 102.5t-112.5 39.5q-100 0 -173 -73l-34 42q37 40 93.5 64t115.5 24q97 0 156 -56q60 -56 60 -138q0 -62 -34.5 -109.5t-91.5 -65.5
v-4q65 -15 103 -64t38 -117q0 -91 -67 -151q-67 -59 -172 -59z" />
    <glyph glyph-name="three.num" horiz-adv-x="313" 
d="M145 341q-64 0 -125 40l23 40q52 -34 101 -34q41 0 64.5 19.5t23.5 51.5q0 33 -23 51.5t-67 18.5h-47v45h43q39 0 62.5 19t23.5 49t-22 47.5t-56 17.5q-49 0 -92 -37l-25 35q48 48 121 48q54 0 89.5 -29.5t35.5 -74.5q0 -33 -19 -58t-52 -35v-2q37 -8 58 -34.5t21 -62.5
q0 -50 -38.5 -82.5t-99.5 -32.5z" />
    <glyph glyph-name="three.osf" horiz-adv-x="519" 
d="M233 -110q-115 0 -212 68l31 46q88 -60 181 -60q78 0 126 39t48 100q0 62 -46.5 99.5t-131.5 37.5h-79v53h73q80 0 124.5 38t44.5 95t-43 93t-110 36q-98 0 -171 -67l-33 40q36 37 91.5 59t114.5 22q96 0 154 -52q59 -51 59 -126q0 -56 -34 -99t-91 -60v-4
q65 -13 102.5 -57.5t37.5 -107.5q0 -84 -66 -138q-65 -55 -170 -55z" />
    <glyph glyph-name="three.tf" horiz-adv-x="572" 
d="M254 -12q-118 0 -215 75l31 49q89 -67 184 -67q80 0 128.5 42.5t48.5 111.5t-47 110t-135 41h-79v55h73q85 0 129 44t44 104q0 63 -43.5 102.5t-112.5 39.5q-100 0 -173 -73l-34 42q37 40 93.5 64t115.5 24q97 0 156 -56q60 -56 60 -138q0 -62 -34.5 -109.5t-91.5 -65.5
v-4q65 -15 103 -64t38 -117q0 -91 -67 -151q-67 -59 -172 -59z" />
    <glyph glyph-name="three_fraction_seven" horiz-adv-x="856" 
d="M152 387q41 0 64.5 19.5t23.5 51.5q0 33 -23 51.5t-67 18.5h-47v45h43q39 0 62.5 19t23.5 49t-22 47.5t-56 17.5q-49 0 -92 -37l-25 35q48 48 121 48q54 0 89.5 -29.5t35.5 -74.5q0 -33 -19 -58t-52 -35v-2q37 -8 58 -34.5t21 -62.5q0 -50 -38.5 -82.5t-99.5 -32.5
q-64 0 -125 40l23 40q52 -34 101 -34zM119 0l578 739h57l-577 -739h-58zM564 350v44h252v-32l-158 -362h-52l155 350h-197z" />
    <glyph glyph-name="tilde.case" horiz-adv-x="536" 
d="M86 828l-39 18q11 39 40.5 63.5t67.5 24.5q34 0 74 -28t62 -28q21 0 38 15.5t26 37.5l39 -17q-11 -40 -39 -64t-66 -24q-35 0 -75 27q-40 28 -61 28q-44 0 -67 -53z" />
    <glyph glyph-name="two.dnom" horiz-adv-x="335" 
d="M213 155l-99 -109h176v-46h-245l-1 41l120 129q39 43 55 69t16 51q0 30 -21 49.5t-53 19.5q-49 0 -96 -46l-28 36q59 56 126 56q53 0 87.5 -32t34.5 -83q0 -54 -72 -135z" />
    <glyph glyph-name="two.lf" horiz-adv-x="538" 
d="M328 274l-191 -218h352v-57h-437v53l213 240q79 90 114 145q37 56 37 113q0 63 -43.5 104t-112.5 41q-100 0 -185 -88l-38 42q100 103 224 103q95 0 154 -58q61 -57 61 -148q0 -51 -31 -112q-33 -64 -117 -160z" />
    <glyph glyph-name="two.num" horiz-adv-x="335" 
d="M213 502l-99 -109h176v-46h-245l-1 41l120 129q39 43 55 69t16 51q0 30 -21 49.5t-53 19.5q-49 0 -96 -46l-28 36q59 56 126 56q53 0 87.5 -32t34.5 -83q0 -54 -72 -135z" />
    <glyph glyph-name="two.osf" horiz-adv-x="509" 
d="M304 199l-163 -147h320v-53h-408v50l209 188q31 27 50 46l39 42q40 48 40 97t-38.5 80t-97.5 31q-88 0 -183 -89l-35 44q104 101 219 101q82 0 138 -48q56 -47 56 -120q0 -47 -31 -96q-32 -51 -115 -126z" />
    <glyph glyph-name="two.tf" horiz-adv-x="572" 
d="M345 274l-191 -218h352v-57h-437v53l213 240q79 90 114 145q37 56 37 113q0 63 -43.5 104t-112.5 41q-100 0 -185 -88l-38 42q100 103 224 103q95 0 154 -58q61 -57 61 -148q0 -51 -31 -112q-33 -64 -117 -160z" />
    <glyph glyph-name="two_fraction_nine" horiz-adv-x="847" 
d="M117 393h176v-46h-245l-1 41l120 129q39 43 55 69t16 51q0 30 -21 49.5t-53 19.5q-49 0 -96 -46l-28 36q59 56 126 56q53 0 87.5 -32t34.5 -83q0 -54 -72 -135zM121 0l578 739h58l-577 -739h-59zM652 405q70 0 108.5 -53t38.5 -141q0 -91 -41 -155q-41 -62 -123 -62
q-61 0 -104 33l20 36q37 -27 83 -27q63 0 91 52q31 53 29 127h-1q-11 -32 -41.5 -52t-68.5 -20q-56 0 -92.5 36t-36.5 92q0 58 39 96t99 38zM650 183q37 -2 63.5 26t26.5 63t-26 64q-26 27 -64 27t-63 -25.5t-25 -65.5q0 -38 25 -63.5t63 -25.5z" />
    <glyph glyph-name="two_fraction_seven" horiz-adv-x="847" 
d="M121 393h176v-46h-245l-1 41l120 129q39 43 55 69t16 51q0 30 -21 49.5t-53 19.5q-49 0 -96 -46l-28 36q59 56 126 56q53 0 87.5 -32t34.5 -83q0 -54 -72 -135zM131 0l578 739h57l-576 -739h-59zM553 350v44h252v-32l-158 -362h-52l155 350h-197z" />
    <glyph glyph-name="uni0414.ss01" horiz-adv-x="720" 
d="M602 739v-681h78v-208h-63v150h-531v-150h-63v208h60q40 61 66 172q26 115 50 342l18 167h385zM158 58h381v623h-262l-9 -91q-27 -244 -50 -352q-26 -118 -60 -180z" />
    <glyph glyph-name="uni0416.ss01" horiz-adv-x="837" 
d="M844 0h-78l-311 345h-6v-345h-61v345h-5l-312 -345h-77l342 383l-315 356h74l293 -327v327h61v-327l294 327h74l-316 -355z" />
    <glyph glyph-name="uni041B.ss01" horiz-adv-x="695" 
d="M55 -3q-26 0 -43 5l-3 61q25 -5 36 -5q63 0 106 79q40 73 62 214t37 388h344v-739h-62v679h-225q-8 -139 -15 -214q-8 -82 -28 -179q-19 -99 -52 -168q-57 -121 -157 -121z" />
    <glyph glyph-name="uni0424.ss01" horiz-adv-x="918" 
d="M490 37v-117h-61v117q-173 4 -279 95q-104 90 -104 238q0 149 104 239q104 89 279 94v116h61v-116q171 -5 276 -96q106 -90 106 -237t-106 -238t-276 -95zM109 370q0 -124 87 -198q87 -73 233 -78v551q-147 -5 -233 -77q-87 -74 -87 -198zM490 645v-551q143 4 231 79
q88 73 88 197t-88 197q-87 73 -231 78z" />
    <glyph glyph-name="uni042A.ss01" horiz-adv-x="730" 
d="M261 454h190q137 0 196 -81q50 -69 50 -149q0 -90 -62 -158q-61 -66 -184 -66h-251v681h-184v58h245v-285zM261 58h180q90 0 141.5 47t51.5 124q0 76 -50 122t-136 46h-187v-339z" />
    <glyph glyph-name="uni042C.ss01" horiz-adv-x="631" 
d="M162 454h190q137 0 196 -81q50 -69 50 -149q0 -90 -62 -158q-62 -66 -184 -66h-251v739h61v-285zM162 58h180q90 0 141.5 47t51.5 124q0 76 -50 122t-136 46h-187v-339z" />
    <glyph glyph-name="uni0431.ss01" horiz-adv-x="653" 
d="M346 524q105 0 183 -72t78 -196q0 -114 -76 -191q-75 -78 -192 -78q-73 0 -130 30.5t-90 83.5q-63 104 -63 237q0 93 23 165q24 71 58 108q35 40 90 68q53 29 104 43l117 32q71 20 113 37v-60q-47 -18 -108 -36l-103 -27q-47 -12 -88 -32q-46 -22 -75 -51
q-65 -65 -77 -206q31 75 97 109q68 36 139 36zM339 42q89 0 148 62q60 62 60 153q0 90 -59 151q-58 61 -145 61q-90 0 -152 -59t-62 -148q0 -91 59 -156q60 -64 151 -64z" />
    <glyph glyph-name="uni0432.ss01" horiz-adv-x="555" 
d="M404 293q50 -12 77.5 -50t27.5 -88q0 -63 -45 -109t-126 -46h-257v535h235q78 0 121 -38t43 -95q0 -38 -20.5 -67.5t-55.5 -41.5zM319 481h-179v-168h191q41 0 66 24.5t25 61.5t-26.5 59.5t-76.5 22.5zM140 54h195q51 0 82.5 29t31.5 74q0 46 -30.5 74.5t-82.5 28.5h-196
v-206z" />
    <glyph glyph-name="uni0433.ss01" horiz-adv-x="414" 
d="M81 535h320v-53h-260v-482h-60v535z" />
    <glyph glyph-name="uni0434.ss01" horiz-adv-x="600" 
d="M502 535v-482h61v-173h-60v119h-429v-119h-59v173h57q30 44 50 121q19 77 39 233l17 128h324zM231 480l-7 -60q-33 -280 -85 -367h304v427h-212z" />
    <glyph glyph-name="uni0436.ss01" horiz-adv-x="691" 
d="M691 0h-73l-240 246l-5 3v-249h-55v245l-6 -5l-2 2l-237 -242h-73l273 281l-258 254h69l234 -226v226h55v-226l234 226h69l-257 -254z" />
    <glyph glyph-name="uni0437.ss01" horiz-adv-x="489" 
d="M225 -12q-103 0 -198 56l24 48q88 -50 172 -50q72 0 116 30t44 79q0 45 -36 71t-101 26h-120v54h86q73 0 114 28.5t41 72.5q0 41 -37.5 65.5t-97.5 24.5q-86 0 -163 -51l-28 44q83 62 193 62q83 0 138 -41q54 -41 54 -101q0 -42 -28.5 -75t-79.5 -49v-2q58 -9 91.5 -46.5
t33.5 -88.5q0 -70 -61 -113q-61 -44 -157 -44z" />
    <glyph glyph-name="uni0438.ss01" horiz-adv-x="631" 
d="M116 0h-35v535h59v-432l374 432h35v-535h-58v433z" />
    <glyph glyph-name="uni0439.ss01" horiz-adv-x="631" 
d="M321 575q-101 0 -171 88l32 35q63 -74 139 -74t139 74l34 -35q-75 -88 -173 -88zM116 0h-35v535h59v-432l374 432h35v-535h-58v433z" />
    <glyph glyph-name="uni043A.ss01" horiz-adv-x="508" 
d="M511 0h-77l-224 266l-69 -65v-201h-60v535h60v-262l267 262h81l-238 -229z" />
    <glyph glyph-name="uni043B.ss01" horiz-adv-x="591" 
d="M61 -3q-23 0 -35 4l-12 49q22 -3 33 -3q52 0 87 53q34 51 52 150.5t34 284.5h290v-535h-60v483h-177q-13 -123 -17 -152q-6 -51 -24 -128q-16 -73 -43 -121q-46 -85 -128 -85z" />
    <glyph glyph-name="uni043F.ss01" horiz-adv-x="590" 
d="M81 535h427v-535h-60v482h-307v-482h-60v535z" />
    <glyph glyph-name="uni0442.ss01" horiz-adv-x="472" 
d="M14 535h444v-53h-192v-482h-60v482h-192v53z" />
    <glyph glyph-name="uni0444.ss01" horiz-adv-x="791" 
d="M746 267q0 -124 -88 -199q-88 -74 -235 -79v-144h-56v144q-148 3 -235 78q-87 77 -87 201q0 125 88 201t234 79v143h56v-143q147 -5 234 -80q89 -77 89 -201zM103 269q0 -104 71 -164.5t193 -63.5v454q-123 -3 -193.5 -63.5t-70.5 -162.5zM423 495v-454q122 2 193.5 63
t71.5 165q0 103 -71 163t-194 63z" />
    <glyph glyph-name="uni0446.ss01" horiz-adv-x="611" 
d="M588 -180h-61v180h-446v543h62v-488h301v488h62v-488h82v-235z" />
    <glyph glyph-name="uni0448.ss01" horiz-adv-x="869" 
d="M787 0h-706v543h62v-488h260v488h62v-488h260v488h62v-543z" />
    <glyph glyph-name="uni0449.ss01" horiz-adv-x="893" 
d="M787 543v-488h85v-235h-61v180h-730v543h62v-488h260v488h62v-488h260v488h62z" />
    <glyph glyph-name="uni044A.ss01" horiz-adv-x="591" 
d="M209 337h154q104 0 151 -51.5t47 -117.5q0 -69 -50 -119q-49 -49 -148 -49h-214v482h-133v53h193v-198zM209 53h146q71 0 108.5 32t37.5 86q0 50 -37 81t-102 31h-153v-230z" />
    <glyph glyph-name="uni044C.ss01" horiz-adv-x="538" 
d="M141 337h169q104 0 151 -51.5t47 -117.5q0 -69 -50 -119q-49 -49 -148 -49h-229v535h60v-198zM141 53h161q71 0 108.5 32t37.5 86q0 50 -37 81t-102 31h-168v-230z" />
    <glyph glyph-name="uni044E.ss01" horiz-adv-x="830" 
d="M507 548q119 0 199 -81q79 -80 79 -199q0 -120 -79 -200q-80 -81 -199 -81q-114 0 -191 73q-77 74 -86 183h-89v-243h-60v535h60v-239h89q10 108 87 180q78 72 190 72zM725 268q0 94 -63 159q-61 66 -155 66q-93 0 -156 -66q-62 -65 -62 -159t62 -161q63 -65 156 -65
t155 65q63 66 63 161z" />
    <glyph glyph-name="yen.osf" horiz-adv-x="428" 
d="M380 581h61l-173 -301h131v-46h-155v-55h155v-47h-155v-132h-58v132h-156v47h156v55h-156v46h135l-173 301h61l163 -289z" />
    <glyph glyph-name="zero.dnom" horiz-adv-x="368" 
d="M273 27q-37 -32 -89 -32q-51 0 -87.5 30.5t-51.5 77.5q-22 66 -11 148t61 123q37 32 89 32q51 0 87.5 -30.5t51.5 -77.5q24 -65 12 -147t-62 -124zM108 87q25 -43 76 -43q50 0 75 43q26 44 26 114q0 69 -26 113q-25 43 -75 43q-51 0 -76 -43t-25 -113q0 -71 25 -114z" />
    <glyph glyph-name="zero.lf" horiz-adv-x="663" 
d="M331 -12q-71 0 -127.5 34t-87.5 92q-60 113 -60 256q0 144 60 255q31 59 87.5 93t127.5 34q73 0 128.5 -34t86.5 -93q60 -111 60 -255q0 -143 -60 -256q-31 -58 -86.5 -92t-128.5 -34zM331 45q101 0 157 89t56 236q0 146 -56 235q-56 90 -157 90t-157 -90
q-55 -88 -55 -235t55 -236q56 -89 157 -89z" />
    <glyph glyph-name="zero.num" horiz-adv-x="368" 
d="M273 373q-37 -32 -89 -32q-51 0 -87.5 30.5t-51.5 77.5q-22 66 -11 148t61 123q37 32 89 32q51 0 87.5 -30.5t51.5 -77.5q24 -65 12 -147t-62 -124zM108 433q25 -43 76 -43q50 0 75 43q26 44 26 114q0 69 -26 113q-25 43 -75 43q-51 0 -76 -43t-25 -113q0 -71 25 -114z
" />
    <glyph glyph-name="zero.osf" horiz-adv-x="582" 
d="M291 -12q-62 0 -109 26.5t-73.5 71.5t-39.5 96t-13 107q0 55 13 106t39.5 96t73.5 71.5t109 26.5q50 0 91 -18t67 -47t44 -69t25.5 -81t7.5 -85t-7.5 -85.5t-25.5 -81t-44 -69t-67 -47.5t-91 -18zM291 43q84 0 129 67q45 68 45 179q0 112 -45 178q-45 67 -128 67
q-82 0 -128 -66t-46 -179t46 -179.5t127 -66.5z" />
    <glyph glyph-name="zero.slash" horiz-adv-x="663" 
d="M331 752q73 0 128.5 -34t86.5 -93q60 -111 60 -255q0 -143 -60 -256q-31 -58 -86.5 -92t-128.5 -34q-71 0 -127.5 34t-87.5 92q-60 113 -60 256q0 144 60 255q31 59 87.5 93t127.5 34zM331 697q-103 0 -159 -90q-55 -89 -55 -237q0 -119 38 -204l326 455q-57 76 -150 76z
M331 43q103 0 159 89q56 91 56 238q0 115 -35 199l-325 -455q56 -71 145 -71z" />
    <glyph glyph-name="zero.tf" horiz-adv-x="572" 
d="M407 22q-52 -34 -121 -34q-70 0 -122 34q-89 60 -123 214q-29 135 0 267q34 156 123 214q53 35 122 35q68 0 121 -35q93 -59 124 -213q30 -134 0 -268q-30 -152 -124 -214zM485 370q0 147 -52 235q-51 90 -147 90t-148 -90q-51 -89 -51 -235t51 -236q53 -89 148 -89
q96 0 147 89q52 88 52 236z" />
    </font>
</defs>
</svg>
