<?xml version="1.0" encoding="UTF-8" standalone="no"?>
<!DOCTYPE svg  PUBLIC '-//W3C//DTD SVG 1.1//EN'  'http://www.w3.org/Graphics/SVG/1.1/DTD/svg11.dtd'>
<svg xmlns="http://www.w3.org/2000/svg" version="1.1">
<defs>
<font id="Axiforma-BookItalic" horiz-adv-x="856">
<font-face ascent="771" font-family="Axiforma Book Italic" slope="-8.5" font-style="italic" unicode-range="U+0020-00FE" descent="-229" font-weight="300" underline-position="-150" cap-height="739" bbox="-162 -248 1090 1001" panose-1="0 0 4 0 0 0 0 0 0 0" underline-thickness="50" x-height="534" units-per-em="1000"/>
<missing-glyph/>
<glyph horiz-adv-x="250" glyph-name="space" unicode=" "/>
<glyph d="M190 176h-91l80 563h100zM64 52q4 26 23 42t46 16t42.5 -18.5t10.5 -44.5q-4 -26 -23.5 -42.5t-45.5 -16.5t-41.5 18.5t-11.5 45.5z" horiz-adv-x="300" glyph-name="exclam" unicode="!"/>
<glyph d="M165 449h-83l124 290h111zM361 449h-83l124 290h111z" horiz-adv-x="455" glyph-name="quotedbl" unicode='&quot;'/>
<glyph d="M712 536l-25 -73h-108l-59 -174h108l-25 -73h-108l-73 -216h-82l73 216h-179l-73 -216h-83l74 216h-117l24 73h118l59 174h-118l25 73h118l69 203h81l-69 -203h180l69 203h81l-69 -203h109zM259 289h179l59 174h-179z" horiz-adv-x="698" glyph-name="numbersign" unicode="#"/>
<glyph d="M437 367q96 -63 80 -180q-12 -81 -73 -133q-60 -52 -146 -63l-18 -103h-83l18 103q-69 9 -119 48.5t-73 104.5l78 51q43 -118 159 -118q64 0 107.5 34t49.5 84q9 60 -60 106q-17 12 -72 40q-58 30 -76 43q-101 70 -85 180q10 73 67 125q55 50 140 61l16 93h83l-16 -95 q100 -18 154 -107l-73 -56q-50 80 -135 80q-53 0 -91.5 -29.5t-45.5 -76.5q-7 -60 45 -97q11 -7 80 -45q60 -31 89 -50z" horiz-adv-x="561" glyph-name="dollar" unicode="$"/>
<glyph d="M252 389q-79 0 -127 54q-47 56 -35 131q10 74 72 126q61 52 138 52q80 0 126 -54q48 -54 37 -131q-10 -73 -73 -126q-61 -52 -138 -52zM182 0h-98l654 739h100zM256 460q48 0 87 33q38 33 46 81q7 45 -20.5 76t-72.5 31q-49 0 -87 -33t-45 -82q-7 -46 19.5 -76t72.5 -30z M626 -12q-79 0 -127 54q-47 54 -35 130q10 74 72 126q61 52 137 52q79 0 127 -55q49 -53 38 -131q-10 -73 -73 -125q-61 -51 -139 -51zM630 58q49 0 88 33t46 81q7 46 -20 77t-74 31q-49 0 -86 -34q-38 -33 -45 -82q-7 -45 19 -75.5t72 -30.5z" horiz-adv-x="879" glyph-name="percent" unicode="%"/>
<glyph d="M566 157l105 -104l-57 -59l-105 107q-125 -111 -253 -111q-100 0 -162 63q-62 65 -52 161q13 127 169 213q-37 70 -25 143q13 80 75 130t139 50q74 0 118 -44q46 -44 35 -112q-5 -38 -23 -61q-4 -5 -9.5 -13t-9 -12t-10 -10t-15.5 -12q-21 -14 -26 -19q-8 -6 -33 -18 l-31 -16q-2 -1 -37 -17l-35 -16q20 -22 51 -53l137 -137q46 48 88 106l56 -49q-42 -58 -90 -110zM264 562q-10 -56 15 -102q31 13 38 16l38 17l33 16q30 16 56 40q23 21 29 53q6 36 -16 59t-60 23q-47 0 -84.5 -33t-48.5 -89zM266 66q86 0 190 90l-154 156l-48 53 q-113 -63 -124 -155q-7 -63 31 -103.5t105 -40.5z" horiz-adv-x="697" glyph-name="ampersand" unicode="&amp;"/>
<glyph d="M163 449h-83l124 290h111z" horiz-adv-x="257" glyph-name="quotesingle" unicode="&apos;"/>
<glyph d="M324 -155l-46 -64q-132 84 -190 220.5t-33 305.5q25 165 121 295t252 208l32 -68q-268 -162 -310 -452q-43 -286 174 -445z" horiz-adv-x="387" glyph-name="parenleft" unicode="("/>
<glyph d="M-17 -221l-30 68q130 79 209 193.5t100 257.5q44 287 -173 446l44 64q133 -77 191 -216t33 -310q-25 -168 -123 -300q-96 -132 -251 -203z" horiz-adv-x="387" glyph-name="parenright" unicode=")"/>
<glyph d="M272 509l-115 -118l-50 44l114 111l-123 63l39 60l115 -64l20 148h69l-24 -146l132 62l21 -63l-143 -61l86 -110l-58 -44z" horiz-adv-x="450" glyph-name="asterisk" unicode="*"/>
<glyph d="M335 391h188l-13 -84h-188l-28 -189l-84 -1l28 190h-190l13 84h190l28 189h84z" horiz-adv-x="530" glyph-name="plus" unicode="+"/>
<glyph d="M95 103q31 0 48.5 -23t12.5 -56q-11 -77 -139 -153l-28 45q74 51 89 73q-22 1 -36.5 19t-11.5 41q3 24 21 39t44 15z" horiz-adv-x="239" glyph-name="comma" unicode=","/>
<glyph d="M453 235h-382l12 84h382z" horiz-adv-x="516" glyph-name="hyphen" unicode="-"/>
<glyph d="M30 52q4 26 23 42t46 16t42.5 -18.5t10.5 -44.5q-4 -26 -23.5 -42.5t-45.5 -16.5t-41.5 18.5t-11.5 45.5z" horiz-adv-x="230" glyph-name="period" unicode="."/>
<glyph d="M56 -123h-87l613 948h87z" horiz-adv-x="597" glyph-name="slash" unicode="/"/>
<glyph d="M76 379q24 140 100 248q42 58 105.5 91.5t137.5 33.5q63 0 110 -24t72 -63t40.5 -90t14 -105t-7.5 -107q-23 -141 -100 -251q-41 -57 -104 -90.5t-137 -33.5t-128.5 35t-78.5 93q-51 135 -24 263zM313 74q97 0 158 85q63 88 82 212q11 53 7 106t-17.5 95t-48.5 68t-86 26 q-94 0 -155 -81q-59 -79 -82 -210q-22 -125 13 -214q34 -87 129 -87z" horiz-adv-x="678" glyph-name="zero" unicode="0"/>
<glyph d="M57 564l230 175h78l-110 -739h-93l89 607l-144 -109z" horiz-adv-x="381" glyph-name="one" unicode="1"/>
<glyph d="M543 524q-13 -95 -124 -200l-253 -238h321l-12 -86h-457l9 77l276 258l59 56q23 23 44 48q43 49 51 104q7 55 -27.5 89.5t-94.5 34.5q-94 0 -191 -86l-48 70q116 101 244 101q100 0 159 -62t44 -166z" horiz-adv-x="556" glyph-name="two" unicode="2"/>
<glyph d="M535 548q-10 -58 -50.5 -101t-103.5 -64q65 -18 95.5 -67t20.5 -119q-13 -93 -90 -152q-75 -57 -188 -57q-116 0 -218 75l50 72q86 -62 167 -62q74 0 124.5 36.5t58.5 95.5t-30 96.5t-107 37.5h-92l13 83h91q63 0 108.5 35t53.5 92q8 54 -24.5 86t-93.5 32 q-86 0 -177 -66l-40 67q44 39 108.5 61.5t126.5 22.5q104 0 156 -61q54 -62 41 -143z" horiz-adv-x="552" glyph-name="three" unicode="3"/>
<glyph d="M475 270h83l-12 -82h-83l-28 -188h-90l28 188h-347l-11 55l479 496h51zM428 562l-281 -292h238z" horiz-adv-x="591" glyph-name="four" unicode="4"/>
<glyph d="M551 739l-12 -82h-308l-39 -206q58 32 127 32q107 0 168 -72q62 -72 46 -179q-17 -109 -99 -176q-83 -68 -195 -68q-129 0 -223 91l54 67q76 -73 172 -73q75 0 131 47q58 48 68 120q11 69 -28 112q-39 45 -110 45q-85 0 -149 -61l-59 34l72 369h384z" horiz-adv-x="570" glyph-name="five" unicode="5"/>
<glyph d="M373 477q103 0 158 -70q57 -69 42 -173t-94 -174q-78 -69 -185 -69q-130 0 -188 103t-33 259q29 175 122 286q95 113 237 113q107 0 181 -65l-47 -64q-58 49 -137 49q-104 0 -174 -91q-70 -93 -86 -215q75 111 204 111zM482 240q10 68 -28 112t-104 44q-69 0 -120 -45 q-51 -46 -61 -112q-12 -69 24 -117q37 -48 105 -48t120 48q54 49 64 118z" horiz-adv-x="612" glyph-name="six" unicode="6"/>
<glyph d="M88 657l12 82h462l-7 -53l-394 -686h-103l386 657h-356z" horiz-adv-x="500" glyph-name="seven" unicode="7"/>
<glyph d="M596 553q-18 -108 -144 -163q66 -28 97.5 -81.5t20.5 -116.5q-14 -88 -96 -147q-81 -57 -196 -57q-116 0 -181 63q-64 64 -51 158q9 60 55 108t123 77q-51 26 -74.5 71.5t-14.5 97.5q14 84 85 136q73 53 173 53q103 0 160 -57q56 -57 43 -142zM508 552q9 52 -26 87 t-97 35q-65 0 -111 -35t-54 -89q-8 -52 26 -87t97 -35q65 0 110 34.5t55 89.5zM484 211q8 58 -33.5 97.5t-116.5 39.5q-82 0 -135 -40q-54 -39 -63 -98q-10 -61 31 -101q43 -40 118 -40q78 0 133 40q57 41 66 102z" horiz-adv-x="623" glyph-name="eight" unicode="8"/>
<glyph d="M355 752q134 0 193 -104q59 -105 37 -267q-10 -78 -37 -147t-69 -125t-104.5 -88.5t-137.5 -32.5q-117 0 -184 63l42 69q61 -51 143 -51q69 0 125 44q99 80 130 256q-86 -104 -205 -104q-103 0 -160 73q-56 74 -41 180q15 105 88 169q74 65 180 65zM492 511q7 67 -33 113 t-106 46t-118 -47q-51 -47 -60 -119q-9 -69 30 -114t105 -45q69 0 122 47q52 48 60 119z" horiz-adv-x="610" glyph-name="nine" unicode="9"/>
<glyph d="M98 423q4 26 23 42t46 16t42.5 -18.5t10.5 -44.5q-4 -26 -23.5 -42.5t-45.5 -16.5t-41.5 18.5t-11.5 45.5zM44 52q4 26 23 42t46 16t42.5 -18.5t10.5 -44.5q-4 -26 -23.5 -42.5t-45.5 -16.5t-41.5 18.5t-11.5 45.5z" horiz-adv-x="258" glyph-name="colon" unicode=":"/>
<glyph d="M183 480q27 0 42.5 -18.5t10.5 -44.5q-4 -26 -23.5 -42.5t-45.5 -16.5t-41.5 18.5t-11.5 45.5q4 26 23 42t46 16zM121 103q31 0 48.5 -23t12.5 -56q-11 -77 -139 -153l-28 45q74 51 89 73q-22 1 -36.5 19t-11.5 41q3 24 21 39t44 15z" horiz-adv-x="285" glyph-name="semicolon" unicode=";"/>
<glyph d="M491 156l-13 -95l-431 230l11 82l500 231l-13 -94l-398 -178z" horiz-adv-x="574" glyph-name="less" unicode="&lt;"/>
<glyph d="M557 373h-462l12 81h462zM532 201h-462l12 81h462z" horiz-adv-x="604" glyph-name="equal" unicode="="/>
<glyph d="M529 291l-491 -244l13 95l366 177l-312 176l13 95l418 -245z" horiz-adv-x="546" glyph-name="greater" unicode="&gt;"/>
<glyph d="M247 163h-83l11 75q11 78 92 139q6 4 32.5 23.5t35.5 26.5t29.5 25t29.5 30.5t18.5 31t12.5 37.5q8 54 -24.5 88.5t-89.5 34.5q-87 0 -170 -79l-48 64q44 45 105 72t120 27q93 0 151 -61q59 -60 44 -148q-13 -87 -98 -154q-5 -4 -39 -30t-44.5 -35.5t-32.5 -30.5 t-31 -39.5t-12 -37.5zM185 -13q-27 0 -42.5 18.5t-11.5 45.5q4 25 23 41.5t45 16.5q28 0 43.5 -18.5t10.5 -44.5q-4 -26 -23.5 -42.5t-44.5 -16.5z" horiz-adv-x="505" glyph-name="question" unicode="?"/>
<glyph d="M576 740q181 0 293 -121q113 -120 87 -288q-17 -109 -83 -186q-68 -77 -149 -77q-43 0 -70.5 22t-33.5 54q-67 -76 -169 -76q-87 0 -139 64t-37 159q14 90 81 151q68 62 155 62q46 0 84.5 -18t59.5 -50l8 53h74l-43 -281q-5 -35 7 -53.5t37 -18.5q46 0 89 63 q45 65 55 145q19 138 -70 230q-88 93 -234 93q-169 0 -294 -109q-127 -108 -146 -279q-19 -163 74 -270q94 -105 256 -105t298 101l36 -64q-61 -47 -155 -79q-93 -32 -187 -32q-127 -2 -226.5 60t-146 168.5t-28.5 230.5q22 192 173.5 323.5t343.5 127.5zM463 136 q61 0 111 45q48 44 59 109q10 63 -23 104.5t-91 41.5q-61 0 -110 -45q-49 -43 -60 -111q-9 -61 22.5 -102.5t91.5 -41.5z" horiz-adv-x="975" glyph-name="at" unicode="@"/>
<glyph d="M626 0h-102l-48 197h-283l-107 -197h-104l410 739h44zM238 285h218l-66 284z" horiz-adv-x="671" glyph-name="A" unicode="A"/>
<glyph d="M635 553q-7 -51 -39 -91t-83 -58q62 -18 91 -70t19 -123q-12 -89 -78 -150q-65 -61 -181 -61h-300l110 739h276q104 0 149 -56q47 -56 36 -130zM540 551q6 43 -21.5 71.5t-80.5 28.5h-185l-32 -212h177q61 0 98 34q38 35 44 78zM528 219q9 57 -25.5 95t-104.5 38h-190 l-39 -264h172q84 0 131 36t56 95z" horiz-adv-x="669" glyph-name="B" unicode="B"/>
<glyph d="M398 -11q-160 0 -256 106q-95 108 -73 278q23 171 145 274q123 105 284 105q103 0 181 -44.5t121 -122.5l-74 -52q-33 61 -92.5 95.5t-139.5 34.5q-128 0 -219 -81q-92 -81 -110 -209q-19 -130 51 -212q70 -81 194 -81q156 0 273 130l61 -61q-65 -74 -156.5 -117 t-189.5 -43z" horiz-adv-x="778" glyph-name="C" unicode="C"/>
<glyph d="M337 0h-273l110 739h258q163 0 241 -101q79 -100 55 -274q-22 -170 -126 -267q-103 -97 -265 -97zM253 651l-84 -563h168q124 0 200 79q77 79 97 208q18 123 -36 199q-53 77 -170 77h-175z" horiz-adv-x="756" glyph-name="D" unicode="D"/>
<glyph d="M518 0h-454l110 739h453l-13 -88h-361l-35 -231h334l-13 -88h-334l-36 -244h362z" horiz-adv-x="605" glyph-name="E" unicode="E"/>
<glyph d="M156 0h-92l110 739h446l-13 -90h-354l-35 -228h308l-13 -90h-308z" horiz-adv-x="568" glyph-name="F" unicode="F"/>
<glyph d="M399 -11q-164 0 -258 112q-95 113 -69 280q26 170 149 270q125 101 284 101q94 0 172 -39q78 -38 121 -101l-72 -55q-75 105 -223 105q-128 0 -223 -79q-96 -81 -115 -214q-18 -125 52 -208q71 -83 189 -83q73 0 141.5 29t118.5 81l22 149h-254l13 86h342l-38 -279 q-152 -155 -352 -155z" horiz-adv-x="812" glyph-name="G" unicode="G"/>
<glyph d="M157 0h-93l110 739h93l-47 -315h381l47 315h92l-110 -739h-92l50 335h-381z" horiz-adv-x="756" glyph-name="H" unicode="H"/>
<glyph d="M64 0l110 739h92l-110 -739h-92z" horiz-adv-x="282" glyph-name="I" unicode="I"/>
<glyph d="M203 -12q-134 0 -210 103l59 64q60 -79 153 -79q70 0 116 50.5t58 132.5l73 480h93l-71 -475q-14 -94 -57 -159q-77 -117 -214 -117z" horiz-adv-x="554" glyph-name="J" unicode="J"/>
<glyph d="M614 739h110l-347 -350l265 -389h-115l-220 327l-120 -119l-31 -208h-92l110 739h92l-60 -402z" horiz-adv-x="661" glyph-name="K" unicode="K"/>
<glyph d="M556 0h-492l110 739h92l-97 -649h400z" horiz-adv-x="601" glyph-name="L" unicode="L"/>
<glyph d="M156 0h-92l110 739h40l252 -476l393 476h41l-110 -739h-93l76 511l-316 -382h-23l-202 382z" horiz-adv-x="916" glyph-name="M" unicode="M"/>
<glyph d="M589 201l81 538h92l-110 -739h-43l-372 535l-81 -535h-92l110 739h36z" horiz-adv-x="778" glyph-name="N" unicode="N"/>
<glyph d="M398 -12q-159 0 -255 112t-73 273t149 270q127 109 287 109q106 2 188 -51t119.5 -142.5t20.5 -191.5q-24 -160 -151 -269q-128 -110 -285 -110zM404 78q118 0 216 83q97 83 118 210q21 125 -48 207q-69 83 -190 83q-122 0 -219 -84q-95 -82 -115 -209q-20 -125 50 -208 q70 -82 188 -82z" glyph-name="O" unicode="O"/>
<glyph d="M174 739h236q121 0 170 -67q51 -67 39 -161q-12 -96 -86 -161q-73 -63 -210 -63h-124l-43 -287h-92zM527 517q9 58 -22.5 96t-96.5 38h-155l-41 -277h127q78 0 128.5 40.5t59.5 102.5z" horiz-adv-x="603" glyph-name="P" unicode="P"/>
<glyph d="M834 367q-19 -124 -103 -221t-202 -136q52 -52 133 -52q44 0 97 17l4 -80q-46 -18 -110 -18q-67 0 -125.5 28.5t-97.5 83.5q-7 -1 -32 -1q-159 0 -255 112t-73 273t149 270q127 109 287 109q106 2 188 -51t119.5 -142.5t20.5 -191.5zM404 78q118 0 216 83q97 83 118 210 q21 125 -48 207q-69 83 -190 83q-122 0 -219 -84q-95 -82 -115 -209q-20 -125 50 -208q70 -82 188 -82z" glyph-name="Q" unicode="Q"/>
<glyph d="M616 518q-9 -75 -62 -134q-51 -57 -144 -74l163 -310h-115l-153 305h-104l-45 -305h-92l110 739h239q114 0 163 -67q51 -67 40 -154zM522 524q7 56 -23 91t-92 35h-154l-39 -257h123q168 0 185 131z" horiz-adv-x="636" glyph-name="R" unicode="R"/>
<glyph d="M251 -12q-82 0 -144 40.5t-88 115.5l78 51q43 -118 159 -118q64 0 107.5 34t49.5 84q9 60 -60 106q-17 12 -72 40q-58 30 -76 43q-101 70 -85 180q12 82 78 135q68 53 164 53q136 0 202 -111l-73 -56q-50 80 -135 80q-53 0 -91.5 -29.5t-45.5 -76.5q-7 -60 45 -97 q11 -7 80 -45q60 -31 89 -50q96 -63 80 -180q-13 -91 -87 -145t-175 -54z" horiz-adv-x="558" glyph-name="S" unicode="S"/>
<glyph d="M203 0l97 649h-220l13 90h533l-13 -90h-220l-97 -649h-93z" horiz-adv-x="561" glyph-name="T" unicode="T"/>
<glyph d="M323 -13q-123 0 -186 74q-63 75 -43 206l72 472h92l-70 -461q-30 -200 138 -200q84 0 138.5 51t67.5 141l70 469h93l-72 -482q-19 -128 -99 -199t-201 -71z" horiz-adv-x="703" glyph-name="U" unicode="U"/>
<glyph d="M346 164l326 575h100l-426 -739h-48l-210 739h105z" horiz-adv-x="704" glyph-name="V" unicode="V"/>
<glyph d="M282 0h-46l-145 739h97l101 -548l282 548h38l123 -548l261 548h97l-363 -739h-45l-117 562z" horiz-adv-x="1024" glyph-name="W" unicode="W"/>
<glyph d="M90 0h-112l303 375l-182 364h108l138 -293l229 293h112l-297 -364l190 -375h-108l-146 298z" horiz-adv-x="621" glyph-name="X" unicode="X"/>
<glyph d="M592 739h102l-323 -471l-40 -268h-92l40 268l-180 471h102l136 -382z" horiz-adv-x="633" glyph-name="Y" unicode="Y"/>
<glyph d="M548 0h-549l7 55l497 596h-388l13 88h519l-7 -56l-492 -595h413z" horiz-adv-x="613" glyph-name="Z" unicode="Z"/>
<glyph d="M283 -227h-259l155 1038h259l-11 -72h-167l-134 -894h167z" horiz-adv-x="364" glyph-name="bracketleft" unicode="["/>
<glyph d="M197 825l329 -948h-83l-329 948h83z" horiz-adv-x="597" glyph-name="backslash" unicode="\"/>
<glyph d="M210 -227h-259l10 72h167l134 894h-167l11 72h259z" horiz-adv-x="364" glyph-name="bracketright" unicode="]"/>
<glyph d="M165 431h-92l239 308h50l146 -308h-87l-96 216z" horiz-adv-x="517" glyph-name="asciicircum" unicode="^"/>
<glyph d="M525 -167h-581l12 81h581z" horiz-adv-x="581" glyph-name="underscore" unicode="_"/>
<glyph d="M235 786l34 -166h-75l-68 166h109z" horiz-adv-x="426" glyph-name="grave" unicode="`"/>
<glyph d="M537 452l13 83h86l-80 -535h-86l12 82q-84 -95 -203 -95q-122 0 -184 89t-42 211q18 116 102 188q83 73 197 73q125 0 185 -96zM299 69q83 0 142 58q60 59 72 141q12 80 -32 139t-126 59q-77 0 -135 -50t-74 -126q-18 -86 23 -154q40 -67 130 -67z" horiz-adv-x="663" glyph-name="a" unicode="a"/>
<glyph d="M399 548q113 0 181 -83q67 -82 52 -201t-97 -198t-199 -79q-128 0 -189 99l-13 -86h-89l113 757h89l-45 -297q82 88 197 88zM541 270q11 84 -32 138q-44 56 -126 56q-85 0 -143 -57q-57 -54 -68 -139q-10 -82 33 -140q43 -57 125 -57q86 0 143 57q58 58 68 142z" horiz-adv-x="666" glyph-name="b" unicode="b"/>
<glyph d="M295 -12q-123 0 -190 81q-66 83 -50 205q16 127 103 200q88 74 204 74q81 0 141 -36.5t89 -104.5l-76 -40q-45 99 -153 99q-81 0 -145 -56q-63 -56 -74 -145q-10 -81 34 -139q45 -56 123 -56q55 0 106.5 27t83.5 73l65 -50q-41 -62 -110.5 -97t-150.5 -35z" horiz-adv-x="598" glyph-name="c" unicode="c"/>
<glyph d="M537 448l46 309h89l-113 -757h-89l10 73q-81 -86 -197 -86q-121 0 -186 90t-45 210q16 113 100 188q82 73 194 73q131 0 191 -100zM300 69q83 0 142 58q60 58 70 139q10 78 -34 139q-43 61 -128 61q-75 0 -133 -50q-57 -50 -72 -126q-17 -87 25 -154t130 -67z" horiz-adv-x="666" glyph-name="d" unicode="d"/>
<glyph d="M359 548q114 0 176 -74q62 -75 43 -201q-5 -28 -9 -43h-429q0 -72 41.5 -115.5t122.5 -43.5q47 0 101.5 17.5t96.5 44.5l33 -71q-45 -32 -110 -53t-129 -21q-72 0 -125 25t-80 67t-36.5 92t-1.5 105q17 120 102 195q85 76 204 76zM354 467q-70 0 -125 -43t-77 -114h339 q7 71 -31.5 114t-105.5 43z" horiz-adv-x="609" glyph-name="e" unicode="e"/>
<glyph d="M399 684q-118 0 -138 -125l-4 -24h172l-12 -77h-171l-68 -458h-89l68 458h-94l12 77h93l6 38q14 92 72.5 143.5t146.5 51.5q69 0 116 -29l-34 -72q-40 17 -76 17z" horiz-adv-x="389" glyph-name="f" unicode="f"/>
<glyph d="M531 456l12 79h89l-73 -483q-20 -131 -104 -205q-83 -74 -213 -74q-131 0 -229 77l46 69q34 -28 84.5 -46.5t99.5 -18.5q90 0 152 53t74 135l5 41q-81 -84 -195 -84q-119 0 -184 80q-64 78 -47 201q17 119 104 193q88 75 200 75q120 0 179 -92zM288 80q82 0 143 57 q63 57 77 143q13 80 -31 134q-44 53 -121 53q-84 0 -146 -54q-61 -54 -73 -145q-11 -83 31 -135q44 -53 120 -53z" horiz-adv-x="659" glyph-name="g" unicode="g"/>
<glyph d="M134 0h-89l113 757h86l-45 -298q65 90 183 90q90 0 143 -60q53 -59 35 -178l-46 -311h-89l44 299q12 81 -18 124t-94 43q-70 0 -119.5 -50.5t-61.5 -132.5z" horiz-adv-x="612" glyph-name="h" unicode="h"/>
<glyph d="M186 613q-30 0 -47.5 20t-12.5 49q5 27 25.5 44.5t48.5 17.5t45 -19.5t13 -48.5q-4 -27 -25 -45t-47 -18zM214 535l-80 -535h-89l80 535h89z" horiz-adv-x="241" glyph-name="i" unicode="i"/>
<glyph d="M188 613q-30 0 -47.5 20t-12.5 49q5 27 25.5 44.5t48.5 17.5t45 -19.5t13 -48.5q-4 -27 -25 -45t-47 -18zM-65 -228q-56 0 -97 26l28 73q29 -17 65 -17q94 0 117 149l80 532h89l-83 -551q-32 -212 -199 -212z" horiz-adv-x="245" glyph-name="j" unicode="j"/>
<glyph d="M460 535h123l-286 -225l214 -310h-119l-167 253l-60 -47l-31 -206h-89l113 757h89l-66 -443z" horiz-adv-x="539" glyph-name="k" unicode="k"/>
<glyph d="M247 757l-113 -757h-89l113 757h89z" horiz-adv-x="241" glyph-name="l" unicode="l"/>
<glyph d="M734 549q98 0 148 -65t35 -168l-47 -316h-89l45 305q12 77 -16 119t-89 42q-65 0 -114 -46q-48 -45 -59 -119l-45 -301h-89l45 303q11 77 -17 120t-89 43q-67 0 -115 -48t-61 -133l-43 -285h-89l80 535h87l-11 -78q30 43 75 67.5t98 24.5q55 0 97.5 -27t57.5 -72 q33 46 87.5 72.5t117.5 26.5z" horiz-adv-x="970" glyph-name="m" unicode="m"/>
<glyph d="M134 0h-89l80 535h87l-11 -76q65 90 181 90q90 0 143 -60q53 -59 35 -178l-46 -311h-89l44 299q12 81 -18 124t-94 43q-70 0 -119.5 -50.5t-61.5 -132.5z" horiz-adv-x="614" glyph-name="n" unicode="n"/>
<glyph d="M288 -13q-123 0 -189 84q-64 84 -48 202q17 120 107 197q90 78 208 78q119 0 185 -82t50 -201q-16 -117 -106 -198q-89 -80 -207 -80zM291 69q80 0 145 59t76 142q10 81 -33 138q-43 58 -121 58q-79 0 -143 -58q-65 -57 -75 -142q-11 -83 32 -140q44 -57 119 -57z" horiz-adv-x="635" glyph-name="o" unicode="o"/>
<glyph d="M397 548q113 0 181 -83t54 -201q-15 -118 -96 -198q-80 -79 -198 -79q-129 0 -192 103l-45 -310h-89l113 755h88l-10 -72q82 85 194 85zM541 270q10 81 -34 138q-44 56 -126 56q-85 0 -143 -57q-57 -55 -66 -139q-10 -82 34 -140q45 -57 126 -57q86 0 142 57 q56 56 67 142z" horiz-adv-x="666" glyph-name="p" unicode="p"/>
<glyph d="M539 447l13 88h89l-113 -755h-89l43 295q-79 -88 -199 -88q-126 0 -189 90q-61 90 -42 211q19 115 102 187q82 73 194 73q131 0 191 -101zM300 69q83 0 141 58q61 59 71 139q11 78 -31 139t-128 61q-77 0 -135 -51q-56 -49 -73 -126q-20 -89 24 -155q44 -65 131 -65z" horiz-adv-x="668" glyph-name="q" unicode="q"/>
<glyph d="M134 0h-89l80 535h84l-13 -78q59 92 172 92q29 0 65 -9l-25 -86q-28 9 -54 9q-66 0 -116 -47t-62 -131z" horiz-adv-x="392" glyph-name="r" unicode="r"/>
<glyph d="M198 -12q-138 0 -184 121l69 42q31 -84 120 -84q43 0 75.5 22t37.5 54q8 45 -41 73q-9 5 -50 25q-43 21 -56 28q-21 13 -45 33q-46 40 -35 112q10 62 61 100.5t121 38.5q55 0 97 -23.5t63 -67.5l-64 -47q-30 62 -102 62q-38 0 -62 -17.5t-30 -45.5q-10 -49 48 -79l42 -21 q56 -27 85 -48q32 -22 44 -51.5t8 -74.5q-11 -69 -67 -110.5t-135 -41.5z" horiz-adv-x="448" glyph-name="s" unicode="s"/>
<glyph d="M427 458h-191l-42 -282q-17 -107 70 -107q48 0 103 33l27 -71q-67 -44 -149 -44q-84 0 -118.5 51.5t-20.5 148.5l41 271h-95l12 77h96l28 189h88l-28 -189h191z" horiz-adv-x="422" glyph-name="t" unicode="t"/>
<glyph d="M71 227l47 308h89l-47 -310q-11 -74 19 -114.5t93 -40.5q66 0 109.5 43t55.5 123l46 299h89l-47 -309q-18 -115 -86.5 -177t-173.5 -62q-106 0 -159 63.5t-35 176.5z" horiz-adv-x="592" glyph-name="u" unicode="u"/>
<glyph d="M268 127l228 408h98l-316 -534h-60l-156 534h99z" horiz-adv-x="558" glyph-name="v" unicode="v"/>
<glyph d="M238 1h-74l-103 534h93l68 -409l212 409h62l93 -409l187 409h93l-259 -534h-73l-91 411z" horiz-adv-x="834" glyph-name="w" unicode="w"/>
<glyph d="M311 271l145 -271h-103l-104 204l-164 -204h-108l231 278l-133 257h104l94 -192l153 192h106z" horiz-adv-x="501" glyph-name="x" unicode="x"/>
<glyph d="M274 125l208 410h100l-316 -603q-45 -85 -92.5 -122t-106.5 -37q-53 0 -90 24l23 75q31 -16 62 -16q68 0 123 97l30 53l-152 529h102z" horiz-adv-x="548" glyph-name="y" unicode="y"/>
<glyph d="M502 483l-372 -406h320l-11 -77h-440l8 56l371 401h-293l11 77h413z" horiz-adv-x="504" glyph-name="z" unicode="z"/>
<glyph d="M404 811h41l-11 -72h-33q-99 0 -112 -96l-18 -105l-17 -107q-8 -47 -42.5 -84t-85.5 -58q45 -20 69 -57t17 -84l-15 -110q-3 -20 -6 -43t-5 -37t-3 -22q-14 -95 82 -95h35l-11 -72h-39q-85 0 -124 44.5t-26 130.5l15 110l14 103q8 54 -27 76q-23 16 -72 28l8 58 q47 11 80 28q44 24 51 78l16 93q11 60 19 121q25 172 200 172z" horiz-adv-x="366" glyph-name="braceleft" unicode="{"/>
<glyph d="M109 -179h-78l153 1026h78z" horiz-adv-x="256" glyph-name="bar" unicode="|"/>
<glyph d="M359 319l-7 -58q-50 -12 -81 -29q-42 -23 -50 -77l-16 -93q-11 -64 -19 -120q-26 -173 -200 -173h-41l11 72h33q99 0 112 97q3 19 17 108q5 26 17 104q13 93 127 141q-98 47 -85 142l14 100q12 91 16 112q13 94 -82 94h-35l11 72h39q85 0 124 -45t26 -129l-15 -112 q-3 -20 -6 -43t-5 -37t-3 -22q-4 -26 2 -46q8 -20 25 -30q26 -17 71 -28z" horiz-adv-x="366" glyph-name="braceright" unicode="}"/>
<glyph d="M443 253q-49 0 -110 34t-89 34q-32 0 -57 -13.5t-55 -46.5l-52 43q71 95 177 95q48 0 109 -34q62 -34 91 -34q32 0 57 13.5t55 46.5l52 -43q-74 -95 -178 -95z" horiz-adv-x="663" glyph-name="asciitilde" unicode="~"/>
<glyph d="M107 468q4 26 23 42t46 16t42.5 -18.5t10.5 -44.5q-4 -26 -23.5 -42.5t-45.5 -16.5t-41.5 18.5t-11.5 45.5zM2 -225l99 563h91l-90 -563h-100z" horiz-adv-x="274" glyph-name="exclamdown" unicode="¡"/>
<glyph d="M397 464l-58 -391q99 16 155 97l65 -50q-36 -56 -98 -90.5t-135 -40.5l-12 -80h-66l12 81q-106 13 -161 92q-55 78 -41 192q15 120 95 193q78 72 191 80l12 82h66l-13 -84q137 -19 186 -138l-76 -40q-35 83 -122 97zM147 265q-9 -72 26 -127q35 -54 100 -65l58 390 q-71 -12 -123 -66q-50 -52 -61 -132z" horiz-adv-x="609" glyph-name="cent" unicode="¢"/>
<glyph d="M391 668q-60 0 -105 -39.5t-56 -100.5q-8 -49 8 -113h246l-12 -78h-218q5 -49 -1 -85q-9 -47 -37 -92.5t-67 -74.5h359l-12 -85h-472l10 76q48 31 85 87q40 58 47 112q4 26 -2 62h-90l12 78h62q-19 81 -10 133q16 94 85 148t166 56q66 1 118 -31t77 -87l-74 -45 q-15 35 -47.5 57t-71.5 22z" horiz-adv-x="568" glyph-name="sterling" unicode="£"/>
<glyph d="M564 364q-10 -66 -57 -125l60 -68l-57 -50l-59 67q-68 -47 -143 -47q-72 0 -128 45l-76 -65l-47 50l79 69q-31 58 -21 130q12 77 65 136l-62 71l56 50l63 -72q65 41 135 41t122 -42l87 76l47 -53l-88 -76q36 -63 24 -137zM191 366q-10 -63 25 -108q36 -44 97 -44 q64 0 114 46q51 47 62 112q9 64 -28 107q-36 44 -97 44q-65 0 -114 -46q-48 -44 -59 -111z" horiz-adv-x="635" glyph-name="currency" unicode="¤"/>
<glyph d="M583 739h100l-259 -376h137l-11 -70h-174l-2 -3l-8 -55h176l-11 -70h-176l-24 -165h-92l24 165h-178l11 70h178l8 58h-178l11 70h141l-145 376h97l133 -359z" horiz-adv-x="633" glyph-name="yen" unicode="¥"/>
<glyph d="M200 434h-78l62 413h78zM93 234h78l-62 -413h-78z" horiz-adv-x="256" glyph-name="brokenbar" unicode="¦"/>
<glyph d="M361 405l14 -8q37 -21 57 -36q17 -12 45 -38q50 -45 39 -114q-14 -85 -96 -129q26 -45 15 -107q-14 -80 -76 -132q-61 -52 -157 -52q-136 0 -202 105l67 56q53 -77 139 -77q55 0 93.5 31t45.5 78q8 51 -32 86q-27 23 -41 32q-22 15 -58 36q-91 54 -127 100.5t-25 109.5 q15 81 94 115q-28 53 -18 114q14 81 77 128q65 48 153 48q133 0 196 -102l-70 -52q-57 70 -128 70q-54 0 -89.5 -27.5t-43.5 -75.5q-10 -54 29 -92q31 -27 99 -67zM423 205q5 35 -19 61t-82 58q-78 43 -116 76q-46 -16 -54 -66q-6 -39 29 -69q8 -7 20.5 -16t13.5 -10 q13 -9 49 -29q79 -48 105 -70q47 17 54 65z" horiz-adv-x="554" glyph-name="section" unicode="§"/>
<glyph d="M181 632q-29 0 -45.5 19.5t-12.5 48.5q4 27 25.5 45t49.5 18q27 0 44 -19t13 -46q-4 -29 -25.5 -47.5t-48.5 -18.5zM377 632q-29 0 -45.5 19.5t-12.5 48.5q4 27 25.5 45t49.5 18q27 0 44 -19t13 -46q-4 -29 -25.5 -47.5t-48.5 -18.5z" horiz-adv-x="494" glyph-name="dieresis" unicode="¨"/>
<glyph d="M400 -12q-159 0 -257 113q-97 112 -73 275q24 162 151 268q127 108 286 108q163 0 260 -114q97 -112 73 -271t-151 -269t-289 -110zM406 52q136 0 242 93q107 93 126 226q20 132 -59 223q-79 93 -213 93q-132 0 -239 -90q-108 -91 -127 -225q-20 -136 59 -228 q80 -92 211 -92zM430 164q-87 0 -138 61q-51 62 -38 149q14 87 79 143q66 57 151 57q100 0 149 -73l-49 -36q-38 51 -106 51q-62 0 -107 -42q-46 -43 -53 -106q-8 -64 24 -104.5t92 -40.5q72 0 121 48l36 -44q-66 -63 -161 -63z" horiz-adv-x="862" glyph-name="copyright" unicode="©"/>
<glyph d="M272 736q70 0 105.5 -42t24.5 -115l-28 -188h-56l6 42q-44 -51 -117 -51q-57 0 -89.5 33t-24.5 84q7 45 49 71t113 26q28 0 92 -11q11 93 -83 93q-57 0 -105 -30l-18 51q50 37 131 37zM216 437q44 0 76 26.5t45 71.5q-46 10 -83 10q-92 0 -100 -53q-3 -23 13.5 -39 t48.5 -16z" horiz-adv-x="413" glyph-name="ordfeminine" unicode="ª"/>
<glyph d="M253 88h-85l-114 203l172 203h89l-174 -203zM432 88h-86l-112 203l170 203h90l-173 -203z" horiz-adv-x="506" glyph-name="guillemotleft" unicode="«"/>
<glyph d="M464 277h-383l13 84h462l-31 -207h-79z" horiz-adv-x="608" glyph-name="logicalnot" unicode="¬"/>
<glyph d="M459 287h-382l13 82h382z" horiz-adv-x="514" glyph-name="uni00AD" unicode="­"/>
<glyph d="M359 761q104 0 163 -72q60 -71 45 -169q-13 -96 -94 -166q-79 -69 -177 -69q-99 0 -159 70t-46 172q13 98 91 167q77 67 177 67zM520 522q12 76 -35 134q-46 58 -130 58q-82 0 -144 -55q-63 -57 -73 -134q-11 -81 35 -137q47 -56 127 -56q79 0 144 56q66 56 76 134z M264 646h94q37 0 57 -23.5t15 -57.5q-6 -52 -57 -71l40 -89h-51l-35 82h-42l-12 -82h-45zM386 568q2 18 -8.5 29t-33.5 11h-41l-12 -84h39q51 0 56 44z" horiz-adv-x="564" glyph-name="registered" unicode="®"/>
<glyph d="M409 648l-304 -1l12 81h304z" horiz-adv-x="474" glyph-name="overscore" unicode="¯"/>
<glyph d="M234 542q-57 0 -92 35t-35 87q0 60 47 107q49 47 113 47q54 0 90.5 -33.5t36.5 -87.5q0 -62 -49 -108q-49 -47 -111 -47zM237 599q38 0 67 29q29 31 29 67q0 30 -19.5 48t-49.5 18q-38 0 -66 -30q-27 -29 -27 -66q0 -28 18 -47t48 -19z" horiz-adv-x="363" glyph-name="degree" unicode="°"/>
<glyph d="M409 672l-28 -189h188l-13 -85h-188l-28 -188l-84 -1l28 189h-190l13 85h190l28 189h84zM510 87h-462l12 81h462z" horiz-adv-x="594" glyph-name="plusminus" unicode="±"/>
<glyph d="M384 788q-11 -55 -70 -110l-119 -109h160l-10 -62h-257l8 55l147 135q19 19 35 33q33 33 37 63q4 25 -11.5 40.5t-41.5 15.5q-45 0 -102 -45l-30 52q68 56 141 56q58 0 89.5 -34t23.5 -90z" horiz-adv-x="344" glyph-name="uni00B2" unicode="²"/>
<glyph d="M385 804q-11 -64 -83 -90q36 -10 52.5 -37t11.5 -63q-8 -49 -52.5 -81t-107.5 -32q-65 0 -124 41l33 49q47 -30 94 -30q36 0 59.5 17.5t27.5 45.5q4 27 -14 42.5t-52 15.5h-52l8 58h48q31 0 54 16t27 42q4 24 -12.5 38.5t-44.5 14.5q-39 0 -91 -34l-28 47q59 48 132 48 q56 0 88.5 -31t25.5 -77z" horiz-adv-x="349" glyph-name="uni00B3" unicode="³"/>
<glyph d="M182 620h-79l84 166h113z" horiz-adv-x="455" glyph-name="acute" unicode="´"/>
<glyph d="M335 734h335l-12 -82h-63l-133 -855h-85l132 855h-76l-132 -855h-85l77 512h-27q-88 0 -145 63q-56 64 -43 159q12 91 82 146q70 57 175 57z" horiz-adv-x="645" glyph-name="paragraph" unicode="¶"/>
<glyph d="M42 52q4 26 23 42t46 16t42.5 -18.5t10.5 -44.5q-4 -26 -23.5 -42.5t-45.5 -16.5t-41.5 18.5t-11.5 45.5z" horiz-adv-x="254" glyph-name="middot" unicode="·"/>
<glyph d="M130 -48h9q43 0 69 -26.5t20 -69.5q-6 -44 -45.5 -74t-99.5 -30q-53 0 -106 30l27 58q43 -20 81 -20q29 0 47 12.5t20 33.5q3 16 -8 25.5t-37 9.5h-57l-6 21l54 98l69 -2z" horiz-adv-x="310" glyph-name="cedilla" unicode="¸"/>
<glyph d="M106 793l145 106h53l-59 -392h-69l43 295l-82 -60z" horiz-adv-x="263" glyph-name="uni00B9" unicode="¹"/>
<glyph d="M249 381q-75 0 -121 51q-45 52 -33 130t70 125q58 49 134 49t120 -53t32 -129q-10 -73 -70 -123q-59 -50 -132 -50zM252 437q50 0 91 35q42 36 50 89q8 50 -20.5 85t-79.5 35t-91 -36q-40 -35 -48 -87q-8 -51 20.5 -86t77.5 -35z" horiz-adv-x="442" glyph-name="ordmasculine" unicode="º"/>
<glyph d="M287 291l-173 -203h-86l172 203l-112 203h90zM467 291l-175 -203h-85l173 203l-113 203h89z" horiz-adv-x="505" glyph-name="guillemotright" unicode="»"/>
<glyph d="M66 0l688 739h79l-686 -739h-81zM149 346l42 296l-82 -60l-31 51l145 106h53l-58 -393h-69zM732 396h46l-37 -242h44l-8 -55h-44l-15 -99h-59l15 99h-186l-9 39zM702 293l-136 -139h116z" horiz-adv-x="834" glyph-name="onequarter" unicode="¼"/>
<glyph d="M33 0l688 739h79l-686 -739h-81zM150 346l42 296l-82 -60l-31 51l145 106h53l-58 -393h-69zM679 405q58 0 89.5 -34t23.5 -90q-11 -55 -70 -110l-119 -109h160l-10 -62h-257l8 55l147 135q19 19 35 33q33 33 37 63q4 25 -11.5 40.5t-41.5 15.5q-45 0 -102 -45l-30 52 q68 56 141 56z" horiz-adv-x="834" glyph-name="onehalf" unicode="½"/>
<glyph d="M346 454q-8 -49 -52.5 -81t-107.5 -32q-65 0 -124 41l33 49q47 -30 94 -30q36 0 59.5 17.5t27.5 45.5q4 27 -14 42.5t-52 15.5h-52l8 58h48q31 0 54 16t27 42q4 24 -12.5 38.5t-44.5 14.5q-39 0 -91 -34l-28 47q59 48 132 48q56 0 88.5 -31t25.5 -77q-11 -64 -83 -90 q36 -10 52.5 -37t11.5 -63zM97 0l688 739h79l-686 -739h-81zM771 396h46l-37 -242h44l-8 -55h-44l-15 -99h-59l15 99h-186l-9 39zM741 293l-136 -139h116z" horiz-adv-x="839" glyph-name="threequarters" unicode="¾"/>
<glyph d="M323 528q27 0 42.5 -18.5t10.5 -45.5q-5 -25 -24.5 -41.5t-45.5 -16.5q-28 0 -42.5 18.5t-9.5 44.5t24.5 42.5t44.5 16.5zM257 352h83l-13 -75q-12 -78 -96 -139q-5 -3 -33 -23t-36.5 -26.5t-29.5 -25t-30 -31t-19 -31t-14 -37.5q-10 -54 21.5 -88.5t88.5 -34.5 q87 0 172 79l47 -64q-46 -45 -107.5 -72t-120.5 -27q-93 0 -150 61q-57 60 -39 148q18 89 101 153q9 7 50 38.5t56 45t34.5 40t23.5 50.5z" horiz-adv-x="497" glyph-name="questiondown" unicode="¿"/>
<glyph d="M413 960l34 -166h-75l-68 166h109zM626 0h-102l-48 197h-283l-107 -197h-104l410 739h44zM238 285h218l-66 284z" horiz-adv-x="671" glyph-name="Agrave" unicode="À"/>
<glyph d="M476 959h113l-118 -166h-79zM626 0h-102l-48 197h-283l-107 -197h-104l410 739h44zM238 285h218l-66 284z" horiz-adv-x="671" glyph-name="Aacute" unicode="Á"/>
<glyph d="M495 792l-59 90l-87 -90h-99l163 162h63l115 -162h-96zM626 0h-102l-48 197h-283l-107 -197h-104l410 739h44zM238 285h218l-66 284z" horiz-adv-x="671" glyph-name="Acircumflex" unicode="Â"/>
<glyph d="M360 848q-42 0 -70 -49l-56 33q18 42 51 66t73 24q34 0 74 -22t58 -22q43 0 69 47l54 -32q-18 -43 -50.5 -66.5t-72.5 -23.5q-33 0 -73 22q-41 23 -57 23zM626 0h-102l-48 197h-283l-107 -197h-104l410 739h44zM238 285h218l-66 284z" horiz-adv-x="671" glyph-name="Atilde" unicode="Ã"/>
<glyph d="M341 808q-26 0 -41 17.5t-11 42.5q3 24 22.5 40.5t44.5 16.5q24 0 39 -17t12 -41q-4 -26 -23 -42.5t-43 -16.5zM516 808q-26 0 -41 17.5t-11 42.5q3 24 22.5 40.5t44.5 16.5q24 0 39 -17t12 -41q-4 -26 -23 -42.5t-43 -16.5zM626 0h-102l-48 197h-283l-107 -197h-104 l410 739h44zM238 285h218l-66 284z" horiz-adv-x="671" glyph-name="Adieresis" unicode="Ä"/>
<glyph d="M424 781q-49 0 -77 31.5t-21 78.5q8 47 44 78q38 32 85 32q49 0 77 -33q29 -33 22 -79q-8 -46 -45 -77t-85 -31zM431 837q23 0 41 16t22 40q4 21 -10 36.5t-35 15.5q-23 0 -41.5 -15.5t-22.5 -38.5t10 -38.5t36 -15.5zM626 0h-102l-48 197h-283l-107 -197h-104l410 739 h44zM238 285h218l-66 284z" horiz-adv-x="671" glyph-name="Aring" unicode="Å"/>
<glyph d="M1032 739l-13 -88h-370l-35 -231h340l-13 -88h-340l-36 -244h371l-13 -88h-464l33 225h-260l-172 -225h-106l578 739h500zM556 650l-257 -337h207z" horiz-adv-x="1010" glyph-name="AE" unicode="Æ"/>
<glyph d="M410 80q156 0 273 130l61 -61q-62 -70 -147 -112.5t-179 -47.5l-21 -37h9q43 0 69 -26.5t20 -69.5q-6 -44 -45.5 -74t-99.5 -30q-54 0 -106 30l27 58q43 -20 81 -20q29 0 47 12.5t20 33.5q3 16 -8 25.5t-37 9.5h-57l-6 21l38 70q-142 17 -221 119q-80 104 -59 262 q23 171 145 274q123 105 284 105q103 0 181 -44.5t121 -122.5l-74 -52q-33 61 -92.5 95.5t-139.5 34.5q-128 0 -219 -81q-92 -81 -110 -209q-19 -130 51 -212q70 -81 194 -81z" horiz-adv-x="778" glyph-name="Ccedilla" unicode="Ç"/>
<glyph d="M419 960l34 -166h-75l-68 166h109zM518 0h-454l110 739h453l-13 -88h-361l-35 -231h334l-13 -88h-334l-36 -244h362z" horiz-adv-x="605" glyph-name="Egrave" unicode="È"/>
<glyph d="M440 793h-79l84 166h113zM518 0h-454l110 739h453l-13 -88h-361l-35 -231h334l-13 -88h-334l-36 -244h362z" horiz-adv-x="605" glyph-name="Eacute" unicode="É"/>
<glyph d="M330 792h-99l163 162h63l115 -162h-96l-59 90zM518 0h-454l110 739h453l-13 -88h-361l-35 -231h334l-13 -88h-334l-36 -244h362z" horiz-adv-x="605" glyph-name="Ecircumflex" unicode="Ê"/>
<glyph d="M321 808q-26 0 -41 17.5t-11 42.5q3 24 22.5 40.5t44.5 16.5q24 0 39 -17t12 -41q-4 -26 -23 -42.5t-43 -16.5zM496 808q-26 0 -41 17.5t-11 42.5q3 24 22.5 40.5t44.5 16.5q24 0 39 -17t12 -41q-4 -26 -23 -42.5t-43 -16.5zM518 0h-454l110 739h453l-13 -88h-361 l-35 -231h334l-13 -88h-334l-36 -244h362z" horiz-adv-x="605" glyph-name="Edieresis" unicode="Ë"/>
<glyph d="M229 960l34 -166h-75l-68 166h109zM67 0l110 739h92l-110 -739h-92z" horiz-adv-x="282" glyph-name="Igrave" unicode="Ì"/>
<glyph d="M264 794h-79l84 166h113zM64 0l110 739h92l-110 -739h-92z" horiz-adv-x="279" glyph-name="Iacute" unicode="Í"/>
<glyph d="M159 794h-99l163 162h63l115 -162h-96l-59 90zM67 0l110 739h92l-110 -739h-92z" horiz-adv-x="282" glyph-name="Icircumflex" unicode="Î"/>
<glyph d="M144 802q-28 0 -43.5 18t-11.5 45q4 26 24 43t47 17q25 0 41 -18t12 -43q-4 -27 -24 -44.5t-45 -17.5zM327 802q-27 0 -42.5 18t-11.5 45q4 26 24 43t46 17t42 -18t12 -43q-4 -27 -24.5 -44.5t-45.5 -17.5zM67 0l110 739h92l-110 -739h-92z" horiz-adv-x="282" glyph-name="Idieresis" unicode="Ï"/>
<glyph d="M194 739h258q163 0 241 -101q79 -100 55 -274q-22 -170 -126 -267q-103 -97 -265 -97h-273l49 329h-102l12 82h102zM654 375q18 123 -36 199q-53 77 -170 77h-175l-36 -240h217l-12 -82h-217l-36 -241h168q124 0 200 79q77 79 97 208z" horiz-adv-x="776" glyph-name="Eth" unicode="Ð"/>
<glyph d="M342 799l-56 33q18 42 51 66t73 24q34 0 74 -22t58 -22q43 0 69 47l54 -32q-18 -43 -50.5 -66.5t-72.5 -23.5q-33 0 -73 22q-41 23 -57 23q-42 0 -70 -49zM589 201l81 538h92l-110 -739h-43l-372 535l-81 -535h-92l110 739h36z" horiz-adv-x="778" glyph-name="Ntilde" unicode="Ñ"/>
<glyph d="M528 960l34 -166h-75l-68 166h109zM398 -12q-159 0 -255 112t-73 273t149 270q127 109 287 109q106 2 188 -51t119.5 -142.5t20.5 -191.5q-24 -160 -151 -269q-128 -110 -285 -110zM404 78q118 0 216 83q97 83 118 210q21 125 -48 207q-69 83 -190 83q-122 0 -219 -84 q-95 -82 -115 -209q-20 -125 50 -208q70 -82 188 -82z" glyph-name="Ograve" unicode="Ò"/>
<glyph d="M560 793h-79l84 166h113zM398 -12q-159 0 -255 112t-73 273t149 270q127 109 287 109q106 2 188 -51t119.5 -142.5t20.5 -191.5q-24 -160 -151 -269q-128 -110 -285 -110zM404 78q118 0 216 83q97 83 118 210q21 125 -48 207q-69 83 -190 83q-122 0 -219 -84 q-95 -82 -115 -209q-20 -125 50 -208q70 -82 188 -82z" glyph-name="Oacute" unicode="Ó"/>
<glyph d="M444 792h-99l163 162h63l115 -162h-96l-59 90zM398 -12q-159 0 -255 112t-73 273t149 270q127 109 287 109q106 2 188 -51t119.5 -142.5t20.5 -191.5q-24 -160 -151 -269q-128 -110 -285 -110zM404 78q118 0 216 83q97 83 118 210q21 125 -48 207q-69 83 -190 83 q-122 0 -219 -84q-95 -82 -115 -209q-20 -125 50 -208q70 -82 188 -82z" glyph-name="Ocircumflex" unicode="Ô"/>
<glyph d="M393 799l-56 33q18 42 51 66t73 24q34 0 74 -22t58 -22q43 0 69 47l54 -32q-18 -43 -50.5 -66.5t-72.5 -23.5q-33 0 -73 22q-41 23 -57 23q-42 0 -70 -49zM398 -12q-159 0 -255 112t-73 273t149 270q127 109 287 109q106 2 188 -51t119.5 -142.5t20.5 -191.5 q-24 -160 -151 -269q-128 -110 -285 -110zM404 78q118 0 216 83q97 83 118 210q21 125 -48 207q-69 83 -190 83q-122 0 -219 -84q-95 -82 -115 -209q-20 -125 50 -208q70 -82 188 -82z" glyph-name="Otilde" unicode="Õ"/>
<glyph d="M434 808q-26 0 -41 17.5t-11 42.5q3 24 22.5 40.5t44.5 16.5q24 0 39 -17t12 -41q-4 -26 -23 -42.5t-43 -16.5zM609 808q-26 0 -41 17.5t-11 42.5q3 24 22.5 40.5t44.5 16.5q24 0 39 -17t12 -41q-4 -26 -23 -42.5t-43 -16.5zM398 -12q-159 0 -255 112t-73 273t149 270 q127 109 287 109q106 2 188 -51t119.5 -142.5t20.5 -191.5q-24 -160 -151 -269q-128 -110 -285 -110zM404 78q118 0 216 83q97 83 118 210q21 125 -48 207q-69 83 -190 83q-122 0 -219 -84q-95 -82 -115 -209q-20 -125 50 -208q70 -82 188 -82z" glyph-name="Odieresis" unicode="Ö"/>
<glyph d="M452 541l47 -53l-170 -150l126 -147l-60 -56l-128 150l-170 -150l-46 56l170 148l-125 147l59 55l127 -148z" horiz-adv-x="513" glyph-name="multiply" unicode="×"/>
<glyph d="M820 743l-73 -86q54 -54 77 -130t10 -160q-24 -160 -151 -269q-128 -110 -285 -110q-101 0 -181 49l-70 -82l-56 42l71 83q-55 55 -80 131.5t-12 161.5q23 161 149 270q127 109 287 109q104 0 187 -51l72 84zM166 368q-20 -132 58 -216l407 476q-58 33 -131 33 q-122 0 -219 -84q-95 -82 -115 -209zM738 371q22 128 -53 214l-406 -476q53 -31 125 -31q118 0 216 83q97 83 118 210z" glyph-name="Oslash" unicode="Ø"/>
<glyph d="M445 960l34 -166h-75l-68 166h109zM323 -13q-123 0 -186 74q-63 75 -43 206l72 472h92l-70 -461q-30 -200 138 -200q84 0 138.5 51t67.5 141l70 469h93l-72 -482q-19 -128 -99 -199t-201 -71z" horiz-adv-x="703" glyph-name="Ugrave" unicode="Ù"/>
<glyph d="M473 793h-79l84 166h113zM323 -13q-123 0 -186 74q-63 75 -43 206l72 472h92l-70 -461q-30 -200 138 -200q84 0 138.5 51t67.5 141l70 469h93l-72 -482q-19 -128 -99 -199t-201 -71z" horiz-adv-x="703" glyph-name="Uacute" unicode="Ú"/>
<glyph d="M371 792h-99l163 162h63l115 -162h-96l-59 90zM323 -13q-123 0 -186 74q-63 75 -43 206l72 472h92l-70 -461q-30 -200 138 -200q84 0 138.5 51t67.5 141l70 469h93l-72 -482q-19 -128 -99 -199t-201 -71z" horiz-adv-x="703" glyph-name="Ucircumflex" unicode="Û"/>
<glyph d="M360 808q-26 0 -41 17.5t-11 42.5q3 24 22.5 40.5t44.5 16.5q24 0 39 -17t12 -41q-4 -26 -23 -42.5t-43 -16.5zM535 808q-26 0 -41 17.5t-11 42.5q3 24 22.5 40.5t44.5 16.5q24 0 39 -17t12 -41q-4 -26 -23 -42.5t-43 -16.5zM323 -13q-123 0 -186 74q-63 75 -43 206 l72 472h92l-70 -461q-30 -200 138 -200q84 0 138.5 51t67.5 141l70 469h93l-72 -482q-19 -128 -99 -199t-201 -71z" horiz-adv-x="703" glyph-name="Udieresis" unicode="Ü"/>
<glyph d="M435 793h-79l84 166h113zM592 739h102l-323 -471l-40 -268h-92l40 268l-180 471h102l136 -382z" horiz-adv-x="633" glyph-name="Yacute" unicode="Ý"/>
<glyph d="M246 607h146q121 0 170 -67q51 -67 39 -161q-12 -96 -86 -161q-73 -63 -210 -63h-126l-23 -155h-92l110 739h92zM509 385q9 58 -22.5 96t-96.5 38h-157l-41 -277h129q78 0 128.5 40.5t59.5 102.5z" horiz-adv-x="617" glyph-name="Thorn" unicode="Þ"/>
<glyph d="M617 561q-16 -117 -125 -168q56 -25 84 -77t20 -120q-12 -97 -86 -156t-180 -59q-66 0 -126 24l25 82q38 -20 103 -20q73 0 120 41t55 101q7 64 -40 104t-128 40l8 75q67 0 119 38q51 37 62 98q9 57 -25.5 94t-95.5 37q-74 0 -131 -69q-58 -70 -74 -179l-93 -624h-91 l94 627q24 162 104 244t198 82q105 0 161 -62q55 -62 42 -153z" horiz-adv-x="640" glyph-name="germandbls" unicode="ß"/>
<glyph d="M394 788l34 -166h-75l-68 166h109zM537 452l13 83h86l-80 -535h-86l12 82q-84 -95 -203 -95q-122 0 -184 89t-42 211q18 116 102 188q83 73 197 73q125 0 185 -96zM299 69q83 0 142 58q60 59 72 141q12 80 -32 139t-126 59q-77 0 -135 -50t-74 -126q-18 -86 23 -154 q40 -67 130 -67z" horiz-adv-x="663" glyph-name="agrave" unicode="à"/>
<glyph d="M436 788h113l-118 -166h-79zM537 452l13 83h86l-80 -535h-86l12 82q-84 -95 -203 -95q-122 0 -184 89t-42 211q18 116 102 188q83 73 197 73q125 0 185 -96zM299 69q83 0 142 58q60 59 72 141q12 80 -32 139t-126 59q-77 0 -135 -50t-74 -126q-18 -86 23 -154 q40 -67 130 -67z" horiz-adv-x="663" glyph-name="aacute" unicode="á"/>
<glyph d="M463 621l-59 90l-87 -90h-99l163 162h63l115 -162h-96zM537 452l13 83h86l-80 -535h-86l12 82q-84 -95 -203 -95q-122 0 -184 89t-42 211q18 116 102 188q83 73 197 73q125 0 185 -96zM299 69q83 0 142 58q60 59 72 141q12 80 -32 139t-126 59q-77 0 -135 -50t-74 -126 q-18 -86 23 -154q40 -67 130 -67z" horiz-adv-x="663" glyph-name="acircumflex" unicode="â"/>
<glyph d="M337 678q-42 0 -70 -49l-56 33q18 42 51 66t73 24q34 0 74 -22t58 -22q43 0 69 47l54 -32q-18 -43 -50.5 -66.5t-72.5 -23.5q-33 0 -73 22q-41 23 -57 23zM537 452l13 83h86l-80 -535h-86l12 82q-84 -95 -203 -95q-122 0 -184 89t-42 211q18 116 102 188q83 73 197 73 q125 0 185 -96zM299 69q83 0 142 58q60 59 72 141q12 80 -32 139t-126 59q-77 0 -135 -50t-74 -126q-18 -86 23 -154q40 -67 130 -67z" horiz-adv-x="663" glyph-name="atilde" unicode="ã"/>
<glyph d="M286 618q-29 0 -45.5 19.5t-12.5 48.5q4 27 25.5 45t49.5 18q27 0 44 -19t13 -46q-4 -29 -25.5 -47.5t-48.5 -18.5zM482 618q-29 0 -45.5 19.5t-12.5 48.5q4 27 25.5 45t49.5 18q27 0 44 -19t13 -46q-4 -29 -25.5 -47.5t-48.5 -18.5zM537 452l13 83h86l-80 -535h-86 l12 82q-84 -95 -203 -95q-122 0 -184 89t-42 211q18 116 102 188q83 73 197 73q125 0 185 -96zM299 69q83 0 142 58q60 59 72 141q12 80 -32 139t-126 59q-77 0 -135 -50t-74 -126q-18 -86 23 -154q40 -67 130 -67z" horiz-adv-x="663" glyph-name="adieresis" unicode="ä"/>
<glyph d="M386 601q-49 0 -77 31.5t-21 78.5q8 47 44 78q38 32 85 32q49 0 77 -33q29 -33 22 -79q-8 -46 -45 -77t-85 -31zM393 657q23 0 41 16t22 40q4 21 -10 36.5t-35 15.5q-23 0 -41.5 -15.5t-22.5 -38.5t10 -38.5t36 -15.5zM537 452l13 83h86l-80 -535h-86l12 82 q-84 -95 -203 -95q-122 0 -184 89t-42 211q18 116 102 188q83 73 197 73q125 0 185 -96zM299 69q83 0 142 58q60 59 72 141q12 80 -32 139t-126 59q-77 0 -135 -50t-74 -126q-18 -86 23 -154q40 -67 130 -67z" horiz-adv-x="663" glyph-name="aring" unicode="å"/>
<glyph d="M746 548q113 0 175 -71t43 -194l-10 -45l-430 2q-2 -75 38.5 -122t118.5 -47q47 0 101 17t95 45l35 -71q-44 -32 -110.5 -53t-131.5 -21q-80 0 -135.5 34t-80.5 95q-87 -129 -248 -129q-96 0 -146 50q-48 50 -36 127q14 96 113 127q80 24 180 24h123q3 71 -33 109.5 t-112 38.5q-43 0 -91.5 -14t-81.5 -37l-37 68q42 30 103 48q60 19 116 19q70 0 124 -29.5t78 -83.5q92 113 240 113zM741 466q-68 0 -123.5 -41.5t-79.5 -108.5h339q7 70 -31 110t-105 40zM211 71q80 0 136 45t80 124l-143 1q-161 1 -172 -85q-4 -39 23.5 -62t75.5 -23z" horiz-adv-x="991" glyph-name="ae" unicode="æ"/>
<glyph d="M301 70q55 0 106.5 27t83.5 73l65 -50q-39 -59 -104.5 -93.5t-141.5 -38.5l-20 -36h9q43 0 69 -26.5t20 -69.5q-6 -44 -45.5 -74t-99.5 -30q-53 0 -106 30l27 58q43 -20 81 -20q29 0 47 12.5t20 33.5q3 16 -8 25.5t-37 9.5h-57l-6 21l39 70q-100 18 -151 96 q-51 77 -37 186q16 127 103 200q88 74 204 74q81 0 141 -36.5t89 -104.5l-76 -40q-45 99 -153 99q-81 0 -145 -56q-63 -56 -74 -145q-10 -81 34 -139q45 -56 123 -56z" horiz-adv-x="598" glyph-name="ccedilla" unicode="ç"/>
<glyph d="M379 786l34 -166h-75l-68 166h109zM359 548q114 0 176 -74q62 -75 43 -201q-5 -28 -9 -43h-429q0 -72 41.5 -115.5t122.5 -43.5q47 0 101.5 17.5t96.5 44.5l33 -71q-45 -32 -110 -53t-129 -21q-72 0 -125 25t-80 67t-36.5 92t-1.5 105q17 120 102 195q85 76 204 76z M354 467q-70 0 -125 -43t-77 -114h339q7 71 -31.5 114t-105.5 43z" horiz-adv-x="609" glyph-name="egrave" unicode="è"/>
<glyph d="M421 788h113l-118 -166h-79zM359 548q114 0 176 -74q62 -75 43 -201q-5 -28 -9 -43h-429q0 -72 41.5 -115.5t122.5 -43.5q47 0 101.5 17.5t96.5 44.5l33 -71q-45 -32 -110 -53t-129 -21q-72 0 -125 25t-80 67t-36.5 92t-1.5 105q17 120 102 195q85 76 204 76zM354 467 q-70 0 -125 -43t-77 -114h339q7 71 -31.5 114t-105.5 43z" horiz-adv-x="609" glyph-name="eacute" unicode="é"/>
<glyph d="M451 623l-59 90l-87 -90h-99l163 162h63l115 -162h-96zM359 548q114 0 176 -74q62 -75 43 -201q-5 -28 -9 -43h-429q0 -72 41.5 -115.5t122.5 -43.5q47 0 101.5 17.5t96.5 44.5l33 -71q-45 -32 -110 -53t-129 -21q-72 0 -125 25t-80 67t-36.5 92t-1.5 105q17 120 102 195 q85 76 204 76zM354 467q-70 0 -125 -43t-77 -114h339q7 71 -31.5 114t-105.5 43z" horiz-adv-x="609" glyph-name="ecircumflex" unicode="ê"/>
<glyph d="M283 616q-29 0 -45.5 19.5t-12.5 48.5q4 27 25.5 45t49.5 18q27 0 44 -19t13 -46q-4 -29 -25.5 -47.5t-48.5 -18.5zM479 616q-29 0 -45.5 19.5t-12.5 48.5q4 27 25.5 45t49.5 18q27 0 44 -19t13 -46q-4 -29 -25.5 -47.5t-48.5 -18.5zM359 548q114 0 176 -74 q62 -75 43 -201q-5 -28 -9 -43h-429q0 -72 41.5 -115.5t122.5 -43.5q47 0 101.5 17.5t96.5 44.5l33 -71q-45 -32 -110 -53t-129 -21q-72 0 -125 25t-80 67t-36.5 92t-1.5 105q17 120 102 195q85 76 204 76zM354 467q-70 0 -125 -43t-77 -114h339q7 71 -31.5 114t-105.5 43z " horiz-adv-x="609" glyph-name="edieresis" unicode="ë"/>
<glyph d="M184 786l34 -166h-75l-68 166h109zM214 535l-80 -535h-89l80 535h89z" horiz-adv-x="241" glyph-name="igrave" unicode="ì"/>
<glyph d="M224 622h-79l84 166h113zM214 535l-80 -535h-89l80 535h89z" horiz-adv-x="241" glyph-name="iacute" unicode="í"/>
<glyph d="M109 619h-99l163 162h63l115 -162h-96l-59 90zM214 535l-80 -535h-89l80 535h89z" horiz-adv-x="241" glyph-name="icircumflex" unicode="î"/>
<glyph d="M87 616q-29 0 -45.5 19.5t-12.5 48.5q4 27 25.5 45t49.5 18q27 0 44 -19t13 -46q-4 -29 -25.5 -47.5t-48.5 -18.5zM283 616q-29 0 -45.5 19.5t-12.5 48.5q4 27 25.5 45t49.5 18q27 0 44 -19t13 -46q-4 -29 -25.5 -47.5t-48.5 -18.5zM214 535l-80 -535h-89l80 535h89z" horiz-adv-x="241" glyph-name="idieresis" unicode="ï"/>
<glyph d="M620 806l32 -56l-102 -63q104 -158 80 -341q-21 -156 -118 -257q-98 -102 -227 -102q-114 0 -181 75t-53 190q14 116 97 187t196 71q74 0 128.5 -36.5t73.5 -96.5q14 118 -50 232l-20 33l-114 -70l-33 55l109 67q-45 52 -98 94l69 58q61 -52 103 -106zM499 253 q10 76 -35 127q-44 51 -117 51q-81 0 -139 -52q-57 -50 -68 -134q-8 -76 34 -126q44 -51 119 -51q77 0 136 53q59 52 70 132z" horiz-adv-x="656" glyph-name="eth" unicode="ð"/>
<glyph d="M252 624l-56 33q18 42 51 66t73 24q34 0 74 -22t58 -22q43 0 69 47l54 -32q-18 -43 -50.5 -66.5t-72.5 -23.5q-33 0 -73 22q-41 23 -57 23q-42 0 -70 -49zM134 0h-89l80 535h87l-11 -76q65 90 181 90q90 0 143 -60q53 -59 35 -178l-46 -311h-89l44 299q12 81 -18 124 t-94 43q-70 0 -119.5 -50.5t-61.5 -132.5z" horiz-adv-x="614" glyph-name="ntilde" unicode="ñ"/>
<glyph d="M390 786l34 -166h-75l-68 166h109zM288 -13q-123 0 -189 84q-64 84 -48 202q17 120 107 197q90 78 208 78q119 0 185 -82t50 -201q-16 -117 -106 -198q-89 -80 -207 -80zM291 69q80 0 145 59t76 142q10 81 -33 138q-43 58 -121 58q-79 0 -143 -58q-65 -57 -75 -142 q-11 -83 32 -140q44 -57 119 -57z" horiz-adv-x="644" glyph-name="ograve" unicode="ò"/>
<glyph d="M417 622h-79l84 166h113zM288 -13q-123 0 -189 84q-64 84 -48 202q17 120 107 197q90 78 208 78q119 0 185 -82t50 -201q-16 -117 -106 -198q-89 -80 -207 -80zM291 69q80 0 145 59t76 142q10 81 -33 138q-43 58 -121 58q-79 0 -143 -58q-65 -57 -75 -142 q-11 -83 32 -140q44 -57 119 -57z" horiz-adv-x="644" glyph-name="oacute" unicode="ó"/>
<glyph d="M313 625h-99l163 162h63l115 -162h-96l-59 90zM288 -13q-123 0 -189 84q-64 84 -48 202q17 120 107 197q90 78 208 78q119 0 185 -82t50 -201q-16 -117 -106 -198q-89 -80 -207 -80zM291 69q80 0 145 59t76 142q10 81 -33 138q-43 58 -121 58q-79 0 -143 -58 q-65 -57 -75 -142q-11 -83 32 -140q44 -57 119 -57z" horiz-adv-x="644" glyph-name="ocircumflex" unicode="ô"/>
<glyph d="M263 627l-56 33q18 42 51 66t73 24q34 0 74 -22t58 -22q43 0 69 47l54 -32q-18 -43 -50.5 -66.5t-72.5 -23.5q-33 0 -73 22q-41 23 -57 23q-42 0 -70 -49zM288 -13q-123 0 -189 84q-64 84 -48 202q17 120 107 197q90 78 208 78q119 0 185 -82t50 -201q-16 -117 -106 -198 q-89 -80 -207 -80zM291 69q80 0 145 59t76 142q10 81 -33 138q-43 58 -121 58q-79 0 -143 -58q-65 -57 -75 -142q-11 -83 32 -140q44 -57 119 -57z" horiz-adv-x="644" glyph-name="otilde" unicode="õ"/>
<glyph d="M297 616q-29 0 -45.5 19.5t-12.5 48.5q4 27 25.5 45t49.5 18q27 0 44 -19t13 -46q-4 -29 -25.5 -47.5t-48.5 -18.5zM493 616q-29 0 -45.5 19.5t-12.5 48.5q4 27 25.5 45t49.5 18q27 0 44 -19t13 -46q-4 -29 -25.5 -47.5t-48.5 -18.5zM288 -13q-123 0 -189 84 q-64 84 -48 202q17 120 107 197q90 78 208 78q119 0 185 -82t50 -201q-16 -117 -106 -198q-89 -80 -207 -80zM291 69q80 0 145 59t76 142q10 81 -33 138q-43 58 -121 58q-79 0 -143 -58q-65 -57 -75 -142q-11 -83 32 -140q44 -57 119 -57z" horiz-adv-x="644" glyph-name="odieresis" unicode="ö"/>
<glyph d="M313 437q-28 0 -45 19.5t-12 48.5q4 23 22.5 38.5t42.5 15.5q28 0 44 -19t12 -47q-4 -23 -22.5 -39.5t-41.5 -16.5zM508 286h-444l12 81h444zM262 94q-28 0 -45 19.5t-12 48.5q3 23 21.5 38.5t42.5 15.5q28 0 45 -19.5t12 -46.5q-4 -23 -22.5 -39.5t-41.5 -16.5z" horiz-adv-x="550" glyph-name="divide" unicode="÷"/>
<glyph d="M565 590l50 -35l-69 -82q72 -82 55 -208q-16 -117 -106 -198q-89 -80 -207 -80q-70 0 -125 30l-65 -77l-46 36l64 77q-85 83 -65 220q17 120 107 197q90 78 208 78q76 0 134 -36zM140 266q-11 -87 35 -143l267 320q-35 23 -84 23q-79 0 -143 -58q-65 -57 -75 -142z M512 270q10 76 -27 131l-265 -316q33 -16 71 -16q80 0 145 59t76 142z" horiz-adv-x="644" glyph-name="oslash" unicode="ø"/>
<glyph d="M371 788l34 -166h-75l-68 166h109zM71 227l47 308h89l-47 -310q-11 -74 19 -114.5t93 -40.5q66 0 109.5 43t55.5 123l46 299h89l-47 -309q-18 -115 -86.5 -177t-173.5 -62q-106 0 -159 63.5t-35 176.5z" horiz-adv-x="592" glyph-name="ugrave" unicode="ù"/>
<glyph d="M396 622h-79l84 166h113zM71 227l47 308h89l-47 -310q-11 -74 19 -114.5t93 -40.5q66 0 109.5 43t55.5 123l46 299h89l-47 -309q-18 -115 -86.5 -177t-173.5 -62q-106 0 -159 63.5t-35 176.5z" horiz-adv-x="592" glyph-name="uacute" unicode="ú"/>
<glyph d="M286 619h-99l163 162h63l115 -162h-96l-59 90zM71 227l47 308h89l-47 -310q-11 -74 19 -114.5t93 -40.5q66 0 109.5 43t55.5 123l46 299h89l-47 -309q-18 -115 -86.5 -177t-173.5 -62q-106 0 -159 63.5t-35 176.5z" horiz-adv-x="592" glyph-name="ucircumflex" unicode="û"/>
<glyph d="M263 616q-29 0 -45.5 19.5t-12.5 48.5q4 27 25.5 45t49.5 18q27 0 44 -19t13 -46q-4 -29 -25.5 -47.5t-48.5 -18.5zM459 616q-29 0 -45.5 19.5t-12.5 48.5q4 27 25.5 45t49.5 18q27 0 44 -19t13 -46q-4 -29 -25.5 -47.5t-48.5 -18.5zM71 227l47 308h89l-47 -310 q-11 -74 19 -114.5t93 -40.5q66 0 109.5 43t55.5 123l46 299h89l-47 -309q-18 -115 -86.5 -177t-173.5 -62q-106 0 -159 63.5t-35 176.5z" horiz-adv-x="592" glyph-name="udieresis" unicode="ü"/>
<glyph d="M379 786h113l-118 -166h-79zM274 125l208 410h100l-316 -603q-45 -85 -92.5 -122t-106.5 -37q-53 0 -90 24l23 75q31 -16 62 -16q68 0 123 97l30 53l-152 529h102z" horiz-adv-x="548" glyph-name="yacute" unicode="ý"/>
<glyph d="M397 548q113 0 181 -83t54 -201q-15 -118 -96 -198q-80 -79 -198 -79q-128 0 -192 103l-45 -310h-89l146 977h89l-43 -294q79 85 193 85zM541 270q10 81 -34 138q-44 56 -126 56q-85 0 -143 -57q-57 -55 -66 -139q-10 -82 34 -140q45 -57 126 -57q86 0 142 57 q56 56 67 142zM131 117v1v-1z" horiz-adv-x="665" glyph-name="thorn" unicode="þ"/>
</font>
</defs>
</svg>
